osu file format v14

[General]
AudioFilename: audio.mp3
AudioLeadIn: 0
PreviewTime: 56298
Countdown: 0
SampleSet: Soft
StackLeniency: 0.5
Mode: 0
LetterboxInBreaks: 0
WidescreenStoryboard: 1

[Editor]
Bookmarks: 66661
DistanceSpacing: 0.3
BeatDivisor: 4
GridSize: 32
TimelineZoom: 2.599999

[Metadata]
Title:Gamushara (TV Size)
TitleUnicode:我武者羅 (TV Size)
Artist:CHiCO with HoneyWorks
ArtistUnicode:CHiCO with HoneyWorks
Creator:Euryalle
Version:Ryxliee's Insane
Source:BORUTO-ボルト- NARUTO NEXT GENERATIONS
Tags:anime pop jpop j-pop rock jrock j-rock japanese op opening 9 boruto naruto uchiha sasuke l1ght_u light_u -Hitomi Kirishima- Tachibana_ Ryxliee
BeatmapID:3495346
BeatmapSetID:1568645

[Difficulty]
HPDrainRate:5
CircleSize:4
OverallDifficulty:8
ApproachRate:9
SliderMultiplier:1.6
SliderTickRate:1

[Events]
//Background and Video events
0,0,"boruto.jpg",0,0
Video,-316,"video.mp4"
//Break Periods
2,52013,53687
//Storyboard Layer 0 (Background)
//Storyboard Layer 1 (Fail)
//Storyboard Layer 2 (Pass)
//Storyboard Layer 3 (Foreground)
//Storyboard Layer 4 (Overlay)
//Storyboard Sound Samples

[TimingPoints]
1092,309.278350515464,4,2,1,45,1,0
1092,-142.857142857143,4,2,1,45,0,0
9597,-142.857142857143,4,2,1,60,0,0
9751,-111.111111111111,4,2,1,60,0,0
12226,-100,4,2,1,70,0,0
17174,-142.857142857143,4,2,1,45,0,0
22122,-125,4,2,1,50,0,0
24597,-111.111111111111,4,2,1,50,0,0
27071,-100,4,2,1,70,0,0
36968,-125,4,2,1,60,0,0
45628,-100,4,2,1,60,0,0
46865,-111.111111111111,4,2,1,60,0,0
54287,-111.111111111111,4,2,1,70,0,0
56762,-86.9565217391304,4,2,1,80,0,1
76555,-142.857142857143,4,2,1,80,0,0
79030,-86.9565217391304,4,2,1,80,0,1
85061,-142.857142857143,4,2,1,80,0,0
87767,-125,4,2,1,80,0,0

[Colours]
Combo1 : 198,155,255
Combo2 : 255,201,147
Combo3 : 254,139,142

[HitObjects]
96,351,1092,6,0,P|87:290|74:232,1,111.999996582031,2|2,0:0|0:0,0:0:0:0:
76,240,1555,1,0,0:0:0:0:
13,169,1710,2,0,P|22:142|42:122,1,55.9999982910157,2|0,0:0|0:0,0:0:0:0:
132,111,2019,1,2,0:0:0:0:
191,221,2174,6,0,P|253:230|314:241,1,111.999996582031,2|0,0:0|0:0,0:0:0:0:
369,314,2638,1,2,0:0:0:0:
302,376,2793,1,2,0:0:0:0:
302,376,2947,2,0,P|284:354|278:327,1,55.9999982910157,2|2,0:0|0:0,0:0:0:0:
301,238,3256,1,2,0:0:0:0:
301,238,3566,6,0,P|333:231|363:224,1,55.9999982910157,2|0,0:0|0:0,0:0:0:0:
425,112,3875,2,0,P|414:143|405:172,1,55.9999982910157,2|2,0:0|0:0,0:0:0:0:
473,282,4184,2,0,P|449:256|428:234,1,55.9999982910157,2|2,0:0|0:0,0:0:0:0:
491,170,4494,1,2,0:0:0:0:
486,50,4648,6,0,P|436:25|382:35,1,111.999996582031,2|0,0:0|0:0,0:0:0:0:
327,113,5112,2,0,P|338:163|351:226,2,111.999996582031,2|2|2,0:0|0:0|0:0,0:0:0:0:
209,16,6040,6,0,P|199:80|192:131,1,111.999996582031,2|2,0:0|0:0,0:0:0:0:
192,126,6504,1,0,0:0:0:0:
235,214,6659,2,0,P|219:236|194:248,1,55.9999982910157,2|2,0:0|0:0,0:0:0:0:
115,199,6968,1,2,0:0:0:0:
20,266,7122,6,0,P|30:330|37:381,1,111.999996582031,2|0,0:0|0:0,0:0:0:0:
120,313,7586,1,2,0:0:0:0:
209,328,7741,1,0,0:0:0:0:
209,328,7896,2,0,P|202:355|185:376,1,55.9999982910157,2|2,0:0|0:0,0:0:0:0:
184,244,8205,2,0,P|239:245|281:279,1,111.999996582031,2|0,0:0|0:0,0:0:0:0:
408,220,9597,5,0,3:0:0:0:
414,214,9674,1,0,3:0:0:0:
424,210,9751,2,0,L|461:219,1,35.9999989013672,14|0,0:0|0:0,0:0:0:0:
508,152,9906,2,0,L|473:143,1,35.9999989013672,8|0,0:0|0:0,0:0:0:0:
288,27,11452,5,0,3:0:0:0:
278,33,11530,1,0,3:0:0:0:
268,38,11607,2,0,L|279:82,1,35.9999989013672,8|0,0:0|0:0,0:0:0:0:
333,133,11762,2,0,L|322:177,1,35.9999989013672,8|0,0:0|0:0,0:0:0:0:
277,231,11916,1,0,3:0:0:0:
279,241,11993,1,0,3:0:0:0:
282,251,12071,1,0,3:0:0:0:
284,261,12148,1,0,3:0:0:0:
286,271,12226,6,0,P|229:260|179:290,1,120,6|0,3:2|0:0,0:0:0:0:
166,288,12535,1,10,0:0:0:0:
33,384,12767,1,0,3:0:0:0:
40,374,12844,2,0,P|31:334|23:295,1,80,2|2,3:2|3:2,0:0:0:0:
140,373,13153,1,8,0:0:0:0:
67,218,13308,6,0,P|79:143|97:50,1,160,4|2,0:0|0:0,0:0:0:0:
223,9,13772,1,8,0:0:0:0:
155,159,14004,1,0,3:0:0:0:
157,170,14081,2,0,P|195:175|230:156,1,80,2|2,3:2|3:2,0:0:0:0:
350,32,14390,2,0,P|340:91|331:150,1,120,10|0,0:0|0:0,0:0:0:0:
325,160,14700,5,12,0:0:0:0:
448,70,14854,1,0,3:2:0:0:
428,242,15009,2,0,P|420:202|412:163,1,80,10|0,0:0|0:0,0:0:0:0:
269,232,15318,1,2,3:2:0:0:
405,333,15473,1,2,3:2:0:0:
325,160,15628,1,8,0:0:0:0:
220,327,15782,6,0,P|259:332|298:339,1,80,4|0,0:0|0:0,0:0:0:0:
173,215,16092,1,2,3:2:0:0:
161,218,16169,1,0,3:0:0:0:
149,221,16246,2,0,L|139:259,3,40,8|8|10|8,3:2|3:2|3:2|3:2,0:0:0:0:
81,321,16555,5,2,3:2:0:0:
24,210,16710,1,0,3:0:0:0:
27,198,16787,1,0,3:0:0:0:
35,189,16865,1,8,0:0:0:0:
135,140,17019,1,0,3:0:0:0:
92,63,17174,6,0,P|38:62|0:101,2,111.999996582031,2|2|2,0:0|0:0|0:0,0:0:0:0:
166,34,17947,1,2,0:0:0:0:
166,34,18256,2,0,P|227:45|278:58,1,111.999996582031,2|2,0:0|0:0,0:0:0:0:
294,187,18720,2,0,P|274:166|266:140,1,55.9999982910157,2|2,0:0|0:0,0:0:0:0:
347,105,19030,2,0,P|366:125|374:151,1,55.9999982910157,2|2,0:0|0:0,0:0:0:0:
317,272,19339,1,2,0:0:0:0:
317,272,19803,6,0,P|255:286|202:302,2,111.999996582031,2|2|2,0:0|0:0|0:0,0:0:0:0:
478,327,20731,2,0,P|429:305|412:253,1,111.999996582031,2|2,0:0|0:0,0:0:0:0:
510,166,21195,2,0,P|502:192|496:220,1,55.9999982910157,2|2,0:0|0:0,0:0:0:0:
423,172,21504,2,0,P|416:144|409:117,1,55.9999982910157,2|2,0:0|0:0,0:0:0:0:
327,42,21968,1,0,3:0:0:0:
319,39,22045,1,0,3:0:0:0:
309,38,22122,6,0,P|270:47|238:57,1,64,6|2,3:2|0:0,0:0:0:0:
164,145,22432,1,2,3:2:0:0:
164,145,22586,2,0,P|203:154|235:164,1,64,2|0,0:0|3:0,0:0:0:0:
276,224,22896,1,2,0:0:0:0:
227,310,23050,1,2,3:2:0:0:
227,310,23205,1,2,0:0:0:0:
118,240,23360,6,0,P|87:231|57:241,2,64,2|0|2,3:2|0:0|3:2,0:0:0:0:
124,340,23823,2,0,P|94:350|64:342,1,64,2|0,0:0|3:0,0:0:0:0:
0,295,24133,1,2,0:0:0:0:
54,193,24287,2,0,P|47:161|36:112,1,64,0|2,3:0|0:0,0:0:0:0:
179,101,24597,5,2,3:2:0:0:
179,101,24751,2,0,P|172:132|163:174,1,71.9999978027344,2|2,0:0|3:0,0:0:0:0:
131,244,25061,2,0,L|95:262,2,35.9999989013672,2|2|2,0:0|3:2|3:2,0:0:0:0:
210,243,25370,1,2,0:0:0:0:
154,335,25524,1,8,0:0:0:0:
293,381,25679,6,0,P|364:364|437:349,1,143.999995605469,14|10,0:0|0:0,0:0:0:0:
487,297,26066,1,8,0:0:0:0:
494,289,26143,2,0,L|482:254,3,35.9999989013672,8|0|0|0,0:0|3:0|3:0|3:0,0:0:0:0:
427,197,26452,2,0,L|438:162,3,35.9999989013672,0|0|0|0,3:0|3:0|3:0|3:0,0:0:0:0:
494,105,26762,1,8,0:0:0:0:
489,95,26839,1,8,0:0:0:0:
485,84,26916,1,8,0:0:0:0:
480,74,26994,1,8,0:0:0:0:
473,62,27071,6,0,P|422:34|365:46,1,120,6|0,3:2|0:0,0:0:0:0:
360,68,27380,2,0,P|332:95|293:101,1,80,10|2,0:0|3:2,0:0:0:0:
226,63,27612,1,2,3:2:0:0:
235,70,27689,2,0,P|243:109|254:165,1,80,2|2,3:2|3:2,0:0:0:0:
296,15,27999,1,10,0:0:0:0:
162,129,28153,6,0,B|122:138|80:108|107:95|64:67|21:75,1,160,4|0,0:0|3:0,0:0:0:0:
0,230,28617,2,0,P|34:249|73:244,1,80,10|2,0:0|3:2,0:0:0:0:
141,208,28849,1,2,3:2:0:0:
132,215,28926,2,0,P|124:254|113:310,1,80,2|2,3:2|3:2,0:0:0:0:
264,355,29236,2,0,P|257:315|249:276,1,80,10|0,0:0|0:0,0:0:0:0:
162,129,29545,6,0,B|208:96|208:96|308:131,1,160,4|8,3:2|0:0,0:0:0:0:
395,257,30009,1,2,3:2:0:0:
385,249,30086,1,2,3:2:0:0:
374,242,30164,2,0,P|380:200|388:161,1,80,2|0,3:2|0:0,0:0:0:0:
504,241,30473,1,10,0:0:0:0:
468,72,30628,6,0,P|396:39|321:60,1,160,4|0,0:0|0:0,0:0:0:0:
239,201,31092,2,0,P|270:177|281:139,1,80,10|2,0:0|3:2,0:0:0:0:
246,72,31323,1,2,3:2:0:0:
235,66,31401,2,0,P|195:74|156:83,1,80,2|2,3:2|3:2,0:0:0:0:
39,189,31710,1,8,0:0:0:0:
81,58,31865,1,2,3:2:0:0:
86,47,31942,1,2,3:2:0:0:
91,36,32019,5,4,3:2:0:0:
181,163,32174,2,0,P|142:168|107:149,1,80,0|8,0:0|0:0,0:0:0:0:
0,257,32483,1,2,3:2:0:0:
7,247,32561,1,2,3:2:0:0:
17,241,32638,2,0,P|55:235|90:254,1,80,2|2,3:2|3:2,0:0:0:0:
164,374,32947,1,10,0:0:0:0:
283,242,33102,6,0,P|264:159|240:67,1,160,6|2,0:0|3:2,0:0:0:0:
194,212,33566,1,10,0:0:0:0:
338,138,33720,1,2,3:2:0:0:
349,134,33798,1,2,3:2:0:0:
360,131,33875,2,0,P|404:138|438:144,1,80,2|2,3:2|3:2,0:0:0:0:
509,278,34184,2,0,P|465:285|430:291,1,80,10|0,0:0|0:0,0:0:0:0:
275,214,34494,5,6,0:0:0:0:
307,360,34648,2,0,P|338:336|349:298,1,80,0|8,0:0|0:0,0:0:0:0:
441,183,34957,1,2,3:2:0:0:
452,186,35035,1,2,3:2:0:0:
463,190,35112,1,2,3:2:0:0:
413,356,35267,1,2,3:2:0:0:
360,198,35421,1,8,0:0:0:0:
286,372,35576,6,0,B|246:381|204:351|231:338|188:310|145:318,1,160,4|0,3:2|3:0,0:0:0:0:
13,375,36040,2,0,P|44:351|54:313,1,80,10|0,0:0|0:0,0:0:0:0:
8,183,36349,6,0,P|25:200|67:207,1,53.3333333333333,8|4,3:0|3:0,0:0:0:0:
142,171,36555,1,4,3:0:0:0:
149,158,36659,2,0,P|176:142|205:141,2,53.3333333333333,2|4|4,3:2|3:0|3:0,0:0:0:0:
126,256,36968,6,0,P|134:290|141:327,1,64,4|2,3:2|0:0,0:0:0:0:
219,363,37277,1,2,3:2:0:0:
219,363,37432,2,0,P|225:331|232:300,1,64,2|0,0:0|3:0,0:0:0:0:
231,202,37741,2,0,P|264:212|300:220,1,64,2|0,0:0|3:0,0:0:0:0:
346,310,38050,1,0,3:0:0:0:
351,318,38128,1,0,3:0:0:0:
356,325,38205,6,0,P|382:342|414:344,1,64,2|2,3:2|0:0,0:0:0:0:
487,307,38514,2,0,P|479:267|471:230,1,64,0|0,3:0|0:0,0:0:0:0:
409,171,38823,2,0,P|417:131|425:94,1,64,2|2,3:2|0:0,0:0:0:0:
467,18,39133,1,2,3:2:0:0:
371,52,39287,1,8,0:0:0:0:
361,55,39365,1,8,0:0:0:0:
352,59,39442,6,0,P|319:52|284:45,1,64,4|2,0:0|0:0,0:0:0:0:
212,12,39751,2,0,P|198:40|203:71,1,64,0|8,3:0|0:0,0:0:0:0:
258,121,39983,1,8,0:0:0:0:
266,126,40061,2,0,P|279:154|274:185,1,64,2|10,3:2|0:0,0:0:0:0:
227,292,40370,1,2,3:2:0:0:
128,216,40524,1,10,0:0:0:0:
118,220,40602,1,8,0:0:0:0:
109,223,40679,6,0,P|77:218|45:214,1,64,4|2,3:2|0:0,0:0:0:0:
0,125,40988,2,0,P|31:120|63:116,1,64,0|2,3:0|0:0,0:0:0:0:
147,28,41298,2,0,P|183:32|210:61,1,64,6|0,3:0|0:0,0:0:0:0:
210,72,41530,2,0,P|235:91|266:92,1,64,6|0,3:0|0:0,0:0:0:0:
286,75,41762,1,6,3:0:0:0:
352,15,41916,6,0,P|413:30|475:47,2,128,2|0|0,3:2|3:0|3:0,0:0:0:0:
286,75,42689,1,2,0:0:0:0:
354,167,42844,2,0,P|371:141|366:110,1,64,2|2,3:2|0:0,0:0:0:0:
258,230,43153,6,0,P|288:233|321:239,1,64,4|2,3:2|0:0,0:0:0:0:
223,145,43463,2,0,P|192:148|160:154,1,64,0|8,3:0|0:0,0:0:0:0:
20,214,43772,1,0,3:0:0:0:
152,264,43927,1,2,3:2:0:0:
57,128,44081,1,2,3:2:0:0:
92,338,44236,1,10,3:0:0:0:
97,332,44313,1,8,3:0:0:0:
104,324,44390,6,0,P|107:292|111:260,1,64,4|0,3:2|0:0,0:0:0:0:
223,145,44700,2,0,P|226:176|230:208,1,64,2|2,3:2|3:0,0:0:0:0:
300,345,45009,1,8,0:0:0:0:
399,215,45164,1,2,3:2:0:0:
232,285,45318,1,8,0:0:0:0:
404,384,45473,1,2,3:2:0:0:
315,192,45628,6,0,L|308:232,3,40,8|8|10|8,0:0|0:0|3:2|3:2,0:0:0:0:
430,275,45937,2,0,L|421:236,3,40,2|0|2|0,3:2|3:0|3:2|3:0,0:0:0:0:
411,127,46246,1,10,3:2:0:0:
426,133,46323,1,8,3:2:0:0:
441,140,46401,1,0,3:0:0:0:
455,147,46478,1,0,3:0:0:0:
470,154,46555,2,0,P|507:148|509:77,1,120,4|0,3:2|0:0,0:0:0:0:
443,20,46865,6,0,P|401:25|372:30,1,71.9999978027344,6|2,3:2|0:0,0:0:0:0:
312,103,47174,1,2,3:2:0:0:
312,103,47329,2,0,P|276:97|240:92,1,71.9999978027344,2|0,3:2|0:0,0:0:0:0:
142,37,47638,2,0,P|150:72|156:120,1,71.9999978027344,2|0,0:0|3:0,0:0:0:0:
112,209,47947,1,10,0:0:0:0:
105,217,48024,1,8,0:0:0:0:
97,225,48102,6,0,P|62:232|30:216,1,71.9999978027344,0|2,3:0|0:0,0:0:0:0:
43,122,48411,2,0,P|77:114|109:130,1,71.9999978027344,0|0,3:0|0:0,0:0:0:0:
197,205,48720,2,0,P|232:198|276:191,1,71.9999978027344,2|2,3:2|0:0,0:0:0:0:
370,108,49030,1,2,3:2:0:0:
340,241,49184,1,10,0:0:0:0:
337,251,49262,1,8,0:0:0:0:
335,261,49339,6,0,P|342:302|347:340,1,71.9999978027344,0|2,3:2|0:0,0:0:0:0:
446,370,49648,2,0,P|450:334|457:298,1,71.9999978027344,0|0,3:2|0:0,0:0:0:0:
506,167,49957,2,0,P|482:193|446:197,1,71.9999978027344,2|10,0:0|0:0,0:0:0:0:
422,169,50189,1,8,0:0:0:0:
415,160,50267,1,2,3:2:0:0:
318,32,50421,6,0,P|282:35|259:62,1,71.9999978027344,10|0,0:0|3:0,0:0:0:0:
328,177,50731,2,0,P|342:144|331:111,1,71.9999978027344,10|0,0:0|3:0,0:0:0:0:
184,160,51040,2,0,P|219:152|254:148,1,71.9999978027344,12|0,0:0|3:0,0:0:0:0:
322,266,51349,1,10,0:0:0:0:
311,264,51427,1,8,0:0:0:0:
300,262,51504,1,0,3:0:0:0:
199,318,51659,1,8,0:0:0:0:
328,177,51813,5,2,0:0:0:0:
328,177,54287,6,0,L|333:141,1,35.9999989013672,14|0,0:0|0:0,0:0:0:0:
176,31,54906,6,0,L|181:66,1,35.9999989013672,14|0,0:0|0:0,0:0:0:0:
328,177,55524,5,10,0:0:0:0:
331,166,55602,1,0,3:0:0:0:
332,155,55679,2,0,L|338:119,1,35.9999989013672,0|0,3:0|3:0,0:0:0:0:
488,58,55834,5,10,0:0:0:0:
485,69,55912,1,0,3:0:0:0:
484,80,55989,2,0,L|477:115,1,35.9999989013672,0|0,3:0|3:0,0:0:0:0:
405,252,56143,1,8,0:0:0:0:
405,252,56762,6,0,P|350:290|283:279,1,138.000002632141,6|0,3:2|0:0,0:0:0:0:
277,255,57071,2,0,P|237:229|186:235,1,92.0000017547608,10|0,0:0|3:0,0:0:0:0:
145,304,57303,1,0,3:0:0:0:
153,293,57380,2,0,P|144:245|131:188,1,92.0000017547608,2|0,3:2|3:0,0:0:0:0:
0,299,57689,1,10,0:0:0:0:
88,93,57844,6,0,B|129:65|186:98|154:115|201:157|250:136,1,184.000003509522,4|0,3:2|0:0,0:0:0:0:
379,5,58308,1,8,0:0:0:0:
320,173,58463,1,2,3:2:0:0:
317,186,58540,1,0,3:0:0:0:
306,194,58617,1,0,3:0:0:0:
232,51,58772,1,2,3:2:0:0:
392,131,58927,2,0,P|436:137|472:111,1,92.0000017547608,10|0,0:0|0:0,0:0:0:0:
232,51,59236,6,0,P|240:96|247:141,1,92.0000017547608,6|0,3:2|0:0,0:0:0:0:
143,283,59545,1,10,0:0:0:0:
306,194,59700,1,0,3:0:0:0:
318,200,59777,1,0,3:0:0:0:
329,207,59854,2,0,P|320:252|313:297,1,92.0000017547608,2|2,3:2|3:2,0:0:0:0:
174,198,60164,1,10,0:0:0:0:
55,367,60318,6,0,B|2:324|2:324|45:216,1,184.000003509522,4|0,0:0|3:0,0:0:0:0:
150,100,60782,2,0,P|120:133|75:138,1,92.0000017547608,10|0,0:0|3:0,0:0:0:0:
0,93,61014,1,0,3:0:0:0:
8,103,61092,2,0,P|19:51|34:-13,1,92.0000017547608,2|0,3:2|3:0,0:0:0:0:
150,100,61401,1,10,0:0:0:0:
161,119,61478,1,8,0:0:0:0:
179,133,61555,1,8,0:0:0:0:
201,140,61632,1,8,0:0:0:0:
224,138,61710,6,0,P|212:69|200:1,1,138.000002632141,6|0,3:2|0:0,0:0:0:0:
174,0,62019,1,10,0:0:0:0:
312,89,62174,1,0,3:0:0:0:
321,98,62251,1,0,3:0:0:0:
331,106,62329,2,0,P|374:115|413:92,1,92.0000017547608,2|2,3:2|3:2,0:0:0:0:
316,228,62638,1,10,0:2:0:0:
473,34,62793,6,0,B|461:119|461:119|456:125|456:125|443:214,1,184.000003509522,6|0,3:2|3:0,0:0:0:0:
336,357,63256,1,8,0:0:0:0:
489,282,63411,1,2,3:2:0:0:
501,287,63488,1,0,3:0:0:0:
511,295,63566,1,2,3:2:0:0:
399,190,63720,1,2,0:0:0:0:
336,357,63875,2,0,P|290:362|255:329,1,92.0000017547608,10|0,0:0|0:0,0:0:0:0:
314,122,64184,6,0,P|307:167|301:212,1,92.0000017547608,10|2,0:0|3:2,0:0:0:0:
129,371,64494,2,0,P|123:325|116:280,1,92.0000017547608,10|2,0:0|3:2,0:0:0:0:
233,138,64802,1,10,0:0:0:0:
110,197,64957,1,10,0:0:0:0:
166,40,65112,1,10,0:0:0:0:
300,213,65267,6,0,B|341:241|398:208|366:191|413:149|462:170,1,184.000003509522,6|8,3:2|0:0,0:0:0:0:
512,239,65653,1,8,0:0:0:0:
501,248,65731,2,0,L|490:316,1,46.0000008773804,8|0,0:0|3:0,0:0:0:0:
365,373,65885,1,0,3:0:0:0:
358,360,65963,1,0,3:0:0:0:
353,347,66040,2,0,L|360:301,1,46.0000008773804,0|0,3:0|3:0,0:0:0:0:
455,124,66195,2,0,L|462:170,1,46.0000008773804,2|0,3:2|3:0,0:0:0:0:
344,64,66349,1,10,0:0:0:0:
325,62,66427,1,8,0:0:0:0:
307,57,66504,1,10,0:0:0:0:
288,55,66581,1,8,0:0:0:0:
269,52,66659,6,0,B|225:84|225:84|251:163,1,138.000002632141,6|0,3:2|0:0,0:0:0:0:
273,175,66968,2,0,P|263:220|255:265,1,92.0000017547608,10|0,0:0|3:0,0:0:0:0:
274,353,67200,1,0,3:3:0:0:
284,337,67277,2,0,P|247:311|202:318,1,92.0000017547608,2|0,3:2|3:0,0:0:0:0:
48,384,67586,1,10,0:2:0:0:
90,172,67741,6,0,P|109:257|126:352,1,184.000003509522,6|0,3:2|3:0,0:0:0:0:
12,233,68205,1,8,0:0:0:0:
188,175,68360,1,2,3:2:0:0:
186,187,68437,1,0,3:0:0:0:
182,200,68514,1,2,3:2:0:0:
57,90,68669,1,2,3:2:0:0:
121,257,68823,2,0,P|156:284|222:274,1,92.0000017547608,10|0,0:0|0:0,0:0:0:0:
322,137,69133,6,0,P|314:182|308:228,1,92.0000017547608,6|0,3:2|0:0,0:0:0:0:
223,384,69442,1,10,0:0:0:0:
389,266,69597,1,2,3:2:0:0:
401,272,69674,1,0,3:0:0:0:
413,277,69751,2,0,P|420:322|426:368,1,92.0000017547608,2|2,3:2|3:2,0:0:0:0:
293,244,70061,1,10,0:0:0:0:
486,153,70215,6,0,P|460:68|375:46,1,184.000003509522,4|0,3:2|0:0,0:0:0:0:
234,168,70679,1,10,0:0:0:0:
294,32,70834,1,0,3:0:0:0:
296,46,70911,1,0,3:0:0:0:
299,60,70988,1,2,3:2:0:0:
369,170,71143,1,10,0:0:0:0:
367,184,71220,1,8,0:0:0:0:
364,198,71298,2,0,L|355:246,3,46.0000008773804,8|8|8|8,0:0|0:0|0:0|0:0,0:0:0:0:
410,305,71607,6,0,B|369:333|312:300|344:283|297:241|248:262,1,184.000003509522,6|8,3:2|0:0,0:0:0:0:
120,357,72071,1,0,3:0:0:0:
107,351,72148,1,0,3:0:0:0:
95,343,72226,2,0,L|103:297,1,46.0000008773804,10|0,0:0|3:0,0:0:0:0:
184,185,72380,2,0,L|175:230,1,46.0000008773804,2|0,3:2|3:0,0:0:0:0:
61,103,72535,1,10,0:0:0:0:
51,92,72612,1,0,3:0:0:0:
42,81,72689,6,0,B|85:28|85:28|193:71,1,184.000003509522,6|0,3:2|3:0,0:0:0:0:
284,220,73153,1,8,0:0:0:0:
396,69,73308,1,2,3:2:0:0:
387,58,73385,1,0,3:0:0:0:
378,47,73463,2,0,P|333:41|298:68,1,92.0000017547608,2|0,3:2|3:0,0:0:0:0:
407,247,73772,2,0,P|413:201|421:156,1,92.0000017547608,10|0,0:0|3:0,0:0:0:0:
273,331,74081,6,0,P|266:285|258:240,1,92.0000017547608,14|2,0:0|3:2,0:0:0:0:
119,103,74390,1,10,0:0:0:0:
176,225,74545,1,2,3:2:0:0:
307,141,74700,1,10,0:0:0:0:
190,309,74854,1,8,0:0:0:0:
178,316,74932,1,8,0:0:0:0:
165,322,75009,2,0,L|119:315,1,46.0000008773804,10|8,0:2|0:0,0:0:0:0:
16,367,75164,6,0,P|87:317|67:233,1,184.000003509522,6|8,3:2|0:0,0:0:0:0:
0,69,75628,1,8,0:0:0:0:
146,147,75782,1,2,3:2:0:0:
159,142,75860,1,2,3:2:0:0:
171,136,75937,6,0,L|163:90,1,46.0000008773804,8|0,0:3|0:0,0:0:0:0:
259,102,76169,6,0,L|275:58,1,46.0000008773804,8|0,0:3|0:0,0:0:0:0:
353,116,76401,6,0,L|388:86,1,46.0000008773804,12|0,0:3|0:0,0:0:0:0:
425,183,76555,6,0,B|459:211|499:200|499:200|465:255|406:234|427:202|361:174|313:216,1,279.999991455078,4|0,3:2|0:0,0:0:0:0:
266,265,77483,1,8,0:0:0:0:
193,364,77638,6,0,P|140:382|88:365,1,111.999996582031,4|8,3:2|0:3,0:0:0:0:
21,222,78256,1,2,3:2:0:0:
24,232,78334,1,0,3:0:0:0:
27,242,78411,1,2,3:2:0:0:
124,201,78566,1,2,3:2:0:0:
67,90,78720,2,0,P|61:117|56:145,1,55.9999982910157,12|0,0:0|0:0,0:0:0:0:
182,65,79030,6,0,P|217:43|266:52,1,92.0000017547608,14|8,3:2|0:0,0:0:0:0:
322,106,79262,1,8,0:0:0:0:
310,113,79339,2,0,L|303:158,1,46.0000008773804,8|8,3:2|0:0,0:0:0:0:
242,217,79494,2,0,L|248:262,1,46.0000008773804,8|8,0:0|0:0,0:0:0:0:
351,353,79648,1,10,3:2:0:0:
363,358,79726,1,8,0:0:0:0:
376,362,79803,1,10,0:0:0:0:
389,362,79880,1,10,0:0:0:0:
402,360,79957,2,0,L|411:290,1,46.0000008773804,10|10,0:0|0:0,0:0:0:0:
491,195,80112,6,0,B|450:167|393:200|425:217|378:259|329:238,1,184.000003509522,6|8,0:0|0:0,0:0:0:0:
263,186,80499,1,8,0:0:0:0:
255,174,80576,2,0,L|261:129,1,46.0000008773804,10|8,0:0|0:0,0:0:0:0:
324,74,80731,2,0,L|318:29,1,46.0000008773804,8|0,0:0|3:0,0:0:0:0:
187,66,80885,1,2,3:2:0:0:
176,74,80963,1,0,3:0:0:0:
164,80,81040,1,2,3:2:0:0:
150,79,81117,1,2,3:2:0:0:
136,75,81195,2,0,P|97:51|54:62,1,92.0000017547608,12|0,0:0|0:0,0:0:0:0:
1,204,81504,6,0,P|20:274|37:353,1,138.000002632141,6|0,3:2|0:0,0:0:0:0:
21,360,81813,2,0,P|55:330|100:332,1,92.0000017547608,8|0,0:0|3:0,0:0:0:0:
168,384,82045,1,0,3:0:0:0:
155,377,82122,2,0,P|162:333|171:280,1,92.0000017547608,2|2,3:2|3:2,0:0:0:0:
302,173,82432,1,10,0:0:0:0:
105,224,82586,6,0,P|36:170|53:84,1,184.000003509522,6|0,3:2|3:0,0:0:0:0:
208,0,83050,1,8,0:0:0:0:
178,151,83205,1,2,3:2:0:0:
184,163,83282,1,0,3:0:0:0:
190,175,83360,2,0,P|235:167|290:159,1,92.0000017547608,2|0,3:2|0:0,0:0:0:0:
394,35,83669,1,10,0:0:0:0:
387,47,83746,1,8,0:0:0:0:
384,60,83823,1,8,0:0:0:0:
386,74,83900,1,8,0:0:0:0:
389,86,83978,6,0,P|410:125|399:168,1,92.0000017547608,6|2,3:2|3:2,0:0:0:0:
275,278,84287,1,10,0:0:0:0:
425,341,84442,1,10,0:0:0:0:
438,338,84519,1,8,0:0:0:0:
451,335,84597,1,10,0:0:0:0:
343,232,84751,1,0,3:0:0:0:
254,384,84906,1,2,3:2:0:0:
423,252,85061,5,6,3:2:0:0:
256,192,85138,12,0,87767,0:0:0:0:
