osu file format v14

[General]
AudioFilename: audio.mp3
AudioLeadIn: 0
PreviewTime: 56298
Countdown: 0
SampleSet: Soft
StackLeniency: 0.7
Mode: 0
LetterboxInBreaks: 0
WidescreenStoryboard: 0

[Editor]
DistanceSpacing: 1.3
BeatDivisor: 4
GridSize: 16
TimelineZoom: 4.199998

[Metadata]
Title:Gamushara (TV Size)
TitleUnicode:我武者羅 (TV Size)
Artist:CHiCO with HoneyWorks
ArtistUnicode:CHiCO with HoneyWorks
Creator:Euryalle
Version:Break Out
Source:BORUTO-ボルト- NARUTO NEXT GENERATIONS
Tags:anime pop jpop j-pop rock jrock j-rock japanese op opening 9 boruto naruto uchiha sasuke l1ght_u light_u -Hitomi Kirishima- Tachibana_ Ryxliee
BeatmapID:3474234
BeatmapSetID:1568645

[Difficulty]
HPDrainRate:6
CircleSize:4
OverallDifficulty:9
ApproachRate:9.3
SliderMultiplier:1.8
SliderTickRate:1

[Events]
//Background and Video events
0,0,"boruto.jpg",0,0
Video,-316,"video.mp4"
//Break Periods
2,10106,10898
2,17373,21414
2,52013,53733
//Storyboard Layer 0 (Background)
//Storyboard Layer 1 (Fail)
//Storyboard Layer 2 (Pass)
//Storyboard Layer 3 (Foreground)
//Storyboard Layer 4 (Overlay)
//Storyboard Sound Samples

[TimingPoints]
1092,309.278350515464,4,2,1,45,1,0
1092,-142.857142857143,4,2,1,45,0,0
9597,-117.647058823529,4,2,1,60,0,0
12226,-100,4,2,1,70,0,0
22122,-125,4,2,1,50,0,0
26143,-111.111111111111,4,2,1,50,0,0
27071,-100,4,2,1,70,0,0
36968,-117.647058823529,4,2,1,60,0,0
41298,-71.4285714285714,4,2,1,60,0,0
41375,-71.4285714285714,4,2,1,5,0,0
41530,-71.4285714285714,4,2,1,60,0,0
41839,-71.4285714285714,4,2,1,5,0,0
41916,-117.647058823529,4,2,1,60,0,0
46246,-90.9090909090909,4,2,1,60,0,0
46865,-111.111111111111,4,2,1,60,0,0
54287,-83.3333333333333,4,2,1,70,0,0
55524,-83.3333333333333,4,2,1,70,0,0
55834,-71.4285714285714,4,2,1,70,0,0
56762,-83.3333333333333,4,2,1,80,0,1
65731,-76.9230769230769,4,2,1,80,0,1
66659,-83.3333333333333,4,2,1,80,0,1
75937,-71.4285714285714,4,2,1,80,0,1
76014,-71.4285714285714,4,2,1,5,0,1
76169,-71.4285714285714,4,2,1,80,0,1
76246,-83.3333333333333,4,2,1,5,0,1
76401,-71.4285714285714,4,2,1,80,0,1
76478,-71.4285714285714,4,2,1,5,0,1
76555,-125,4,2,1,80,0,0
79030,-83.3333333333333,4,2,1,80,0,1
81195,-200,4,2,1,80,0,1
81427,-200,4,2,1,5,0,1
81504,-83.3333333333333,4,2,1,80,0,1
85061,-125,4,2,1,80,0,0

[Colours]
Combo1 : 137,207,254
Combo2 : 255,201,147
Combo3 : 254,139,142
Combo4 : 198,155,255

[HitObjects]
191,71,1092,6,0,P|174:105|176:141,1,62.9999980773926,2|0,0:0|0:0,0:0:0:0:
318,171,1401,2,0,P|297:139|264:123,1,62.9999980773926,2|0,0:0|0:0,0:0:0:0:
168,232,1710,2,0,P|205:229|236:209,1,62.9999980773926,2|0,0:0|0:0,0:0:0:0:
191,71,2019,1,2,0:0:0:0:
64,148,2174,2,0,P|78:212|92:282,1,125.999996154785,2|0,0:0|0:0,0:0:0:0:
171,338,2638,5,2,0:0:0:0:
185,320,2793,1,2,0:0:0:0:
76,209,2947,2,0,P|70:178|64:148,1,62.9999980773926,2|2,0:0|0:0,0:0:0:0:
191,71,3256,2,0,P|184:101|178:132,1,62.9999980773926,2|0,0:0|0:0,0:0:0:0:
272,267,3566,6,0,P|254:233|160:228,1,125.999996154785,2|2,0:0|0:0,0:0:0:0:
113,289,4030,1,2,0:0:0:0:
116,115,4184,2,0,L|177:132,1,62.9999980773926,2|2,0:0|0:0,0:0:0:0:
220,216,4494,1,2,0:0:0:0:
265,34,4648,2,0,L|296:175,1,125.999996154785,2|0,0:0|0:0,0:0:0:0:
330,325,5112,2,0,L|317:264,1,62.9999980773926,2|0,0:0|0:0,0:0:0:0:
165,274,5421,2,0,L|225:293,1,62.9999980773926,2|0,0:0|0:0,0:0:0:0:
292,157,5731,2,0,L|245:199,1,62.9999980773926,2|0,0:0|0:0,0:0:0:0:
378,199,6040,6,0,P|414:208|448:190,1,62.9999980773926,2|0,0:0|0:0,0:0:0:0:
321,74,6349,2,0,P|285:65|251:83,1,62.9999980773926,2|0,0:0|0:0,0:0:0:0:
171,169,6659,1,2,0:0:0:0:
302,233,6813,1,2,0:0:0:0:
214,312,6968,1,2,0:0:0:0:
167,156,7122,6,0,P|111:149|63:202,1,125.999996154785,2|0,0:0|0:0,0:0:0:0:
41,311,7586,1,2,0:0:0:0:
57,317,7741,1,0,0:0:0:0:
205,232,7896,2,0,L|136:246,1,62.9999980773926,2|2,0:0|0:0,0:0:0:0:
291,337,8205,2,0,L|360:351,1,62.9999980773926,2|0,0:0|0:0,0:0:0:0:
300,245,8514,5,0,0:0:0:0:
356,312,9597,5,0,3:0:0:0:
370,306,9674,1,0,3:0:0:0:
384,300,9751,1,14,0:0:0:0:
325,66,9906,1,8,0:0:0:0:
297,54,11452,5,0,3:0:0:0:
311,60,11530,1,0,3:0:0:0:
325,66,11607,1,8,0:0:0:0:
266,303,11762,1,8,0:0:0:0:
137,121,11916,1,0,3:0:0:0:
168,99,11994,1,0,3:0:0:0:
205,92,12071,1,0,3:0:0:0:
242,100,12148,1,0,3:0:0:0:
273,123,12226,6,0,P|316:142|373:129,1,90,6|0,3:2|3:2,0:0:0:0:
475,26,12534,2,0,P|466:75|457:133,1,90,10|0,0:0|3:0,0:0:0:0:
456,143,12766,1,0,3:0:0:0:
456,143,12843,1,2,3:2:0:0:
512,340,12998,1,2,3:2:0:0:
402,197,13152,1,8,0:0:0:0:
216,354,13307,6,0,P|276:344|376:326,1,135,4|0,0:0|0:0,0:0:0:0:
292,249,13616,2,0,L|302:160,1,90,2|8,0:0|0:0,0:0:0:0:
320,53,13926,1,2,3:2:0:0:
320,53,14003,1,0,3:0:0:0:
320,53,14080,1,2,3:2:0:0:
221,197,14235,1,2,3:2:0:0:
395,268,14389,2,0,L|404:178,1,90,10|0,0:0|0:0,0:0:0:0:
233,97,14699,6,0,P|190:84|138:99,1,90,12|0,0:0|3:2,0:0:0:0:
87,230,15008,2,0,P|81:156|61:71,1,135,10|0,0:0|0:0,0:0:0:0:
9,21,15317,1,2,3:2:0:0:
146,93,15472,1,2,3:2:0:0:
4,242,15627,1,8,0:0:0:0:
156,85,15781,6,0,P|214:73|293:156,1,180,4|2,0:0|3:2,0:0:0:0:
291,177,16168,1,0,3:0:0:0:
288,204,16245,1,8,3:2:0:0:
285,231,16322,1,8,3:2:0:0:
282,258,16400,1,10,3:2:0:0:
279,285,16477,1,8,3:2:0:0:
278,311,16554,6,0,L|271:380,1,45,2|0,3:2|3:0,0:0:0:0:
404,269,16709,2,0,L|411:200,1,45,0|0,3:0|3:0,0:0:0:0:
392,353,16864,1,8,0:0:0:0:
511,260,17018,1,0,3:0:0:0:
416,143,17173,1,2,0:0:0:0:
283,32,21968,5,0,3:0:0:0:
294,40,22045,1,0,3:0:0:0:
306,48,22122,6,0,P|302:90|275:125,1,72,6|2,3:2|0:0,0:0:0:0:
340,190,22432,2,0,P|301:207|257:201,1,72,2|2,3:2|0:0,0:0:0:0:
234,290,22741,2,0,P|199:265|182:224,1,72,0|2,3:0|0:0,0:0:0:0:
94,248,23050,2,0,P|97:205|125:170,1,72,2|2,3:2|0:0,0:0:0:0:
157,43,23360,6,0,P|174:74|176:109,1,72,2|0,3:2|0:0,0:0:0:0:
282,215,23669,2,0,L|192:181,1,72,2|2,3:2|0:0,0:0:0:0:
361,138,23978,2,0,L|451:104,1,72,0|2,3:0|0:0,0:0:0:0:
400,314,24287,2,0,L|379:229,1,72,0|2,3:0|0:0,0:0:0:0:
276,126,24597,5,2,3:2:0:0:
443,185,24751,1,2,0:0:0:0:
302,287,24906,2,0,P|267:306|227:300,1,72,2|2,3:0|0:0,0:0:0:0:
199,273,25138,1,2,3:2:0:0:
203,277,25215,1,2,3:2:0:0:
105,138,25370,1,2,0:0:0:0:
257,218,25524,1,8,0:0:0:0:
119,336,25679,6,0,P|112:294|101:249,1,72,14|0,0:0|0:0,0:0:0:0:
71,130,25988,1,10,0:0:0:0:
88,134,26066,1,8,0:0:0:0:
105,138,26143,2,0,L|158:149,1,40.4999987640381,8|0,0:0|3:0,0:0:0:0:
296,226,26298,2,0,L|252:216,1,40.4999987640381,0|0,3:0|3:0,0:0:0:0:
396,84,26452,5,0,3:0:0:0:
426,102,26530,1,0,3:0:0:0:
441,134,26607,1,0,3:0:0:0:
436,169,26684,1,0,3:0:0:0:
413,196,26762,1,8,0:0:0:0:
383,240,26839,1,8,0:0:0:0:
394,291,26916,1,8,0:0:0:0:
437,320,26995,1,8,0:0:0:0:
489,310,27071,6,0,P|495:270|508:213,1,90,6|0,3:2|0:0,0:0:0:0:
276,132,27380,2,0,P|285:175|292:220,1,90,10|2,0:0|3:2,0:0:0:0:
298,271,27612,1,2,3:2:0:0:
298,271,27689,1,2,3:2:0:0:
129,349,27844,1,2,3:2:0:0:
212,228,27998,1,10,0:0:0:0:
364,338,28153,6,0,P|317:367|213:314,1,180,4|0,0:0|3:0,0:0:0:0:
131,158,28617,2,0,P|125:197|113:262,1,90,10|2,0:0|3:2,0:0:0:0:
108,287,28849,1,2,3:2:0:0:
108,287,28926,1,2,3:2:0:0:
210,138,29081,1,2,3:2:0:0:
35,79,29235,2,0,P|41:118|53:183,1,90,10|0,0:0|0:0,0:0:0:0:
167,24,29545,6,0,B|212:-1|258:21|258:21|284:78|357:61,1,180,4|8,3:2|0:0,0:0:0:0:
464,9,30009,1,2,3:2:0:0:
464,9,30086,1,2,3:2:0:0:
464,9,30163,2,0,P|453:53|446:99,1,90,2|0,3:2|0:0,0:0:0:0:
511,232,30473,1,10,0:0:0:0:
299,171,30627,6,0,P|321:259|335:351,1,180,4|0,0:0|0:0,0:0:0:0:
224,277,31091,1,10,0:0:0:0:
380,202,31246,1,2,3:2:0:0:
394,192,31323,1,2,3:2:0:0:
410,184,31401,1,2,3:2:0:0:
226,69,31555,1,2,3:2:0:0:
332,11,31710,1,8,0:0:0:0:
221,198,31864,1,2,3:2:0:0:
204,205,31941,1,2,3:2:0:0:
186,204,32019,6,0,P|173:159|156:117,1,90,4|0,3:2|0:0,0:0:0:0:
365,213,32329,2,0,P|348:254|335:298,1,90,8|2,0:0|3:2,0:0:0:0:
355,337,32561,1,2,3:2:0:0:
355,337,32638,1,2,3:2:0:0:
258,255,32793,1,2,3:2:0:0:
493,211,32947,1,10,0:0:0:0:
396,127,33102,6,0,B|291:85|326:187|211:135,1,180,6|2,0:0|3:2,0:0:0:0:
91,21,33566,2,0,P|104:68|115:121,1,90,10|2,0:0|3:2,0:0:0:0:
116,150,33797,1,2,3:2:0:0:
116,150,33874,1,2,3:2:0:0:
31,280,34029,1,2,3:2:0:0:
230,142,34184,2,0,P|217:189|206:242,1,90,10|0,0:0|0:0,0:0:0:0:
385,384,34493,6,0,P|416:346|363:236,1,180,6|8,0:0|0:0,0:0:0:0:
230,371,34957,1,2,3:2:0:0:
245,361,35035,1,2,3:2:0:0:
260,352,35112,1,2,3:2:0:0:
405,266,35267,1,2,3:2:0:0:
258,142,35421,1,8,0:0:0:0:
350,55,35575,6,0,P|338:133|320:245,1,180,4|0,3:2|3:0,0:0:0:0:
143,88,36040,2,0,P|192:80|260:65,1,90,10|0,0:0|0:0,0:0:0:0:
195,245,36349,5,8,3:0:0:0:
158,272,36452,1,4,3:0:0:0:
113,273,36555,1,4,3:0:0:0:
76,247,36659,2,0,L|53:150,2,60,2|4|4,3:2|3:0|3:0,0:0:0:0:
195,245,36969,6,0,P|204:284|212:323,1,76.5000014591217,4|2,3:2|0:0,0:0:0:0:
322,302,37277,2,0,P|313:263|305:224,1,76.5000014591217,2|2,3:2|0:0,0:0:0:0:
322,130,37586,2,0,P|269:131|243:153,1,76.5000014591217,0|2,3:0|0:0,0:0:0:0:
195,245,37896,1,0,3:0:0:0:
322,302,38050,1,0,3:0:0:0:
340,299,38127,1,0,3:0:0:0:
359,297,38205,6,0,L|445:283,1,76.5000014591217,2|2,3:2|0:0,0:0:0:0:
474,170,38514,2,0,L|398:182,1,76.5000014591217,0|0,3:0|0:0,0:0:0:0:
452,266,38823,1,2,3:2:0:0:
414,96,38978,1,2,0:0:0:0:
452,266,39133,1,2,3:2:0:0:
414,96,39287,1,8,0:0:0:0:
377,101,39364,1,8,0:0:0:0:
341,106,39442,6,0,P|283:95|264:79,1,76.5000014591217,4|2,0:0|0:0,0:0:0:0:
331,26,39751,1,0,3:0:0:0:
250,176,39906,1,8,0:0:0:0:
216,157,39983,1,8,0:0:0:0:
178,155,40060,1,2,3:2:0:0:
65,328,40215,1,10,0:0:0:0:
194,289,40370,1,2,3:2:0:0:
178,155,40524,1,10,0:0:0:0:
141,164,40602,1,8,0:0:0:0:
112,188,40679,6,0,P|115:236|117:274,1,76.5000014591217,4|2,3:2|0:0,0:0:0:0:
213,162,40988,2,0,P|210:123|208:85,1,76.5000014591217,0|2,3:0|0:0,0:0:0:0:
172,15,41298,6,0,P|203:7|236:13,1,62.9999980773926,6|0,3:0|0:0,0:0:0:0:
276,173,41530,6,0,P|253:150|242:118,1,62.9999980773926,6|0,3:0|3:0,0:0:0:0:
360,3,41762,6,0,P|351:33|329:59,1,62.9999980773926,6|0,3:0|0:0,0:0:0:0:
166,97,41916,6,0,L|64:90,1,76.5000014591217,2|0,3:2|0:0,0:0:0:0:
83,183,42225,2,0,L|185:190,1,76.5000014591217,0|0,3:0|0:0,0:0:0:0:
279,249,42534,2,0,L|381:242,1,76.5000014591217,0|2,3:0|0:0,0:0:0:0:
362,335,42844,2,0,L|260:342,1,76.5000014591217,2|2,3:2|0:0,0:0:0:0:
450,282,43152,6,0,L|440:148,1,114.750002188683,4|0,3:2|0:0,0:0:0:0:
439,131,43462,2,0,P|392:117|363:132,1,76.5000014591217,0|8,3:0|0:0,0:0:0:0:
314,207,43771,1,0,3:0:0:0:
270,71,43926,1,2,3:2:0:0:
410,33,44080,1,2,3:2:0:0:
237,167,44235,1,10,3:0:0:0:
201,177,44312,1,8,3:0:0:0:
166,163,44389,6,0,L|158:29,1,114.750002188683,4|0,3:2|0:0,0:0:0:0:
158,11,44699,2,0,P|202:-8|233:2,1,76.5000014591217,2|2,3:2|3:0,0:0:0:0:
339,132,45008,5,8,0:0:0:0:
197,71,45163,1,2,3:2:0:0:
119,254,45318,5,8,0:0:0:0:
237,167,45472,1,2,3:2:0:0:
70,46,45627,5,8,0:0:0:0:
46,75,45704,1,8,0:0:0:0:
36,112,45781,1,10,3:2:0:0:
44,149,45860,1,8,3:2:0:0:
66,179,45936,1,2,3:2:0:0:
101,210,46013,1,0,3:0:0:0:
119,254,46092,1,2,3:2:0:0:
116,301,46169,1,0,3:0:0:0:
92,342,46246,6,0,L|28:334,1,49.5000015106202,10|8,3:2|3:2,0:0:0:0:
247,277,46400,2,0,L|197:270,1,49.5000015106202,0|0,3:0|3:0,0:0:0:0:
401,211,46554,1,4,3:2:0:0:
401,211,46865,6,0,L|317:200,1,80.9999975280763,6|2,3:2|0:0,0:0:0:0:
182,182,47174,1,2,3:2:0:0:
414,129,47329,2,0,L|330:118,1,80.9999975280763,2|0,3:2|0:0,0:0:0:0:
195,100,47638,1,2,0:0:0:0:
336,24,47793,1,0,3:0:0:0:
257,157,47947,5,10,0:0:0:0:
253,181,48024,1,8,0:0:0:0:
250,205,48102,1,0,3:0:0:0:
338,307,48256,1,2,0:0:0:0:
170,217,48411,2,0,P|177:259|180:297,1,80.9999975280763,0|0,3:0|0:0,0:0:0:0:
102,358,48720,1,2,3:2:0:0:
255,290,48875,1,2,0:0:0:0:
91,361,49030,1,2,3:2:0:0:
266,286,49184,5,10,0:0:0:0:
310,287,49261,1,8,0:0:0:0:
347,313,49339,2,0,P|394:326|436:315,1,80.9999975280763,0|2,3:2|0:0,0:0:0:0:
438,171,49648,2,0,P|391:158|349:169,1,80.9999975280763,0|0,3:2|0:0,0:0:0:0:
395,244,49957,1,2,0:0:0:0:
425,85,50112,1,10,0:0:0:0:
401,77,50189,1,8,0:0:0:0:
378,80,50266,1,2,3:2:0:0:
257,147,50421,6,0,L|242:39,1,80.9999975280763,10|0,0:0|3:0,0:0:0:0:
151,244,50731,2,0,L|166:136,1,80.9999975280763,10|0,0:0|3:0,0:0:0:0:
314,320,51040,2,0,L|299:212,1,80.9999975280763,12|0,0:0|3:0,0:0:0:0:
183,331,51349,1,10,0:0:0:0:
143,339,51426,1,8,0:0:0:0:
106,326,51505,1,0,3:0:0:0:
25,198,51659,1,8,0:0:0:0:
151,244,51813,1,2,0:0:0:0:
259,69,54287,6,0,L|266:130,1,53.9999983520508,14|0,0:0|0:0,0:0:0:0:
268,136,54906,6,0,L|262:83,1,53.9999983520508,14|0,0:0|0:0,0:0:0:0:
408,290,55524,6,0,L|344:296,1,53.9999983520508,10|0,0:0|3:0,0:0:0:0:
168,314,55679,2,0,L|230:308,1,53.9999983520508,0|0,3:0|3:0,0:0:0:0:
405,203,55834,6,0,L|341:209,1,62.9999980773926,10|0,0:0|3:0,0:0:0:0:
150,227,55988,2,0,L|212:221,1,62.9999980773926,0|0,3:0|3:0,0:0:0:0:
271,147,56143,5,8,0:0:0:0:
271,147,56762,6,0,P|216:57|162:55,1,161.999995056153,6|0,3:2|0:0,0:0:0:0:
127,66,57071,1,10,0:0:0:0:
103,230,57226,2,0,L|115:148,1,53.9999983520508,0|0,3:0|3:0,0:0:0:0:
82,361,57380,1,2,3:2:0:0:
258,225,57535,1,0,3:0:0:0:
55,101,57689,1,10,0:0:0:0:
193,308,57844,6,0,B|285:332|285:332|307:359|307:359|411:387,1,215.999993408203,4|0,3:2|0:0,0:0:0:0:
465,113,58308,1,8,0:0:0:0:
420,274,58463,1,2,3:2:0:0:
427,248,58540,1,0,3:0:0:0:
434,222,58617,1,0,3:0:0:0:
302,80,58772,1,2,3:2:0:0:
159,214,58927,2,0,P|211:207|265:198,1,107.999996704102,10|0,0:0|0:0,0:0:0:0:
161,60,59236,6,0,P|95:55|35:179,1,215.999993408203,6|10,3:2|0:0,0:0:0:0:
200,279,59700,2,0,L|189:219,1,53.9999983520508,0|0,3:0|3:0,0:0:0:0:
373,335,59854,1,2,3:2:0:0:
294,144,60009,1,2,3:2:0:0:
217,361,60164,1,10,0:0:0:0:
298,133,60318,6,0,P|398:151|514:169,1,215.999993408203,4|0,0:0|3:0,0:0:0:0:
330,46,60782,2,0,P|273:52|213:58,1,107.999996704102,10|0,0:0|3:0,0:0:0:0:
194,64,61014,1,0,3:0:0:0:
194,64,61092,2,0,P|171:122|206:179,1,107.999996704102,2|0,3:2|3:0,0:0:0:0:
318,302,61401,1,10,0:0:0:0:
280,308,61478,1,8,0:0:0:0:
243,314,61555,1,8,0:0:0:0:
206,320,61632,1,8,0:0:0:0:
168,326,61710,6,0,L|58:343,1,107.999996704102,6|0,3:2|0:0,0:0:0:0:
186,161,62019,2,0,L|296:144,1,107.999996704102,10|0,0:0|3:0,0:0:0:0:
314,141,62251,1,0,3:0:0:0:
314,141,62329,1,2,3:2:0:0:
453,219,62483,1,2,3:2:0:0:
327,24,62638,1,10,0:2:0:0:
462,236,62793,6,0,B|439:270|424:298|424:298|348:281|283:271,1,215.999993408203,6|0,3:2|3:0,0:0:0:0:
153,369,63256,1,8,0:0:0:0:
304,187,63411,1,2,3:2:0:0:
277,190,63488,1,0,3:0:0:0:
250,193,63565,1,2,3:2:0:0:
93,78,63720,1,2,0:0:0:0:
196,275,63875,2,0,P|143:268|89:262,1,107.999996704102,10|0,0:0|0:0,0:0:0:0:
276,286,64184,21,10,0:0:0:0:
161,171,64339,1,2,3:2:0:0:
276,56,64494,1,10,0:0:0:0:
390,171,64648,1,2,3:2:0:0:
192,85,64803,5,10,0:0:0:0:
425,178,64957,1,10,0:0:0:0:
233,356,65112,1,10,0:0:0:0:
453,262,65267,2,0,L|483:45,1,215.999993408203,6|8,3:2|0:0,0:0:0:0:
403,13,65653,1,8,0:0:0:0:
403,13,65731,6,0,L|395:71,1,58.4999973220826,8|0,0:0|3:0,0:0:0:0:
176,150,65886,2,0,L|230:127,1,58.4999973220826,0|0,3:0|3:0,0:0:0:0:
416,281,66041,2,0,L|369:244,1,58.4999973220826,0|0,3:0|3:0,0:0:0:0:
403,13,66196,1,2,3:2:0:0:
403,13,66273,1,0,3:0:0:0:
403,13,66350,5,10,0:0:0:0:
395,71,66427,1,8,0:0:0:0:
387,129,66504,1,10,0:0:0:0:
379,187,66581,1,8,0:0:0:0:
371,245,66660,6,0,P|322:294|207:246,1,161.999995056153,6|0,3:2|0:0,0:0:0:0:
208,251,66968,1,10,0:0:0:0:
295,94,67122,2,0,L|242:87,1,53.9999983520508,0|0,3:0|3:3,0:0:0:0:
132,68,67277,1,2,3:2:0:0:
301,208,67432,1,0,3:0:0:0:
428,37,67586,1,10,0:2:0:0:
184,168,67741,6,0,B|111:205|111:205|155:352,1,215.999993408203,6|0,3:2|3:0,0:0:0:0:
263,350,68205,1,8,0:0:0:0:
29,251,68360,1,2,3:2:0:0:
24,277,68437,1,0,3:0:0:0:
20,304,68514,1,2,3:2:0:0:
216,173,68669,1,2,3:2:0:0:
76,30,68823,2,0,P|85:88|94:156,1,107.999996704102,10|0,0:0|0:0,0:0:0:0:
390,71,69133,6,0,B|260:36|312:127|178:88,1,215.999993408203,6|10,3:2|0:0,0:0:0:0:
326,232,69597,2,0,L|335:164,1,53.9999983520508,2|0,3:2|3:0,0:0:0:0:
423,376,69751,1,2,3:2:0:0:
210,295,69906,1,2,3:2:0:0:
339,138,70061,1,10,0:0:0:0:
489,258,70215,6,0,P|470:114|459:37,1,215.999993408203,4|0,3:2|0:0,0:0:0:0:
243,155,70679,2,0,P|296:162|350:169,1,107.999996704102,10|0,0:0|3:0,0:0:0:0:
377,176,70911,1,0,3:0:0:0:
377,176,70988,1,2,3:2:0:0:
259,36,71143,1,10,0:0:0:0:
219,19,71220,1,8,0:0:0:0:
176,20,71297,1,8,0:0:0:0:
137,39,71374,1,8,0:0:0:0:
110,72,71452,1,8,0:0:0:0:
98,113,71529,1,8,0:0:0:0:
103,155,71607,6,0,P|121:232|128:275,1,107.999996704102,6|0,3:2|3:0,0:0:0:0:
341,207,71916,2,0,P|323:283|316:326,1,107.999996704102,8|0,0:0|3:0,0:0:0:0:
317,354,72148,1,0,3:0:0:0:
317,354,72226,2,0,P|343:355|370:359,1,53.9999983520508,10|0,0:0|3:0,0:0:0:0:
251,223,72380,2,0,P|224:224|197:228,1,53.9999983520508,2|0,3:2|3:0,0:0:0:0:
388,121,72535,2,0,P|414:122|441:126,1,53.9999983520508,10|0,0:0|3:0,0:0:0:0:
229,27,72689,6,0,P|148:17|82:127,1,215.999993408203,6|0,3:2|3:0,0:0:0:0:
251,223,73153,1,8,0:0:0:0:
97,357,73308,1,2,3:2:0:0:
103,331,73385,1,0,3:0:0:0:
109,305,73462,1,2,3:2:0:0:
2,189,73617,1,0,3:0:0:0:
219,337,73772,2,0,P|270:341|332:348,1,107.999996704102,10|0,0:0|3:0,0:0:0:0:
361,355,74004,1,0,3:0:0:0:
361,355,74081,5,14,0:0:0:0:
500,193,74236,1,2,3:2:0:0:
309,79,74390,1,10,0:0:0:0:
421,271,74545,1,2,3:2:0:0:
512,17,74700,1,10,0:0:0:0:
324,192,74854,1,8,0:0:0:0:
286,187,74931,1,8,0:0:0:0:
248,183,75008,1,10,0:2:0:0:
211,179,75085,1,8,0:0:0:0:
173,174,75164,6,0,P|156:131|195:72,1,107.999996704102,6|0,3:2|0:0,0:0:0:0:
338,194,75473,1,8,0:0:0:0:
194,298,75628,2,0,L|81:304,1,107.999996704102,8|2,0:0|3:2,0:0:0:0:
280,261,75937,6,0,P|287:301|275:344,1,62.9999980773926,8|0,0:3|0:0,0:0:0:0:
381,377,76169,6,0,P|412:350|457:337,1,62.9999980773926,8|0,0:3|0:0,0:0:0:0:
430,231,76401,6,0,P|391:217|350:176,1,62.9999980773926,12|0,0:3|0:0,0:0:0:0:
365,289,76555,5,4,3:2:0:0:
365,289,77483,1,8,0:0:0:0:
433,131,77638,6,0,P|370:98|290:148,1,144,4|8,3:2|0:3,0:0:0:0:
235,210,78102,2,0,P|190:221|149:204,1,72,2|2,0:0|3:2,0:0:0:0:
148,200,78334,1,0,3:0:0:0:
148,200,78411,1,2,3:2:0:0:
75,121,78566,1,2,3:2:0:0:
209,25,78720,2,0,L|197:150,1,108,12|0,0:0|0:0,0:0:0:0:
198,145,79030,5,14,3:2:0:0:
183,297,79184,1,8,0:0:0:0:
206,332,79261,1,8,0:0:0:0:
240,359,79338,1,8,3:2:0:0:
280,374,79415,1,8,0:0:0:0:
323,374,79493,1,8,0:0:0:0:
364,362,79570,1,8,0:0:0:0:
399,336,79648,6,0,L|406:272,1,53.9999983520508,10|8,3:2|0:0,0:0:0:0:
436,70,79803,1,10,0:0:0:0:
404,90,79880,1,10,0:0:0:0:
388,124,79957,1,10,0:0:0:0:
391,161,80034,1,10,0:0:0:0:
413,191,80112,6,0,P|384:136|241:144,1,215.999993408203,6|8,0:0|0:0,0:0:0:0:
239,157,80499,1,8,0:0:0:0:
239,157,80576,2,0,P|218:180|193:192,1,53.9999983520508,10|8,0:0|0:0,0:0:0:0:
67,140,80731,2,0,P|57:114|57:87,1,53.9999983520508,8|0,0:0|3:0,0:0:0:0:
166,0,80885,2,0,P|193:4|216:18,1,53.9999983520508,2|0,3:2|3:0,0:0:0:0:
159,98,81040,1,2,3:2:0:0:
159,98,81117,1,2,3:2:0:0:
159,98,81195,6,0,L|149:164,1,67.5,12|0,0:0|0:0,0:0:0:0:
135,265,81504,6,0,P|188:272|241:282,1,107.999996704102,6|0,3:2|0:0,0:0:0:0:
345,158,81813,2,0,P|398:150|451:140,1,107.999996704102,8|0,0:0|3:0,0:0:0:0:
478,134,82045,1,0,3:0:0:0:
478,134,82122,1,2,3:2:0:0:
271,46,82277,1,2,3:2:0:0:
419,221,82432,1,10,0:0:0:0:
331,338,82586,6,0,P|314:237|291:120,1,215.999993408203,6|0,3:2|3:0,0:0:0:0:
419,221,83050,1,8,0:0:0:0:
239,319,83205,1,2,3:2:0:0:
212,314,83282,1,0,3:0:0:0:
185,310,83359,1,2,3:2:0:0:
31,369,83514,1,0,0:0:0:0:
223,225,83669,1,10,0:0:0:0:
196,198,83746,1,8,0:0:0:0:
162,182,83823,1,8,0:0:0:0:
125,180,83900,1,8,0:0:0:0:
89,192,83978,5,6,3:2:0:0:
202,368,84133,1,2,3:2:0:0:
375,198,84287,1,10,0:0:0:0:
210,88,84442,1,10,0:0:0:0:
210,88,84519,1,8,0:0:0:0:
210,88,84597,5,10,0:0:0:0:
302,240,84751,1,0,3:0:0:0:
447,155,84906,1,2,3:2:0:0:
312,140,85061,5,6,3:2:0:0:
256,192,85138,12,0,87767,0:0:0:0:
