osu file format v14

[General]
AudioFilename: audio.mp3
AudioLeadIn: 0
PreviewTime: 56345
Countdown: 0
SampleSet: Soft
StackLeniency: 0.4
Mode: 0
LetterboxInBreaks: 0
WidescreenStoryboard: 1

[Editor]
DistanceSpacing: 1
BeatDivisor: 4
GridSize: 32
TimelineZoom: 1.6

[Metadata]
Title:Gamushara (TV Size)
TitleUnicode:我武者羅 (TV Size)
Artist:CHiCO with HoneyWorks
ArtistUnicode:CHiCO with HoneyWorks
Creator:Aakki
Version:Normal
Source:BORUTO-ボルト- NARUTO NEXT GENERATIONS
Tags:anime pop j-pop jpop rock j-rock jrock japanese opening uzumaki boruto naruto uchiha sasuke kuki1537 a_r_m_i_n shirahane suou armin
BeatmapID:3098080
BeatmapSetID:1513125

[Difficulty]
HPDrainRate:3
CircleSize:3.2
OverallDifficulty:4
ApproachRate:5
SliderMultiplier:0.999999999999999
SliderTickRate:1

[Events]
//Background and Video events
0,0,"when the bns are sus.jpg",0,0
Video,-316,"very sus bns man.mp4"
//Break Periods
2,17421,20970
2,52060,53135
//Storyboard Layer 0 (Background)
//Storyboard Layer 1 (Fail)
//Storyboard Layer 2 (Pass)
//Storyboard Layer 3 (Foreground)
//Storyboard Layer 4 (Overlay)
//Storyboard Sound Samples

[TimingPoints]
-112,309.278350515464,4,2,1,70,1,0
197,-100,4,2,1,40,0,0
9645,309.278350515464,4,2,1,70,1,0
9799,309.278350515464,4,2,1,70,1,0
17221,-111.111111111111,4,2,1,50,0,0
22170,-111.111111111111,4,2,1,60,0,0
27118,-111.111111111111,4,2,1,70,0,0
37015,-111.111111111111,4,2,1,60,0,0
46912,-111.111111111111,4,2,1,55,0,0
51860,-111.111111111111,4,2,1,45,0,0
54335,-111.111111111111,4,2,1,75,0,0
56809,-100,4,2,1,85,0,1
76603,-100,4,2,1,70,0,0
81551,-100,4,2,1,85,0,1
85108,-111.111111111111,4,2,1,85,0,0
85185,-111.111111111111,4,2,1,85,0,0

[Colours]
Combo1 : 168,168,255
Combo2 : 255,138,21
Combo3 : 255,91,91
Combo4 : 255,255,83

[HitObjects]
480,283,1125,6,0,L|489:182,1,99.9999999999999,2|2,0:0|0:0,0:0:0:0:
389,174,1743,2,0,L|380:73,1,99.9999999999999,2|2,0:0|0:0,0:0:0:0:
338,46,2207,2,0,P|291:30|244:70,1,99.9999999999999,2|0,0:0|0:0,0:0:0:0:
208,145,2826,1,2,0:0:0:0:
208,145,2980,2,0,P|169:137|146:127,2,50,0|2|2,0:0|0:0|0:0,0:0:0:0:
239,240,3599,6,0,P|249:311|256:352,2,99.9999999999999,2|2|2,0:0|0:0|0:0,0:0:0:0:
365,159,4681,2,0,B|422:172|394:180|466:191,1,99.9999999999999,2|0,0:0|0:0,0:0:0:0:
499,159,5145,2,0,P|506:122|456:77,2,99.9999999999999,2|2|2,0:0|0:0|0:0,0:0:0:0:
498,259,6073,5,2,0:0:0:0:
415,315,6382,1,2,0:0:0:0:
324,271,6692,2,0,P|339:244|365:230,2,50,2|2|2,0:0|0:0|0:0,0:0:0:0:
277,290,7156,2,0,P|207:284|190:303,1,99.9999999999999,2|0,0:0|0:0,0:0:0:0:
111,362,7774,1,2,0:0:0:0:
111,362,7929,2,0,L|49:353,2,50,2|2|2,0:0|0:0|0:0,0:0:0:0:
181,291,8547,1,2,0:0:0:0:
181,291,9799,5,8,0:0:0:0:
181,291,9953,2,0,P|168:240|173:186,1,99.9999999999999,8|2,0:0|0:0,0:0:0:0:
274,87,10726,2,0,P|322:99|371:96,1,99.9999999999999,2|0,0:0|0:0,0:0:0:0:
414,70,11190,1,2,0:0:0:0:
466,151,11500,1,2,1:2:0:0:
466,151,11654,2,0,P|475:192|479:206,1,50,8|8,0:0|0:0,0:0:0:0:
472,249,11963,1,8,0:0:0:0:
402,321,12273,6,0,B|350:308|358:286|297:276,1,99.9999999999999,6|10,1:2|0:0,0:0:0:0:
223,325,12891,2,0,P|184:314|171:305,1,50,2|2,1:2|1:2,0:0:0:0:
144,270,13201,1,8,0:0:0:0:
144,270,13355,2,0,L|38:286,1,99.9999999999999,6|2,1:2|1:2,0:0:0:0:
12,190,13974,1,2,0:0:0:0:
12,190,14128,2,0,P|29:164|54:154,1,50,2|2,1:2|1:2,0:0:0:0:
95,155,14438,1,10,0:0:0:0:
176,97,14747,6,0,B|224:84|211:62|270:47,1,99.9999999999999,14|10,0:2|0:0,0:0:0:0:
309,33,15211,1,0,1:0:0:0:
309,33,15366,2,0,L|359:43,1,50,10|2,0:0|1:2,0:0:0:0:
454,70,15829,2,0,P|403:113|391:164,1,99.9999999999999,6|8,1:2|0:0,0:0:0:0:
401,192,16293,1,0,1:0:0:0:
401,192,16448,2,0,L|457:178,2,50,0|8|8,1:0|3:0|3:0,0:0:0:0:
361,222,16912,1,8,0:0:0:0:
276,191,17221,5,2,0:0:0:0:
315,332,22170,5,2,1:2:0:0:
287,251,22479,1,2,1:2:0:0:
287,251,22634,2,0,P|258:242|203:278,1,89.999997253418,2|2,0:0|0:0,0:0:0:0:
199,312,23097,1,2,1:2:0:0:
117,351,23407,1,2,1:2:0:0:
40,303,23716,1,2,1:2:0:0:
40,303,23871,2,0,P|44:264|60:204,1,89.999997253418,2|2,0:0|0:0,0:0:0:0:
68,171,24335,1,0,1:0:0:0:
144,122,24644,5,2,1:2:0:0:
144,122,24799,2,0,L|157:223,1,89.999997253418,2|2,0:0|1:2,0:0:0:0:
219,273,25417,1,2,1:2:0:0:
299,230,25726,2,0,B|348:221|342:239|392:227,1,89.999997253418,6|10,1:2|0:0,0:0:0:0:
417,193,26190,2,0,P|429:168|396:112,1,89.999997253418,0|8,1:0|3:0,0:0:0:0:
367,89,26654,1,4,3:0:0:0:
367,89,26809,1,8,0:0:0:0:
284,125,27118,6,0,P|235:134|179:138,1,89.999997253418,6|10,1:2|0:0,0:0:0:0:
107,116,27737,2,0,P|96:88|101:63,2,44.999998626709,2|2|8,1:2|1:2|0:0,0:0:0:0:
106,161,28201,2,0,P|97:209|91:261,1,89.999997253418,6|2,1:2|1:2,0:0:0:0:
72,290,28664,1,10,0:0:0:0:
137,352,28974,2,0,L|187:352,1,44.999998626709,2|0,1:2|1:0,0:0:0:0:
220,328,29283,1,10,0:0:0:0:
310,356,29592,5,4,1:2:0:0:
310,356,29747,2,0,B|413:356,1,89.999997253418,2|2,0:0|0:0,0:0:0:0:
437,330,30211,2,0,L|493:330,2,44.999998626709,2|0|10,1:2|1:0|0:0,0:0:0:0:
408,294,30675,2,0,L|408:185,1,89.999997253418,6|2,1:2|1:2,0:0:0:0:
411,160,31139,1,10,0:0:0:0:
412,70,31448,1,2,1:2:0:0:
412,70,31603,2,0,P|350:68|321:45,1,89.999997253418,2|8,1:2|0:0,0:0:0:0:
293,35,32067,5,6,1:2:0:0:
293,35,32221,2,0,L|247:46,1,44.999998626709,2|8,0:0|0:0,0:0:0:0:
225,83,32530,2,0,L|121:68,1,89.999997253418,2|2,0:0|1:2,0:0:0:0:
58,116,33149,2,0,B|75:163|75:163|57:211,1,89.999997253418,6|2,1:2|1:2,0:0:0:0:
36,239,33613,1,10,0:0:0:0:
36,239,33768,2,0,B|21:276|21:276|38:323,1,89.999997253418,2|2,0:0|1:2,0:0:0:0:
64,359,34231,1,10,0:0:0:0:
143,316,34541,6,0,P|213:290|237:291,1,89.999997253418,14|8,0:0|0:0,0:0:0:0:
264,264,35005,2,0,P|331:295|348:312,1,89.999997253418,2|2,1:2|1:2,0:0:0:0:
423,343,35623,2,0,B|448:304|448:304|424:248,1,89.999997253418,6|0,1:2|1:0,0:0:0:0:
409,224,36087,1,12,0:0:0:0:
338,168,36396,1,8,3:0:0:0:
384,90,36706,1,6,3:0:0:0:
320,25,37015,6,0,B|238:22|268:64|187:65,1,134.999995880127,6|2,1:2|0:0,0:0:0:0:
111,40,37788,1,2,0:0:0:0:
50,106,38097,1,2,0:0:0:0:
110,172,38407,2,0,B|144:181|176:157|176:157|191:191|234:212,1,134.999995880127,2|2,0:0|1:2,0:0:0:0:
304,232,39180,1,2,1:2:0:0:
282,321,39489,5,6,1:2:0:0:
282,321,39644,2,0,P|238:331|168:284,1,134.999995880127,2|2,0:0|1:2,0:0:0:0:
127,262,40262,1,10,3:0:0:0:
127,262,40417,1,6,3:0:0:0:
73,189,40726,2,0,P|76:150|106:100,1,89.999997253418,4|0,1:2|1:0,0:0:0:0:
155,34,41345,2,0,P|118:13|80:-6,2,67.4999979400635,14|12|12,0:0|0:0|0:0,0:0:0:0:
199,43,41963,6,0,B|240:84|199:154|174:117|132:204|178:256,1,224.999993133545,6|2,1:2|0:0,0:0:0:0:
210,278,42891,1,2,1:2:0:0:
210,278,43046,2,0,P|268:291|300:258,1,89.999997253418,2|2,0:0|0:0,0:0:0:0:
394,190,43819,1,0,1:0:0:0:
405,102,44128,2,0,P|383:76|362:69,1,44.999998626709,6|10,3:0|3:0,0:0:0:0:
341,39,44438,6,0,P|264:52|250:54,1,89.999997253418,6|10,1:2|0:0,0:0:0:0:
207,52,44902,2,0,P|204:94|186:143,1,89.999997253418,10|10,0:0|0:0,0:0:0:0:
113,185,45520,1,10,0:0:0:0:
113,185,45675,2,0,P|111:216|113:233,1,44.999998626709,8|0,0:0|1:0,0:0:0:0:
98,266,45984,2,0,P|71:269|40:250,2,44.999998626709,8|8|4,3:0|3:0|3:0,0:0:0:0:
184,291,46603,1,14,0:0:0:0:
245,356,46912,6,0,P|280:351|331:324,1,89.999997253418,6|2,1:2|1:2,0:0:0:0:
339,282,47376,2,0,P|405:288|434:308,1,89.999997253418,2|2,1:2|0:0,0:0:0:0:
495,244,47994,1,2,1:2:0:0:
437,174,48304,1,2,0:0:0:0:
306,187,48768,1,2,1:2:0:0:
306,187,48922,2,0,P|271:196|259:211,1,44.999998626709,2|2,1:2|1:2,0:0:0:0:
244,241,49231,6,0,P|210:266|147:265,1,89.999997253418,2|2,1:2|1:2,0:0:0:0:
124,247,49695,1,0,1:0:0:0:
53,190,50005,2,0,P|46:162|47:143,1,44.999998626709,2|2,1:2|1:2,0:0:0:0:
33,103,50314,1,2,1:2:0:0:
33,103,50469,2,0,P|81:92|121:68,1,89.999997253418,10|10,0:0|0:0,0:0:0:0:
196,31,51087,2,0,B|242:49|221:59|274:73,1,89.999997253418,14|8,0:0|3:0,0:0:0:0:
308,102,51551,1,8,3:0:0:0:
375,43,51860,5,2,0:0:0:0:
360,45,54335,5,2,1:0:0:0:
415,216,54953,1,2,1:0:0:0:
236,191,55572,2,0,P|208:185|186:174,1,44.999998626709,8|8,0:0|0:0,0:0:0:0:
163,143,55881,2,0,P|115:155|108:159,1,44.999998626709,8|0,0:0|1:0,0:0:0:0:
80,176,56190,1,8,0:0:0:0:
225,35,56809,6,0,P|254:44|269:64,1,50,6|0,1:2|0:0,0:0:0:0:
315,64,57118,2,0,P|329:90|325:115,1,50,10|0,0:0|0:0,0:0:0:0:
296,149,57427,2,0,P|282:188|271:246,1,99.9999999999999,2|10,1:2|0:0,0:0:0:0:
288,292,57891,1,6,1:2:0:0:
374,341,58201,2,0,P|414:333|422:321,1,50,0|8,1:0|0:0,0:0:0:0:
440,282,58510,2,0,P|430:227|424:182,1,99.9999999999999,2|2,0:0|1:2,0:0:0:0:
433,134,58974,1,10,0:0:0:0:
369,56,59283,6,0,L|309:44,1,50,6|2,1:2|0:0,0:0:0:0:
285,82,59592,2,0,L|235:91,1,50,10|2,0:0|0:0,0:0:0:0:
188,73,59902,2,0,P|149:66|105:25,1,99.9999999999999,2|10,1:2|0:0,0:0:0:0:
57,38,60366,2,0,P|64:102|78:149,1,99.9999999999999,6|0,1:2|1:0,0:0:0:0:
54,182,60829,1,10,0:0:0:0:
114,261,61139,1,2,1:2:0:0:
209,231,61448,1,10,0:0:0:0:
272,308,61757,6,0,L|209:322,1,50,6|0,1:2|0:0,0:0:0:0:
191,358,62067,2,0,L|140:346,1,50,10|0,0:0|0:0,0:0:0:0:
95,365,62376,2,0,P|44:357|25:315,1,99.9999999999999,2|10,1:2|0:0,0:0:0:0:
9,269,62840,1,6,1:2:0:0:
51,178,63149,2,0,P|58:148|60:125,1,50,0|8,1:0|0:0,0:0:0:0:
53,79,63458,1,2,0:0:0:0:
53,79,63613,2,0,P|31:59|8:53,2,50,2|2|10,1:2|1:2|0:0,0:0:0:0:
149,53,64231,6,0,P|196:45|207:37,1,50,14|2,0:0|1:2,0:0:0:0:
245,59,64541,2,0,P|268:67|293:67,1,50,10|2,0:0|1:2,0:0:0:0:
335,41,64850,2,0,B|351:30|384:34|384:34|411:67|398:91,1,99.9999999999999,10|10,0:0|0:0,0:0:0:0:
380,123,65314,2,0,P|371:195|360:237,1,99.9999999999999,4|8,1:2|0:0,0:0:0:0:
329,257,65778,1,0,1:0:0:0:
394,332,66087,2,0,P|427:336|448:319,1,50,8|10,3:0|3:0,0:0:0:0:
469,287,66396,1,10,0:0:0:0:
480,187,66706,6,0,P|438:157|409:159,1,50,6|0,1:2|0:0,0:0:0:0:
420,112,67015,2,0,P|369:120|349:142,1,50,10|0,0:0|0:0,0:0:0:0:
338,151,67324,2,0,B|305:135|260:152|234:136,1,99.9999999999999,2|10,1:2|0:0,0:0:0:0:
198,110,67788,1,6,1:2:0:0:
100,133,68097,2,0,P|83:100|87:79,1,50,0|8,1:0|0:0,0:0:0:0:
103,41,68407,1,2,0:0:0:0:
103,41,68561,2,0,P|181:20|215:16,1,99.9999999999999,2|10,1:2|0:0,0:0:0:0:
295,48,69180,6,0,P|326:61|336:85,1,50,6|2,1:2|0:0,0:0:0:0:
379,93,69489,2,0,P|391:124|381:148,1,50,10|2,0:0|0:0,0:0:0:0:
364,183,69799,2,0,P|344:240|363:298,1,99.9999999999999,2|10,1:2|0:0,0:0:0:0:
363,325,70262,1,6,1:2:0:0:
270,364,70572,1,0,1:0:0:0:
270,364,70726,1,10,0:0:0:0:
213,281,71036,2,0,P|162:277|51:300,1,150,2|8,1:2|0:0,0:0:0:0:
15,286,71654,6,0,P|3:232|92:180,1,150,6|0,1:2|1:0,0:0:0:0:
115,195,72273,1,10,0:2:0:0:
197,140,72582,1,10,3:0:0:0:
197,140,72737,2,0,P|254:125|241:48,1,150,6|8,1:2|0:0,0:0:0:0:
200,31,73355,1,2,0:0:0:0:
200,31,73510,2,0,P|142:23|92:23,1,99.9999999999999,2|10,1:2|0:0,0:0:0:0:
31,94,74128,6,0,L|45:159,1,50,14|2,0:0|1:2,0:0:0:0:
72,180,74438,2,0,L|58:245,1,50,10|2,0:0|1:2,0:0:0:0:
87,271,74747,2,0,P|144:283|199:225,1,99.9999999999999,10|10,0:0|0:0,0:0:0:0:
203,220,75211,2,0,B|271:227|257:249|315:253,1,99.9999999999999,6|12,1:2|0:0,0:0:0:0:
338,222,75675,1,12,0:0:0:0:
420,164,75984,2,0,L|499:182,2,74.9999999999999,8|8|10,0:0|0:0|0:0,0:0:0:0:
382,130,76603,6,0,B|305:88|227:154|257:176|158:219|106:155,1,300,6|8,1:2|0:0,0:0:0:0:
62,176,77685,1,6,1:2:0:0:
7,259,77994,1,8,3:0:0:0:
15,363,78304,1,10,3:0:0:0:
15,363,78458,2,0,L|72:355,1,50,10|6,3:0|3:0,0:0:0:0:
99,320,78768,1,14,0:0:0:0:
183,375,79077,6,0,L|235:363,1,50,6|10,1:2|0:0,0:0:0:0:
260,321,79386,2,0,L|308:332,1,50,10|10,1:2|0:0,0:0:0:0:
352,308,79695,2,0,P|371:261|340:220,1,99.9999999999999,10|10,1:2|1:2,0:0:0:0:
301,200,80159,6,0,L|313:90,1,99.9999999999999,14|8,0:0|0:0,0:0:0:0:
289,55,80623,1,2,1:2:0:0:
195,91,80933,1,10,3:0:0:0:
195,91,81087,2,0,B|154:79|111:72|77:72,1,99.9999999999999,10|0,3:0|0:0,0:0:0:0:
62,109,81551,6,0,P|32:155|26:214,1,99.9999999999999,6|8,1:2|0:0,0:0:0:0:
89,275,82170,2,0,L|74:341,2,50,2|2|10,1:2|1:2|0:0,0:0:0:0:
130,246,82634,2,0,P|189:264|241:237,1,99.9999999999999,6|0,1:2|1:0,0:0:0:0:
318,214,83252,1,2,0:0:0:0:
318,214,83407,2,0,P|355:228|421:255,1,99.9999999999999,2|10,1:2|0:0,0:0:0:0:
485,184,84025,6,0,P|486:146|472:127,1,50,14|2,0:0|1:2,0:0:0:0:
478,86,84335,2,0,P|451:58|428:54,1,50,10|10,0:0|0:0,0:0:0:0:
393,41,84644,2,0,P|331:57|288:65,1,99.9999999999999,10|8,0:0|0:0,0:0:0:0:
253,48,85108,6,0,B|167:22|103:31|41:94,1,224.999993133545,6|0,1:2|0:0,0:0:0:0:
