osu file format v14

[General]
AudioFilename: audio.mp3
AudioLeadIn: 0
PreviewTime: 56268
Countdown: 0
SampleSet: Soft
StackLeniency: 0.3
Mode: 0
LetterboxInBreaks: 0
WidescreenStoryboard: 1

[Editor]
DistanceSpacing: 0.8
BeatDivisor: 4
GridSize: 4
TimelineZoom: 1.8

[Metadata]
Title:Gamushara (TV Size)
TitleUnicode:我武者羅 (TV Size)
Artist:CHiCO with HoneyWorks
ArtistUnicode:CHiCO with HoneyWorks
Creator:Smoke
Version:torriru's Extra
Source:BORUTO-ボルト- NARUTO NEXT GENERATIONS
Tags:anime pop j-pop jpop rock j-rock jrock japanese opening uzumaki boruto naruto uchiha sasuke PikAqours Nymphe Kiyoshi Guarden Reform Kujinn torriru
BeatmapID:3104798
BeatmapSetID:1513461

[Difficulty]
HPDrainRate:5.5
CircleSize:3.8
OverallDifficulty:9
ApproachRate:9.2
SliderMultiplier:1.8
SliderTickRate:1

[Events]
//Background and Video events
0,0,"naruto wallpaper boruto.jpg",0,0
Video,-316,"video.mp4"
//Break Periods
2,10153,10930
2,52060,53765
//Storyboard Layer 0 (Background)
//Storyboard Layer 1 (Fail)
//Storyboard Layer 2 (Pass)
//Storyboard Layer 3 (Foreground)
//Storyboard Layer 4 (Overlay)
//Storyboard Sound Samples

[TimingPoints]
-112,309.278350515464,4,2,1,70,1,0
661,-166.666666666667,4,2,1,45,0,0
1125,-142.857142857143,4,2,1,55,0,0
9645,309.278350515464,4,2,1,70,1,0
9799,309.278350515464,4,2,1,70,1,0
9953,-111.111111111111,4,2,1,70,0,0
11500,-111.111111111111,4,2,1,75,0,0
11654,-100,4,2,1,75,0,0
12273,-100,4,2,1,80,0,0
16061,-100,4,2,1,5,0,0
16139,-100,4,2,1,80,0,0
17221,-142.857142857143,4,2,1,60,0,0
22170,-133.333333333333,4,2,1,63,0,0
24644,-133.333333333333,4,2,1,66,0,0
25726,-100,4,2,1,66,0,0
27118,-111.111111111111,4,2,1,70,0,0
37015,-133.333333333333,4,2,1,60,0,0
40726,-133.333333333333,4,2,1,65,0,0
41345,-100,4,2,1,65,0,0
41500,-100,4,2,1,5,0,0
41577,-100,4,2,1,65,0,0
41731,-100,4,2,1,5,0,0
41808,-100,4,2,1,65,0,0
41963,-133.333333333333,4,2,1,60,0,0
45675,-111.111111111111,4,2,1,65,0,0
46912,-125,4,2,1,60,0,0
50469,-111.111111111111,4,2,1,70,0,0
51860,-111.111111111111,4,2,1,55,0,0
54335,-100,4,2,1,75,0,0
55572,-100,4,2,1,80,0,0
56345,-100,4,2,1,60,0,0
56809,-100,4,2,1,85,0,1
76139,-100,4,2,1,5,0,1
76216,-100,4,2,1,85,0,1
76371,-100,4,2,1,5,0,1
76448,-100,4,2,1,85,0,1
76603,-200,4,2,1,70,0,0
77685,-133.333333333333,4,2,1,70,0,0
78768,-111.111111111111,4,2,1,70,0,0
79077,-100,4,2,1,85,0,0
80159,-95.2380952380952,4,2,1,90,0,0
80933,-90.9090909090909,4,2,1,95,0,0
81551,-100,4,2,1,85,0,1
85108,-100,4,2,1,80,0,0

[Colours]
Combo1 : 87,108,157
Combo2 : 235,136,46
Combo3 : 143,151,184
Combo4 : 231,48,66

[HitObjects]
64,80,661,6,0,L|78:20,2,53.9999983520508,2|2|2,0:0|0:0|0:0,0:0:0:0:
32,184,1125,6,0,L|118:168,1,62.9999980773926,2|0,0:0|0:0,0:0:0:0:
224,112,1434,2,0,L|158:100,1,62.9999980773926,2|0,0:0|0:0,0:0:0:0:
92,264,1743,1,2,0:0:0:0:
92,264,1898,2,0,L|157:252,1,62.9999980773926,0|2,0:0|0:0,0:0:0:0:
268,192,2207,6,0,B|292:238|292:238|268:306,1,125.999996154785,2|0,0:0|2:0,0:0:0:0:
252,320,2826,2,0,P|301:282|360:295,1,125.999996154785,2|2,0:0|0:0,0:0:0:0:
468,356,3290,2,0,L|456:291,1,62.9999980773926,2|0,0:0|0:0,0:0:0:0:
508,204,3599,6,0,P|479:211|446:204,1,62.9999980773926,2|2,0:0|0:0,0:0:0:0:
448,64,3908,2,0,P|469:87|479:117,1,62.9999980773926,2|2,0:0|0:0,0:0:0:0:
316,152,4217,1,2,0:0:0:0:
316,152,4372,2,0,L|381:140,1,62.9999980773926,2|2,0:0|0:0,0:0:0:0:
272,48,4681,6,0,B|226:39|226:39|196:57|196:57|152:49,1,125.999996154785,2|0,0:0|2:0,0:0:0:0:
36,128,5145,2,0,L|101:116,1,62.9999980773926,2|0,0:0|0:0,0:0:0:0:
212,200,5455,2,0,L|147:188,1,62.9999980773926,2|0,0:0|0:0,0:0:0:0:
44,276,5764,2,0,L|109:264,1,62.9999980773926,2|0,0:0|0:0,0:0:0:0:
176,384,6073,6,0,P|168:354|176:321,1,62.9999980773926,2|0,0:0|0:0,0:0:0:0:
316,325,6382,2,0,P|293:346|264:356,1,62.9999980773926,2|0,0:0|0:0,0:0:0:0:
180,236,6692,1,2,0:0:0:0:
180,236,6847,2,0,L|245:248,1,62.9999980773926,2|2,0:0|0:0,0:0:0:0:
312,152,7156,6,0,B|266:161|266:161|236:143|236:143|192:151,1,125.999996154785,2|0,0:0|2:0,0:0:0:0:
184,140,7774,1,2,0:0:0:0:
184,140,7929,2,0,P|189:108|182:78,1,62.9999980773926,2|2,0:0|0:0,0:0:0:0:
24,176,8238,2,0,P|48:196|79:204,1,62.9999980773926,2|0,0:0|0:0,0:0:0:0:
92,112,8547,5,0,0:0:0:0:
452,176,9645,5,0,3:2:0:0:
452,176,9722,1,0,3:2:0:0:
452,176,9799,1,10,3:2:0:0:
349,384,9953,1,10,3:2:0:0:
40,60,11500,5,0,3:2:0:0:
40,60,11577,1,0,3:2:0:0:
40,60,11654,1,8,0:0:0:0:
152,268,11808,1,0,3:2:0:0:
260,56,11963,1,8,3:2:0:0:
231,38,12040,1,8,0:0:0:0:
198,32,12117,1,8,3:2:0:0:
165,39,12194,1,8,0:0:0:0:
138,58,12273,6,0,L|154:152,1,90,6|0,3:1|2:0,0:0:0:0:
308,296,12582,2,0,L|324:201,1,90,10|0,0:0|2:0,0:0:0:0:
332,176,12814,1,8,0:0:0:0:
332,176,12891,1,2,3:2:0:0:
456,0,13046,1,2,3:2:0:0:
503,218,13201,1,8,0:0:0:0:
312,52,13355,6,0,P|268:40|224:55,1,90,6|0,3:2|0:0,0:0:0:0:
48,168,13664,2,0,P|90:155|133:166,1,90,2|8,3:2|0:0,0:0:0:0:
236,384,13974,1,2,0:0:0:0:
236,384,14051,1,8,0:0:0:0:
236,384,14128,1,2,3:2:0:0:
332,176,14283,1,2,3:2:0:0:
107,344,14438,2,0,L|92:256,1,90,10|2,0:0|0:0,0:0:0:0:
189,11,14747,5,14,0:0:0:0:
273,266,14902,1,0,3:2:0:0:
60,120,15056,2,0,L|148:134,1,90,10|0,0:0|3:2,0:0:0:0:
184,144,15288,1,0,3:2:0:0:
184,144,15366,5,10,0:0:0:0:
402,213,15520,1,2,3:2:0:0:
179,311,15675,1,8,0:0:0:0:
362,125,15829,2,0,P|427:117|480:156,1,135,6|0,3:2|2:0,0:0:0:0:
496,172,16139,6,0,L|488:127,1,45,2|0,3:2|3:2,0:0:0:0:
308,204,16293,2,0,L|316:249,1,45,8|0,3:2|3:2,0:0:0:0:
504,344,16448,5,2,3:2:0:0:
481,319,16525,1,0,3:2:0:0:
451,304,16602,1,8,3:2:0:0:
417,302,16679,1,0,3:2:0:0:
385,312,16757,2,0,L|393:357,1,45,2|0,3:2|3:2,0:0:0:0:
204,260,16912,2,0,L|218:172,1,90,10|2,3:2|3:2,0:0:0:0:
312,52,17221,6,0,B|266:43|266:43|236:61|236:61|192:53,2,125.999996154785,2|2|2,0:0|0:0|0:0,0:0:0:0:
400,0,17994,2,0,L|410:62,1,62.9999980773926,2|0,0:0|0:0,0:0:0:0:
512,168,18304,6,0,B|466:144|466:144|396:168,1,125.999996154785,2|2,0:0|0:0,0:0:0:0:
304,236,18768,2,0,P|309:204|302:174,1,62.9999980773926,2|2,0:0|0:0,0:0:0:0:
172,264,19077,2,0,P|197:284|227:293,1,62.9999980773926,2|2,0:0|0:0,0:0:0:0:
228,120,19386,2,1,B|160:94|172:148|106:122,1,125.999996154785,2|0,0:0|0:0,0:0:0:0:
0,44,19850,6,0,L|25:189,2,125.999996154785,2|2|2,0:0|0:0|0:0,0:0:0:0:
16,28,20778,2,0,B|62:19|62:19|92:37|92:37|136:29,1,125.999996154785,2|2,0:0|0:0,0:0:0:0:
204,128,21242,2,0,L|142:118,1,62.9999980773926,2|2,0:0|0:0,0:0:0:0:
236,36,21551,1,2,0:0:0:0:
236,36,21706,2,0,L|298:26,1,62.9999980773926,2|0,0:0|0:0,0:0:0:0:
364,160,22015,1,2,0:0:0:0:
364,160,22092,1,2,0:0:0:0:
364,160,22170,6,0,P|356:127|362:94,1,67.5000025749208,2|2,3:2|0:0,0:0:0:0:
460,248,22479,1,2,3:2:0:0:
460,248,22634,2,0,B|411:238|411:238|379:257|379:257|332:249,1,135.000005149842,2|2,0:0|0:0,0:0:0:0:
264,352,23097,2,0,L|331:341,1,67.5000025749208,2|2,3:2|0:0,0:0:0:0:
248,208,23407,6,0,L|180:197,1,67.5000025749208,2|2,3:2|0:0,0:0:0:0:
88,240,23716,1,2,3:2:0:0:
88,240,23871,2,0,B|62:165|62:165|88:115,1,135.000005149842,2|2,0:0|0:0,0:0:0:0:
164,8,24335,2,0,P|130:2|98:10,1,67.5000025749208,0|2,3:2|0:0,0:0:0:0:
200,116,24644,5,2,3:2:0:0:
200,116,24799,2,0,P|233:121|265:113,1,67.5000025749208,2|0,3:2|3:2,0:0:0:0:
340,0,25108,1,2,3:2:0:0:
340,0,25185,1,0,3:2:0:0:
340,0,25262,1,0,3:2:0:0:
408,104,25417,2,0,L|397:171,1,67.5000025749208,2|8,3:2|0:0,0:0:0:0:
504,284,25726,6,0,B|438:271|438:271|395:296|395:296|332:285,1,180,6|10,3:2|0:0,0:0:0:0:
304,280,26113,1,8,0:0:0:0:
304,280,26190,2,0,L|314:220,1,45,8|0,3:2|3:2,0:0:0:0:
172,168,26345,1,0,3:2:0:0:
172,168,26422,1,0,3:2:0:0:
172,168,26500,2,0,L|182:228,3,45,8|8|10|8,3:2|3:3|3:3|3:3,0:0:0:0:
324,82,26809,5,10,3:2:0:0:
289,75,26886,1,8,0:0:0:0:
258,69,26963,1,10,0:0:0:0:
228,63,27040,1,8,0:0:0:0:
196,58,27118,6,0,L|111:42,1,80.9999975280763,6|0,3:1|0:0,0:0:0:0:
0,200,27427,2,0,L|79:185,1,80.9999975280763,10|0,0:0|0:0,0:0:0:0:
112,184,27659,1,8,0:0:0:0:
112,184,27737,1,2,3:2:0:0:
172,344,27891,2,0,P|160:305|170:266,1,80.9999975280763,2|8,3:2|0:0,0:0:0:0:
392,172,28201,6,0,B|332:160|332:160|294:182|294:182|237:172,1,161.999995056153,6|0,3:2|3:2,0:0:0:0:
52,80,28664,1,10,0:0:0:0:
240,0,28819,1,2,0:0:0:0:
240,0,28896,1,8,0:0:0:0:
240,0,28974,2,0,P|251:38|241:77,1,80.9999975280763,2|0,3:2|3:2,0:0:0:0:
60,200,29283,2,0,P|87:170|126:160,1,80.9999975280763,10|0,0:0|0:0,0:0:0:0:
248,332,29592,6,0,B|337:363|337:363|397:332,1,161.999995056153,4|8,3:2|0:0,0:0:0:0:
292,168,30056,1,2,0:0:0:0:
292,168,30133,1,8,0:0:0:0:
292,168,30211,2,0,P|281:206|291:245,1,80.9999975280763,2|0,3:2|3:2,0:0:0:0:
476,172,30520,1,10,0:0:0:0:
328,76,30675,6,1,B|241:42|256:111|173:78,1,161.999995056153,6|2,3:2|3:2,0:0:0:0:
96,244,31139,1,10,0:0:0:0:
0,76,31293,1,2,0:0:0:0:
0,76,31370,1,8,0:0:0:0:
0,76,31448,2,0,P|-11:114|-1:153,1,80.9999975280763,2|2,3:2|3:2,0:0:0:0:
96,336,31757,1,8,0:0:0:0:
180,156,31912,1,8,0:0:0:0:
180,156,31989,1,8,0:0:0:0:
180,156,32067,6,0,P|218:145|257:156,1,80.9999975280763,6|2,3:2|0:0,0:0:0:0:
416,264,32376,1,8,0:0:0:0:
201,323,32530,1,2,0:0:0:0:
201,323,32608,1,8,0:0:0:0:
201,323,32685,2,0,L|216:244,1,80.9999975280763,0|2,3:2|3:2,0:0:0:0:
166,37,32994,1,10,0:0:0:0:
358,168,33149,6,0,B|418:156|418:156|456:178|456:178|513:168,1,161.999995056153,6|2,3:2|3:2,0:0:0:0:
356,288,33613,1,10,0:0:0:0:
312,80,33768,1,2,0:0:0:0:
312,80,33846,1,8,0:0:0:0:
312,80,33923,2,0,L|327:1,1,80.9999975280763,0|2,3:2|3:2,0:0:0:0:
124,104,34231,2,0,L|139:183,1,80.9999975280763,10|0,0:0|0:0,0:0:0:0:
278,384,34541,5,6,3:2:0:0:
372,143,34695,1,2,3:2:0:0:
191,351,34850,5,8,0:0:0:0:
132,112,35004,1,2,3:2:0:0:
132,112,35082,1,0,3:2:0:0:
132,112,35159,5,8,0:0:0:0:
317,293,35314,1,2,3:2:0:0:
33,198,35468,1,8,0:0:0:0:
296,56,35623,6,0,B|385:25|385:25|445:56,1,161.999995056153,6|0,3:2|3:2,0:0:0:0:
512,228,36087,2,0,L|433:213,1,80.9999975280763,12|0,0:0|0:0,0:0:0:0:
320,304,36396,6,0,L|310:357,2,53.9999983520508,8|0|0,3:3|3:2|3:2,0:0:0:0:
244,244,36706,5,10,3:3:0:0:
241,229,36809,5,0,3:2:0:0:
238,214,36912,5,0,3:2:0:0:
235,199,37015,6,0,L|220:120,1,67.5000025749208,6|2,3:2|0:0,0:0:0:0:
140,32,37324,1,2,3:2:0:0:
140,32,37479,2,0,P|172:24|205:30,1,67.5000025749208,2|0,0:0|3:2,0:0:0:0:
80,108,37788,2,0,P|56:83|45:52,1,67.5000025749208,2|0,0:0|3:2,0:0:0:0:
176,120,38097,1,2,0:0:0:0:
176,120,38175,1,0,0:0:0:0:
176,120,38252,6,0,L|163:186,1,67.5000025749208,0|2,3:2|0:0,0:0:0:0:
48,272,38561,2,0,L|35:205,1,67.5000025749208,0|0,3:2|2:0,0:0:0:0:
168,352,38871,2,0,P|136:360|103:354,1,67.5000025749208,2|2,3:2|0:0,0:0:0:0:
162,186,39180,1,0,3:2:0:0:
268,316,39335,1,10,0:0:0:0:
268,316,39412,1,8,0:0:0:0:
268,316,39489,6,0,P|300:324|333:318,1,67.5000025749208,6|2,3:2|0:0,0:0:0:0:
364,144,39799,2,0,P|331:137|298:144,1,67.5000025749208,0|8,3:2|3:3,0:0:0:0:
284,165,40030,1,8,3:3:0:0:
284,165,40108,2,0,L|297:232,1,67.5000025749208,2|10,3:2|3:3,0:0:0:0:
384,384,40417,1,10,0:0:0:0:
460,236,40572,1,2,3:2:0:0:
460,236,40649,1,0,3:2:0:0:
460,236,40726,6,0,B|486:160|486:160|460:110,1,135.000005149842,4|0,3:2|3:2,0:0:0:0:
380,280,41190,1,2,0:0:0:0:
284,116,41345,6,0,P|240:104|196:119,1,90,10|0,0:0|2:0,0:0:0:0:
176,104,41577,6,0,P|143:136|134:181,1,90,10|0,0:0|2:0,0:0:0:0:
111,191,41809,5,10,0:0:0:0:
256,324,41963,6,0,B|209:316|209:316|177:334|177:334|128:324,2,135.000005149842,6|0|0,3:2|3:2|3:2,0:0:0:0:
392,236,42737,1,2,0:0:0:0:
332,384,42891,1,0,3:2:0:0:
252,240,43046,6,0,P|245:207|252:174,1,67.5000025749208,2|4,0:0|3:2,0:0:0:0:
400,80,43355,2,0,B|324:106|324:106|275:80,1,135.000005149842,2|8,0:0|0:0,0:0:0:0:
68,104,43819,1,0,3:2:0:0:
252,174,43974,1,8,3:3:0:0:
52,204,44128,1,2,3:2:0:0:
192,20,44283,1,2,3:2:0:0:
192,20,44360,1,0,3:2:0:0:
192,20,44438,6,0,L|179:87,1,67.5000025749208,6|2,3:2|0:0,0:0:0:0:
252,264,44747,1,0,3:2:0:0:
328,96,44902,1,2,3:2:0:0:
148,236,45056,1,0,3:2:0:0:
384,304,45211,1,10,0:0:0:0:
196,104,45366,1,0,3:2:0:0:
184,364,45520,1,10,0:0:0:0:
392,184,45675,6,0,L|332:173,3,40.4999987640381,10|8|8|8,3:2|0:0|0:0|0:0,0:0:0:0:
264,24,45984,2,0,L|303:16,3,40.4999987640381,10|8|8|8,3:2|0:0|0:0|0:0,0:0:0:0:
448,75,46293,1,10,3:2:0:0:
418,80,46370,1,8,0:0:0:0:
388,85,46447,1,8,0:0:0:0:
358,90,46524,1,8,0:0:0:0:
328,96,46603,6,0,L|248:111,1,80.9999975280763,14|0,0:0|0:0,0:0:0:0:
164,256,46912,2,0,P|172:216|160:184,1,72,6|2,3:2|0:0,0:0:0:0:
96,316,47221,1,2,3:2:0:0:
96,316,47376,2,0,P|126:342|160:348,1,72,2|0,0:0|3:2,0:0:0:0:
78,228,47685,2,0,P|39:241|17:267,1,72,2|0,0:0|3:2,0:0:0:0:
200,140,47994,1,2,3:2:0:0:
200,140,48072,1,0,3:2:0:0:
200,140,48149,6,0,L|120:124,1,72,0|2,3:2|0:0,0:0:0:0:
256,24,48458,2,0,L|326:10,1,72,0|0,3:2|3:2,0:0:0:0:
416,160,48768,1,2,3:2:0:0:
488,4,48922,1,2,3:2:0:0:
336,92,49077,1,2,3:2:0:0:
503,195,49231,1,2,3:2:0:0:
503,195,49309,1,0,3:2:0:0:
503,195,49386,6,0,P|511:155|499:123,1,72,0|2,3:2|0:0,0:0:0:0:
428,248,49695,2,0,P|458:274|492:280,1,72,0|0,3:2|2:0,0:0:0:0:
376,76,50005,1,2,3:2:0:0:
308,264,50159,1,2,3:2:0:0:
308,264,50237,1,0,3:2:0:0:
308,264,50314,1,2,3:2:0:0:
416,160,50469,6,0,L|322:178,1,80.9999975280763,14|0,0:0|3:2,0:0:0:0:
208,48,50778,2,0,L|287:63,1,80.9999975280763,14|0,0:0|3:2,0:0:0:0:
387,248,51087,2,0,L|307:263,1,80.9999975280763,14|0,0:0|3:2,0:0:0:0:
124,192,51396,1,2,3:2:0:0:
124,192,51474,1,0,3:2:0:0:
124,192,51551,1,0,3:2:0:0:
204,360,51706,1,8,0:0:0:0:
284,184,51860,5,2,0:0:0:0:
64,148,54335,6,0,L|123:137,1,45,10|0,3:2|0:0,0:0:0:0:
44,132,54953,6,0,L|103:121,1,45,10|0,3:2|0:0,0:0:0:0:
24,116,55572,6,0,L|83:105,1,45,10|0,3:2|3:2,0:0:0:0:
184,8,55726,2,0,L|139:0,1,45,2|0,3:2|3:2,0:0:0:0:
77,195,55881,1,10,3:2:0:0:
97,191,55958,1,2,3:2:0:0:
117,188,56035,1,2,3:2:0:0:
136,184,56113,1,2,3:2:0:0:
156,180,56190,1,10,3:2:0:0:
448,328,56809,6,0,L|464:233,1,90,6|0,3:1|2:0,0:0:0:0:
272,80,57118,2,0,L|287:168,1,90,10|0,0:0|2:0,0:0:0:0:
296,208,57350,1,8,0:0:0:0:
296,208,57427,1,2,3:2:0:0:
116,380,57582,1,2,3:2:0:0:
159,137,57737,1,10,0:0:0:0:
293,344,57891,6,0,B|359:330|359:330|401:355|401:355|464:344,1,180,6|0,3:1|3:2,0:0:0:0:
268,100,58355,2,0,P|256:144|271:188,1,90,8|2,0:0|0:0,0:0:0:0:
296,208,58587,1,8,0:0:0:0:
296,208,58664,1,0,3:2:0:0:
497,118,58819,1,2,3:2:0:0:
308,16,58974,2,0,P|264:4|220:19,1,90,10|0,0:0|2:0,0:0:0:0:
140,223,59283,5,6,3:1:0:0:
49,0,59438,1,2,0:0:0:0:
268,100,59592,2,0,L|253:188,1,90,10|2,0:0|0:0,0:0:0:0:
250,220,59824,1,10,0:0:0:0:
250,219,59902,1,2,3:2:0:0:
50,350,60056,1,2,3:2:0:0:
136,117,60211,1,10,0:0:0:0:
252,348,60366,6,0,B|352:382|352:382|419:348,1,180,6|0,3:1|3:2,0:0:0:0:
328,136,60829,2,0,L|343:224,1,90,10|0,0:0|2:0,0:0:0:0:
352,260,61061,1,8,0:0:0:0:
352,260,61138,1,2,3:2:0:0:
512,133,61293,1,0,3:2:0:0:
316,44,61448,1,10,0:0:0:0:
271,36,61525,1,8,0:0:0:0:
227,28,61602,1,8,0:0:0:0:
183,20,61679,1,8,0:0:0:0:
138,12,61757,6,0,P|126:56|141:100,1,90,6|0,3:1|2:0,0:0:0:0:
343,224,62067,2,0,P|310:191|265:182,1,90,10|0,0:0|2:0,0:0:0:0:
240,192,62299,1,8,0:0:0:0:
240,192,62376,1,2,3:2:0:0:
444,316,62530,1,2,3:2:0:0:
383,68,62685,1,10,0:0:0:0:
256,292,62840,6,0,B|190:278|190:278|148:303|148:303|85:292,1,180,6|0,3:1|3:2,0:0:0:0:
0,120,63304,2,0,L|88:105,1,90,8|2,0:0|0:0,0:0:0:0:
124,104,63536,1,8,0:0:0:0:
124,104,63613,1,0,3:2:0:0:
344,192,63768,1,2,3:2:0:0:
112,316,63922,2,0,P|98:273|110:230,1,90,10|0,0:0|2:0,0:0:0:0:
284,16,64231,5,6,3:1:0:0:
380,296,64386,1,2,3:2:0:0:
192,52,64541,5,10,0:0:0:0:
96,332,64696,1,2,3:2:0:0:
96,332,64773,1,2,3:2:0:0:
96,332,64850,5,10,0:0:0:0:
270,103,65005,1,2,3:2:0:0:
368,384,65160,1,10,0:0:0:0:
99,206,65314,6,0,B|199:172|199:172|266:206,1,180,6|8,3:1|3:3,0:0:0:0:
291,222,65701,1,8,3:3:0:0:
291,222,65778,2,0,L|282:269,1,45,8|0,3:2|3:2,0:0:0:0:
451,383,65933,2,0,L|442:335,1,45,0|0,3:2|3:2,0:0:0:0:
512,144,66087,5,8,3:2:0:0:
488,168,66164,1,0,3:2:0:0:
459,184,66241,1,2,3:2:0:0:
425,186,66318,1,0,3:2:0:0:
392,176,66396,2,0,L|400:131,1,45,10|8,0:0|0:0,0:0:0:0:
252,0,66551,2,0,L|260:45,1,45,10|8,0:0|0:0,0:0:0:0:
108,208,66706,6,0,L|123:120,1,90,6|0,3:1|2:0,0:0:0:0:
291,222,67015,2,0,L|306:310,1,90,10|0,0:0|2:0,0:0:0:0:
319,346,67247,1,8,0:0:0:0:
319,346,67324,2,0,P|361:357|404:343,1,90,2|2,3:2|3:2,0:0:0:0:
275,122,67634,1,10,0:0:0:0:
184,348,67788,6,0,B|118:334|118:334|76:359|76:359|13:348,1,180,6|0,3:1|3:2,0:0:0:0:
48,168,68252,2,0,L|136:153,1,90,8|2,0:0|0:0,0:0:0:0:
168,152,68484,1,8,0:0:0:0:
168,152,68561,1,0,3:2:0:0:
316,240,68716,1,2,3:2:0:0:
248,0,68871,2,0,P|236:42|250:85,1,90,10|0,0:0|2:0,0:0:0:0:
480,276,69180,5,6,3:1:0:0:
372,48,69335,1,2,0:0:0:0:
296,320,69489,1,10,0:0:0:0:
480,132,69644,1,2,0:0:0:0:
480,132,69721,1,10,0:0:0:0:
480,132,69799,1,2,3:2:0:0:
224,212,69953,1,2,3:2:0:0:
496,292,70108,1,10,0:0:0:0:
290,97,70262,6,0,B|190:63|190:63|123:97,1,180,6|0,3:1|3:2,0:0:0:0:
208,328,70726,2,0,L|223:240,1,90,10|0,0:0|2:0,0:0:0:0:
228,216,70958,1,8,0:0:0:0:
228,216,71035,1,2,3:2:0:0:
496,292,71190,2,0,L|486:248,1,45,10|8,3:2|3:2,0:0:0:0:
312,52,71345,1,10,0:0:0:0:
320,96,71422,1,8,0:0:0:0:
328,141,71499,1,8,0:0:0:0:
336,185,71576,1,8,0:0:0:0:
344,230,71654,6,0,L|359:318,1,90,6|0,3:1|2:0,0:0:0:0:
120,384,71963,2,0,L|135:296,1,90,10|0,0:0|3:2,0:0:0:0:
160,272,72195,1,0,3:2:0:0:
160,272,72273,2,0,L|150:216,1,45,2|0,3:2|3:2,0:0:0:0:
328,141,72427,2,0,L|318:196,1,45,2|0,3:2|3:2,0:0:0:0:
96,24,72582,1,10,3:3:0:0:
96,24,72659,1,0,3:2:0:0:
96,24,72737,6,0,B|196:-10|196:-10|263:24,1,180,6|0,3:1|3:2,0:0:0:0:
412,184,73201,2,0,P|423:141|410:99,1,90,8|2,0:0|0:0,0:0:0:0:
380,80,73433,1,8,0:0:0:0:
380,80,73510,1,0,3:2:0:0:
292,280,73664,1,2,3:2:0:0:
200,80,73819,2,0,P|157:68|115:81,1,90,10|0,0:0|3:2,0:0:0:0:
208,384,74128,5,6,3:1:0:0:
292,100,74283,1,2,3:2:0:0:
108,336,74438,5,10,0:0:0:0:
24,52,74593,1,2,3:2:0:0:
24,52,74670,1,2,3:2:0:0:
24,52,74747,5,10,0:0:0:0:
248,264,74902,1,8,0:0:0:0:
248,264,74979,1,8,0:0:0:0:
248,264,75056,2,0,L|188:253,1,45,10|8,0:0|0:0,0:0:0:0:
104,0,75211,6,0,B|170:-14|170:-14|212:11|212:11|275:0,1,180,6|8,3:1|3:3,0:0:0:0:
372,224,75675,1,10,3:2:0:0:
468,0,75829,1,0,3:2:0:0:
288,184,75984,6,0,P|276:228|291:272,1,90,8|2,3:2|0:0,0:0:0:0:
276,292,76216,6,0,P|308:325|353:334,1,90,8|0,3:2|2:0,0:0:0:0:
363,357,76448,5,8,3:2:0:0:
348,88,76603,6,1,B|208:32|228:156|87:92,1,270,6|10,3:1|0:0,0:0:0:0:
288,308,77685,6,0,B|313:258|313:258|288:184,1,135.000005149842,6|0,3:1|3:2,0:0:0:0:
464,36,78304,5,0,3:2:0:0:
464,36,78381,1,0,3:2:0:0:
464,36,78458,1,10,3:3:0:0:
392,200,78613,1,10,3:3:0:0:
320,32,78768,2,0,P|280:21|240:34,1,80.9999975280763,14|0,0:0|0:0,0:0:0:0:
100,240,79077,6,0,L|85:152,1,90,6|10,3:1|0:0,0:0:0:0:
60,124,79309,1,8,0:0:0:0:
60,124,79386,2,0,L|69:68,1,45,10|8,3:2|0:0,0:0:0:0:
184,192,79541,2,0,L|193:247,1,45,10|8,0:0|0:0,0:0:0:0:
296,84,79695,1,10,3:2:0:0:
296,84,79773,1,8,0:0:0:0:
296,84,79850,2,0,L|288:128,1,45,8|8,0:0|0:0,0:0:0:0:
256,336,80005,1,10,3:2:0:0:
455,226,80159,6,0,B|389:235|389:235|347:210|347:210|274:223,1,188.999994232178,6|8,3:1|0:0,0:0:0:0:
256,248,80546,1,8,0:0:0:0:
256,248,80623,2,0,L|197:237,3,47.2499985580445,10|8|8|8,3:2|0:0|0:0|0:0,0:0:0:0:
109,136,80933,2,0,L|166:127,1,49.5000015106202,10|8,3:3|3:3,0:0:0:0:
300,344,81087,2,0,L|251:335,1,49.5000015106202,10|8,3:3|3:3,0:0:0:0:
30,245,81242,2,0,L|128:228,1,99.0000030212403,14|0,0:0|2:0,0:0:0:0:
392,96,81551,6,0,P|348:84|304:99,1,90,6|0,3:1|2:0,0:0:0:0:
180,304,81861,2,0,P|213:271|222:226,1,90,10|0,0:0|2:0,0:0:0:0:
212,201,82093,1,8,0:0:0:0:
212,201,82170,1,2,3:2:0:0:
68,0,82324,1,2,3:2:0:0:
20,233,82479,1,10,0:0:0:0:
204,49,82634,6,0,B|305:20|305:20|368:62,1,180,6|0,3:1|3:2,0:0:0:0:
468,272,83097,1,8,0:0:0:0:
296,132,83252,1,2,0:0:0:0:
296,132,83329,1,8,0:0:0:0:
296,132,83407,2,0,L|311:220,1,90,2|0,3:2|3:2,0:0:0:0:
92,384,83716,1,10,0:0:0:0:
96,359,83793,1,8,0:0:0:0:
100,334,83870,1,8,0:0:0:0:
105,310,83947,1,8,0:0:0:0:
112,284,84025,6,0,L|127:195,1,90,6|2,3:1|3:2,0:0:0:0:
312,16,84335,1,10,0:0:0:0:
51,119,84489,1,2,3:2:0:0:
51,119,84567,1,2,3:2:0:0:
51,119,84644,5,10,3:2:0:0:
306,224,84799,1,10,0:0:0:0:
140,0,84953,1,10,0:0:0:0:
112,284,85108,5,6,3:1:0:0:
256,192,85185,12,0,87814,2:0:0:0:
