osu file format v14

[General]
AudioFilename: audio.mp3
AudioLeadIn: 0
PreviewTime: 56268
Countdown: 0
SampleSet: Soft
StackLeniency: 0.5
Mode: 0
LetterboxInBreaks: 0
WidescreenStoryboard: 1

[Editor]
DistanceSpacing: 1.1
BeatDivisor: 4
GridSize: 32
TimelineZoom: 1.8

[Metadata]
Title:Gamushara (TV Size)
TitleUnicode:我武者羅 (TV Size)
Artist:CHiCO with HoneyWorks
ArtistUnicode:CHiCO with HoneyWorks
Creator:Smoke
Version:PikA's Expert
Source:BORUTO-ボルト- NARUTO NEXT GENERATIONS
Tags:anime pop j-pop jpop rock j-rock jrock japanese opening uzumaki boruto naruto uchiha sasuke PikAqours Nymphe Kiyoshi Guarden Reform Kujinn torriru
BeatmapID:3099129
BeatmapSetID:1513461

[Difficulty]
HPDrainRate:5.4
CircleSize:3.8
OverallDifficulty:8.8
ApproachRate:9.2
SliderMultiplier:1.81
SliderTickRate:1

[Events]
//Background and Video events
0,0,"naruto wallpaper boruto.jpg",0,0
Video,-316,"video.mp4"
//Break Periods
2,52060,53765
//Storyboard Layer 0 (Background)
//Storyboard Layer 1 (Fail)
//Storyboard Layer 2 (Pass)
//Storyboard Layer 3 (Foreground)
//Storyboard Layer 4 (Overlay)
//Storyboard Sound Samples

[TimingPoints]
-112,309.278350515464,4,2,1,70,1,0
661,-196.078431372549,4,2,1,45,0,0
1125,-163.934426229508,4,2,1,55,0,0
9645,309.278350515464,4,2,1,70,1,0
9799,309.278350515464,4,2,1,70,1,0
9799,-163.934426229508,4,2,1,70,0,0
11500,-163.934426229508,4,2,1,75,0,0
11963,-123.456790123457,4,2,1,75,0,0
12273,-109.89010989011,4,2,1,80,0,0
17221,-123.456790123457,4,2,1,60,0,0
22170,-123.456790123457,4,2,1,63,0,0
24644,-123.456790123457,4,2,1,66,0,0
27118,-109.89010989011,4,2,1,70,0,0
37015,-123.456790123457,4,2,1,60,0,0
40726,-123.456790123457,4,2,1,65,0,0
41963,-123.456790123457,4,2,1,60,0,0
45675,-123.456790123457,4,2,1,65,0,0
46603,-163.934426229508,4,2,1,65,0,0
46912,-140.845070422535,4,2,1,60,0,0
50469,-109.89010989011,4,2,1,70,0,0
51860,-140.845070422535,4,2,1,55,0,0
54335,-99.0099009900989,4,2,1,75,0,0
55572,-123.456790123457,4,2,1,80,0,0
56345,-123.456790123457,4,2,1,60,0,0
56809,-99.009900990099,4,2,1,85,0,1
76603,-123.456790123457,4,2,1,70,0,0
79077,-109.89010989011,4,2,1,85,0,0
80159,-109.89010989011,4,2,1,90,0,0
80933,-109.89010989011,4,2,1,95,0,0
81551,-99.009900990099,4,2,1,85,0,1
85108,-99.009900990099,4,2,1,80,0,0
85726,-109.89010989011,4,2,1,80,0,0

[Colours]
Combo1 : 87,108,157
Combo2 : 235,136,46
Combo3 : 143,151,184
Combo4 : 231,48,66

[HitObjects]
35,292,661,6,0,P|30:318|25:343,2,46.1550002817078,2|2|2,0:0|0:0|0:0,0:0:0:0:
97,229,1125,2,0,P|129:235|166:243,1,55.2049977256242,2|0,0:0|0:0,0:0:0:0:
207,307,1434,2,0,P|234:301|261:296,1,55.2049977256242,2|0,0:0|0:0,0:0:0:0:
371,252,1743,2,0,P|361:303|351:361,1,110.409995451248,2|2,0:0|0:0,0:0:0:0:
486,294,2207,2,0,P|476:239|466:185,1,110.409995451248,2|0,0:0|0:0,0:0:0:0:
466,185,2826,2,0,P|438:180|411:175,1,55.2049977256242,2|0,0:0|0:0,0:0:0:0:
351,109,3135,1,2,0:0:0:0:
351,109,3290,2,0,P|323:113|296:118,1,55.2049977256242,2|0,0:0|0:0,0:0:0:0:
236,240,3599,6,0,P|231:212|225:185,1,55.2049977256242,2|2,0:0|0:0,0:0:0:0:
137,130,3908,2,0,P|131:157|126:184,1,55.2049977256242,2|2,0:0|0:0,0:0:0:0:
54,243,4217,2,0,P|26:248|0:253,2,55.2049977256242,2|2|2,0:0|0:0|0:0,0:0:0:0:
116,314,4681,2,0,P|169:326|223:339,1,110.409995451248,2|0,0:0|0:0,0:0:0:0:
324,354,5145,2,0,P|318:326|313:299,1,55.2049977256242,2|0,0:0|0:0,0:0:0:0:
276,206,5455,2,0,P|255:224|234:242,1,55.2049977256242,2|0,0:0|0:0,0:0:0:0:
171,321,5764,2,0,P|197:329|223:339,1,55.2049977256242,2|0,0:0|0:0,0:0:0:0:
383,214,6073,6,0,P|393:265|405:325,2,110.409995451248,2|2|2,0:0|0:0|0:0,0:0:0:0:
442,145,6846,1,2,0:0:0:0:
376,84,7001,1,2,0:0:0:0:
376,84,7156,6,0,P|316:97|261:110,1,110.409995451248,2|0,0:0|0:0,0:0:0:0:
268,108,7774,1,2,0:0:0:0:
268,108,7929,2,0,P|262:140|257:170,1,55.2049977256242,2|2,0:0|0:0,0:0:0:0:
156,155,8238,2,0,P|161:187|166:217,1,55.2049977256242,2|0,0:0|0:0,0:0:0:0:
89,276,8547,1,0,0:0:0:0:
89,276,9645,5,0,3:2:0:0:
89,276,9722,1,0,3:2:0:0:
89,276,9799,1,10,3:2:0:0:
159,151,9953,2,0,P|185:145|213:140,1,55.2049977256242,10|0,3:2|0:0,0:0:0:0:
276,254,10262,1,2,0:0:0:0:
276,254,10417,2,0,P|249:248|221:243,1,55.2049977256242,2|0,0:0|0:0,0:0:0:0:
310,94,10726,5,2,0:0:0:0:
310,94,10881,2,0,P|315:120|320:148,1,55.2049977256242,2|0,0:0|0:0,0:0:0:0:
434,219,11190,1,2,0:0:0:0:
434,219,11345,2,0,P|439:192|444:164,1,55.2049977256242,2|0,0:0|3:2,0:0:0:0:
456,135,11577,1,0,3:2:0:0:
456,135,11654,1,8,0:0:0:0:
512,314,11809,1,0,3:2:0:0:
314,266,11963,1,0,3:2:0:0:
283,238,12041,1,8,0:0:0:0:
276,198,12118,1,8,3:2:0:0:
296,163,12195,1,8,0:0:0:0:
326,147,12273,6,0,P|258:159|214:167,1,82.3550027646028,6|0,3:1|0:0,0:0:0:0:
111,319,12582,2,0,P|179:331|223:339,1,82.3550027646028,10|0,0:0|0:0,0:0:0:0:
226,346,12814,1,8,0:0:0:0:
226,346,12891,1,2,3:2:0:0:
109,168,13046,1,2,3:2:0:0:
21,383,13201,1,8,0:0:0:0:
210,224,13355,6,0,P|250:216|291:209,1,82.3550027646028,6|0,3:2|0:0,0:0:0:0:
390,62,13664,2,0,P|349:54|308:47,1,82.3550027646028,2|8,3:2|0:0,0:0:0:0:
109,168,13974,1,2,0:0:0:0:
109,168,14051,1,8,0:0:0:0:
109,168,14128,1,2,3:2:0:0:
329,249,14283,1,2,3:2:0:0:
219,51,14438,2,0,P|211:97|202:150,1,82.3550027646028,10|2,0:0|0:0,0:0:0:0:
119,369,14747,5,14,0:0:0:0:
329,249,14902,1,0,3:2:0:0:
109,168,15056,2,0,P|117:214|126:267,1,82.3550027646028,10|0,0:0|3:2,0:0:0:0:
135,281,15288,1,0,3:2:0:0:
135,281,15366,1,10,0:0:0:0:
390,355,15520,1,2,3:2:0:0:
261,136,15675,1,8,0:0:0:0:
119,369,15829,6,0,P|79:361|38:354,1,82.3550027646028,6|0,3:2|0:0,0:0:0:0:
109,168,16139,2,0,P|137:163|172:158,3,41.1775013823014,2|0|8|0,3:2|3:2|3:2|3:2,0:0:0:0:
0,114,16448,2,0,P|4:93|9:73,1,41.1775013823014,2|0,3:2|3:2,0:0:0:0:
119,0,16603,2,0,P|124:19|128:40,1,41.1775013823014,8|0,3:2|3:2,0:0:0:0:
230,109,16757,1,2,3:2:0:0:
230,109,16835,1,0,3:2:0:0:
230,109,16912,1,10,3:2:0:0:
301,13,17067,1,2,3:2:0:0:
354,190,17221,6,0,B|312:170|272:197|290:210|257:235|199:211,1,146.610003579346,2|2,0:0|0:0,0:0:0:0:
218,217,17840,1,2,0:0:0:0:
218,217,17994,2,0,P|211:254|204:290,1,73.3050017896729,2|0,0:0|0:0,0:0:0:0:
101,348,18304,6,0,P|87:265|73:184,1,146.610003579346,2|2,0:0|0:0,0:0:0:0:
137,123,18768,1,2,0:0:0:0:
137,123,18922,2,0,P|175:130|208:137,2,73.3050017896729,2|2|2,0:0|0:0|0:0,0:0:0:0:
80,37,19386,1,2,0:0:0:0:
80,37,19850,6,0,P|38:84|38:177,2,146.610003579346,2|2|2,0:0|0:0|0:0,0:0:0:0:
80,37,20778,2,0,P|151:51|223:67,1,146.610003579346,2|2,0:0|0:0,0:0:0:0:
279,143,21242,2,0,P|318:135|366:126,1,73.3050017896729,2|2,0:0|0:0,0:0:0:0:
462,97,21551,1,2,0:0:0:0:
462,97,21706,2,0,P|453:137|443:178,1,73.3050017896729,2|0,0:0|0:0,0:0:0:0:
428,256,22015,1,2,0:0:0:0:
428,256,22092,1,2,0:0:0:0:
428,256,22170,6,0,P|392:264|356:272,1,73.3050017896729,2|2,3:2|0:0,0:0:0:0:
285,366,22479,1,2,3:2:0:0:
285,366,22634,2,0,P|249:357|213:349,1,73.3050017896729,2|0,0:0|3:2,0:0:0:0:
137,251,22943,2,0,P|143:214|149:178,2,73.3050017896729,2|2|2,0:0|3:2|0:0,0:0:0:0:
204,91,23407,6,0,P|148:73|105:90,1,73.3050017896729,2|2,3:2|0:0,0:0:0:0:
252,182,23716,1,2,3:2:0:0:
252,182,23871,2,0,P|295:142|302:96,1,73.3050017896729,2|0,0:0|3:2,0:0:0:0:
149,178,24180,2,0,P|161:235|197:264,1,73.3050017896729,2|0,0:0|3:2,0:0:0:0:
204,91,24489,1,2,0:0:0:0:
47,194,24644,5,2,3:2:0:0:
47,194,24799,2,0,P|41:152|35:116,1,73.3050017896729,2|0,3:2|3:2,0:0:0:0:
143,12,25108,1,2,3:2:0:0:
143,12,25185,1,0,3:2:0:0:
143,12,25262,1,0,3:2:0:0:
148,177,25417,1,2,3:2:0:0:
42,20,25572,1,8,0:0:0:0:
216,95,25726,6,0,P|252:101|288:108,1,73.3050017896729,6|0,3:2|0:0,0:0:0:0:
321,218,26036,1,10,0:0:0:0:
321,218,26113,1,8,0:0:0:0:
321,218,26190,2,0,P|342:213|372:206,3,36.6525008948365,8|0|0|0,3:2|3:2|3:2|3:2,0:0:0:0:
434,169,26500,2,0,P|451:173|469:177,3,36.6525008948365,8|8|10|8,3:2|3:3|3:3|3:3,0:0:0:0:
512,277,26809,1,10,3:2:0:0:
512,277,26886,1,8,0:0:0:0:
512,277,26963,1,10,0:0:0:0:
512,277,27040,1,8,0:0:0:0:
512,277,27118,6,0,P|422:343|352:321,1,164.710005529206,6|10,3:1|0:0,0:0:0:0:
194,187,27582,1,0,0:0:0:0:
194,187,27659,1,8,0:0:0:0:
194,187,27737,1,2,3:2:0:0:
271,382,27891,1,2,3:2:0:0:
339,166,28046,1,8,0:0:0:0:
162,303,28201,6,0,B|113:282|78:309|93:322|42:353|-5:319,1,164.710005529206,6|0,3:2|3:2,0:0:0:0:
194,187,28664,1,10,0:0:0:0:
16,134,28819,1,2,0:0:0:0:
16,134,28896,1,8,0:0:0:0:
16,134,28974,2,0,P|24:178|33:225,1,82.3550027646028,2|0,3:2|3:2,0:0:0:0:
150,384,29283,2,0,P|157:343|165:303,1,82.3550027646028,10|0,0:0|0:0,0:0:0:0:
117,121,29592,5,4,3:2:0:0:
270,305,29747,2,0,P|262:264|254:224,1,82.3550027646028,2|8,0:0|0:0,0:0:0:0:
412,115,30056,1,2,0:0:0:0:
412,115,30134,1,8,0:0:0:0:
412,115,30211,2,0,P|404:155|396:195,1,82.3550027646028,2|0,3:2|3:2,0:0:0:0:
286,88,30520,1,10,0:0:0:0:
411,304,30675,6,0,B|355:278|316:264|316:264|287:285|269:304,1,164.710005529206,6|2,3:2|3:2,0:0:0:0:
113,173,31139,1,10,0:0:0:0:
286,88,31293,1,2,0:0:0:0:
286,88,31371,1,8,0:0:0:0:
286,88,31448,1,2,3:2:0:0:
127,271,31603,2,0,P|75:266|40:240,1,82.3550027646028,2|8,3:2|0:0,0:0:0:0:
142,46,31912,1,8,0:0:0:0:
142,46,31990,1,8,0:0:0:0:
142,46,32067,5,6,3:2:0:0:
271,191,32221,2,0,P|323:186|358:160,1,82.3550027646028,2|8,0:0|0:0,0:0:0:0:
233,0,32530,1,2,0:0:0:0:
233,0,32608,1,8,0:0:0:0:
233,0,32685,1,0,3:2:0:0:
162,210,32840,1,2,3:2:0:0:
286,88,32994,1,10,0:0:0:0:
305,339,33149,6,0,P|217:318|128:297,1,164.710005529206,6|2,3:2|3:2,0:0:0:0:
186,104,33613,1,10,0:0:0:0:
34,239,33768,1,2,0:0:0:0:
34,239,33846,1,8,0:0:0:0:
34,239,33923,1,0,3:2:0:0:
249,181,34077,1,2,3:2:0:0:
82,53,34231,2,0,P|73:98|65:144,1,82.3550027646028,10|0,0:0|0:0,0:0:0:0:
201,277,34541,5,6,3:2:0:0:
366,103,34695,2,0,P|321:94|275:86,1,82.3550027646028,2|8,3:2|0:0,0:0:0:0:
119,194,35005,1,2,3:2:0:0:
119,194,35082,1,0,3:2:0:0:
119,194,35159,1,8,0:0:0:0:
221,0,35314,1,2,3:2:0:0:
273,226,35469,1,8,0:0:0:0:
73,60,35623,6,0,B|126:43|161:72|145:80|176:113|236:93,1,164.710005529206,6|0,3:2|3:2,0:0:0:0:
384,6,36087,2,0,P|374:49|363:101,1,82.3550027646028,12|0,0:0|0:0,0:0:0:0:
273,226,36396,6,0,P|247:232|218:239,2,54.9033351764018,8|0|0,3:3|3:2|3:2,0:0:0:0:
379,186,36706,2,0,P|405:192|434:199,2,54.9033351764018,10|0|0,3:3|3:2|3:2,0:0:0:0:
268,116,37015,6,0,P|227:126|193:135,1,73.3050017896729,6|2,3:2|0:0,0:0:0:0:
94,175,37324,1,2,3:2:0:0:
94,175,37479,2,0,P|123:205|147:230,1,73.3050017896729,2|0,0:0|3:2,0:0:0:0:
233,297,37788,2,0,P|244:256|254:222,1,73.3050017896729,2|0,0:0|3:2,0:0:0:0:
379,186,38097,1,2,0:0:0:0:
379,186,38175,1,2,0:0:0:0:
379,186,38252,5,0,3:2:0:0:
247,45,38407,2,0,P|256:80|267:115,1,73.3050017896729,2|0,0:0|3:2,0:0:0:0:
267,115,38871,2,0,P|305:108|346:101,1,73.3050017896729,2|2,3:2|0:0,0:0:0:0:
496,191,39180,1,0,3:2:0:0:
424,34,39335,1,10,0:0:0:0:
424,34,39412,1,8,0:0:0:0:
424,34,39489,5,6,3:2:0:0:
339,204,39644,2,0,P|261:217|193:228,1,146.610003579346,2|8,0:0|3:3,0:0:0:0:
171,257,40030,1,8,3:3:0:0:
171,257,40108,2,0,P|133:248|78:234,1,73.3050017896729,2|10,3:2|3:3,0:0:0:0:
232,363,40417,1,10,0:0:0:0:
176,150,40572,1,2,3:2:0:0:
176,150,40649,1,0,3:2:0:0:
176,150,40726,5,4,3:2:0:0:
13,300,40881,2,0,P|-4:230|31:168,1,146.610003579346,2|2,0:0|0:0,0:0:0:0:
85,24,41345,6,0,P|94:57|106:105,1,73.3050017896729,10|0,0:0|0:0,0:0:0:0:
176,150,41577,2,0,P|185:114|195:80,1,73.3050017896729,10|0,0:0|0:0,0:0:0:0:
266,22,41809,1,10,0:0:0:0:
107,217,41963,6,0,B|92:199|66:172|66:172|86:133|110:78,2,146.610003579346,6|0|0,3:2|3:2|3:2,0:0:0:0:
232,311,42737,2,0,P|238:274|244:238,1,73.3050017896729,2|0,0:0|3:2,0:0:0:0:
368,140,43046,6,0,P|374:176|380:212,1,73.3050017896729,2|4,0:0|3:2,0:0:0:0:
454,70,43355,2,0,P|393:31|321:37,1,146.610003579346,2|8,0:0|0:0,0:0:0:0:
130,131,43819,1,0,3:2:0:0:
299,226,43974,1,8,3:3:0:0:
243,123,44128,1,2,3:2:0:0:
134,272,44283,1,2,3:2:0:0:
134,272,44360,1,0,3:2:0:0:
134,272,44438,6,0,P|176:283|223:296,1,73.3050017896729,6|2,3:2|0:0,0:0:0:0:
299,226,44747,1,0,3:2:0:0:
337,370,44902,1,2,3:2:0:0:
379,173,45056,1,0,3:2:0:0:
451,331,45211,1,10,0:0:0:0:
295,124,45366,1,0,3:2:0:0:
337,370,45520,1,10,0:0:0:0:
434,106,45675,5,10,3:2:0:0:
434,106,45752,1,8,0:0:0:0:
434,106,45829,2,0,P|458:103|478:100,1,36.6525008948365,8|8,0:0|0:0,0:0:0:0:
295,124,45984,2,0,P|271:127|251:130,3,36.6525008948365,10|8|8|8,3:2|0:0|0:0|0:0,0:0:0:0:
378,172,46293,1,10,3:2:0:0:
390,198,46370,1,8,0:0:0:0:
392,225,46447,1,8,0:0:0:0:
384,251,46524,1,8,0:0:0:0:
367,273,46603,2,0,P|316:284|279:292,1,82.8074965884363,14|0,0:0|0:0,0:0:0:0:
227,361,46912,6,0,P|185:351|145:341,1,64.2549967645036,6|2,3:2|0:0,0:0:0:0:
268,228,47221,1,2,3:2:0:0:
268,228,47376,2,0,P|280:269|291:309,1,64.2549967645036,2|0,0:0|3:2,0:0:0:0:
133,257,47685,2,0,P|162:225|191:195,1,64.2549967645036,2|0,0:0|3:2,0:0:0:0:
322,132,47994,1,2,3:2:0:0:
322,132,48072,1,0,3:2:0:0:
322,132,48149,5,0,3:2:0:0:
223,34,48304,2,0,P|217:74|209:126,2,64.2549967645036,2|0|0,0:0|3:2|3:2,0:0:0:0:
410,91,48768,2,0,P|416:131|424:183,1,64.2549967645036,2|2,3:2|3:2,0:0:0:0:
364,304,49077,1,2,3:2:0:0:
508,228,49231,1,2,3:2:0:0:
508,228,49309,1,0,3:2:0:0:
508,228,49386,5,0,3:2:0:0:
322,132,49541,2,0,P|316:172|308:224,2,64.2549967645036,2|0|0,0:0|3:2|0:0,0:0:0:0:
390,0,50005,1,2,3:2:0:0:
462,133,50159,1,2,3:2:0:0:
462,133,50237,1,0,3:2:0:0:
462,133,50314,1,2,3:2:0:0:
284,32,50469,6,0,P|249:40|189:53,1,82.3550027646028,14|0,0:0|3:2,0:0:0:0:
163,226,50778,2,0,P|198:234|255:246,1,82.3550027646028,14|0,0:0|3:2,0:0:0:0:
81,76,51087,2,0,P|46:84|-12:96,1,82.3550027646028,14|0,0:0|3:2,0:0:0:0:
58,283,51396,1,2,3:2:0:0:
58,283,51474,1,0,3:2:0:0:
58,283,51551,2,0,L|67:234,1,41.1775013823014,0|0,3:2|0:0,0:0:0:0:
150,150,51706,2,0,L|160:202,1,41.1775013823014,8|0,0:0|0:0,0:0:0:0:
229,273,51860,5,2,0:0:0:0:
220,283,54335,6,0,B|161:260|122:295|140:305|98:342|50:317,1,182.809996373703,10|0,3:2|0:0,0:0:0:0:
393,97,54953,2,0,P|440:149|411:268,1,182.809996373703,10|0,3:2|0:0,0:0:0:0:
338,336,55572,6,0,P|315:332|287:326,1,36.6525008948365,10|0,3:2|3:2,0:0:0:0:
191,253,55726,2,0,P|214:249|242:243,1,36.6525008948365,2|0,3:2|3:2,0:0:0:0:
289,170,55881,1,10,3:2:0:0:
293,152,55958,1,2,3:2:0:0:
296,133,56036,1,2,3:2:0:0:
299,114,56113,1,2,3:2:0:0:
302,98,56190,1,10,3:2:0:0:
390,60,56345,1,2,0:0:0:0:
390,60,56500,2,0,P|396:95|404:138,1,73.3050017896729,2|2,0:0|0:0,0:0:0:0:
270,303,56809,6,0,P|161:280|85:263,1,182.809996373703,6|10,3:1|0:0,0:0:0:0:
258,178,57273,1,0,0:0:0:0:
258,178,57350,1,8,0:0:0:0:
258,178,57427,1,2,3:2:0:0:
153,369,57582,1,2,3:2:0:0:
78,150,57737,1,10,0:0:0:0:
270,303,57891,6,0,P|356:315|424:243,1,182.809996373703,6|0,3:1|3:2,0:0:0:0:
407,37,58355,1,8,0:0:0:0:
293,197,58510,1,2,0:0:0:0:
293,197,58587,1,8,0:0:0:0:
293,197,58664,1,0,3:2:0:0:
510,119,58819,1,2,3:2:0:0:
312,0,58974,2,0,P|304:43|291:116,1,91.4049981868515,10|0,0:0|0:0,0:0:0:0:
393,269,59283,5,6,3:1:0:0:
177,165,59438,1,2,0:0:0:0:
401,66,59592,2,0,P|408:109|421:182,1,91.4049981868515,10|2,0:0|0:0,0:0:0:0:
426,186,59824,1,10,0:0:0:0:
426,186,59902,1,2,3:2:0:0:
271,355,60056,1,2,3:2:0:0:
512,259,60211,1,10,0:0:0:0:
289,147,60366,6,0,B|238:122|196:156|210:166|167:211|103:177,1,182.809996373703,6|0,3:1|3:2,0:0:0:0:
271,355,60829,2,0,P|279:310|287:265,1,91.4049981868515,10|0,0:0|0:0,0:0:0:0:
298,239,61061,1,8,0:0:0:0:
298,239,61139,2,0,P|342:230|387:222,1,91.4049981868515,2|0,3:2|3:2,0:0:0:0:
506,55,61448,1,10,0:0:0:0:
469,67,61525,1,8,0:0:0:0:
429,66,61602,1,8,0:0:0:0:
393,51,61679,1,8,0:0:0:0:
366,25,61757,6,0,B|318:39|250:57|250:57|227:36|198:14,1,182.809996373703,6|10,3:1|0:0,0:0:0:0:
106,204,62221,1,0,0:0:0:0:
106,204,62299,1,8,0:0:0:0:
106,204,62376,1,2,3:2:0:0:
325,138,62530,1,2,3:2:0:0:
113,22,62685,1,10,0:0:0:0:
208,261,62840,6,0,P|219:165|231:67,1,182.809996373703,6|0,3:1|3:2,0:0:0:0:
320,295,63304,1,8,0:0:0:0:
117,205,63458,1,2,0:0:0:0:
117,205,63536,1,8,0:0:0:0:
117,205,63613,1,0,3:2:0:0:
331,141,63768,1,2,3:2:0:0:
139,313,63922,2,0,P|97:303|44:289,1,91.4049981868515,10|0,0:0|0:0,0:0:0:0:
194,34,64231,6,0,P|202:78|211:134,1,91.4049981868515,6|2,3:1|3:2,0:0:0:0:
384,352,64541,2,0,P|391:306|399:262,1,91.4049981868515,10|2,0:0|3:2,0:0:0:0:
302,24,64850,1,10,0:0:0:0:
483,168,65005,1,2,3:2:0:0:
227,234,65159,1,10,0:0:0:0:
455,79,65314,6,0,B|404:54|355:94|373:104|333:143|269:109,1,182.809996373703,6|8,3:1|3:3,0:0:0:0:
259,130,65701,1,8,3:3:0:0:
259,130,65778,2,0,P|224:120|211:117,1,45.7024990934258,8|0,3:2|3:2,0:0:0:0:
81,60,65933,1,0,3:2:0:0:
81,60,66010,1,0,3:2:0:0:
81,60,66087,2,0,P|106:55|131:49,1,45.7024990934258,8|0,3:2|3:2,0:0:0:0:
261,225,66242,2,0,P|236:220|211:214,1,45.7024990934258,2|0,3:2|3:2,0:0:0:0:
139,153,66396,2,0,P|117:167|95:180,1,45.7024990934258,10|8,0:0|0:0,0:0:0:0:
44,279,66551,1,10,0:0:0:0:
44,279,66628,1,8,0:0:0:0:
44,279,66706,6,0,P|118:297|222:322,1,182.809996373703,6|10,3:1|0:0,0:0:0:0:
367,191,67170,1,0,0:0:0:0:
367,191,67247,1,8,0:0:0:0:
367,191,67324,1,2,3:2:0:0:
419,366,67479,1,2,3:2:0:0:
261,225,67634,1,10,0:0:0:0:
493,87,67788,6,0,P|477:162|456:274,1,182.809996373703,6|0,3:1|3:2,0:0:0:0:
262,339,68252,1,8,0:0:0:0:
356,139,68407,1,2,0:0:0:0:
356,139,68484,1,8,0:0:0:0:
356,139,68561,1,0,3:2:0:0:
419,366,68716,1,2,3:2:0:0:
261,225,68871,2,0,P|220:233|167:245,1,91.4049981868515,10|0,0:0|0:0,0:0:0:0:
334,40,69180,6,0,P|375:48|428:60,1,91.4049981868515,6|2,3:1|0:0,0:0:0:0:
261,225,69489,1,10,0:0:0:0:
209,0,69644,1,2,0:0:0:0:
209,0,69721,1,10,0:0:0:0:
209,0,69799,1,2,3:2:0:0:
356,139,69953,1,2,3:2:0:0:
125,209,70108,1,10,0:0:0:0:
334,40,70262,6,0,P|406:47|452:151,1,182.809996373703,6|0,3:1|3:2,0:0:0:0:
307,315,70726,2,0,P|296:265|285:218,1,91.4049981868515,10|0,0:0|0:0,0:0:0:0:
283,201,70958,1,8,0:0:0:0:
283,201,71036,1,2,3:2:0:0:
142,43,71190,1,10,3:2:0:0:
98,31,71267,1,8,3:2:0:0:
55,44,71344,1,10,0:0:0:0:
25,78,71421,1,8,0:0:0:0:
17,123,71499,1,8,0:0:0:0:
33,165,71576,1,8,0:0:0:0:
69,192,71654,6,0,P|121:182|172:172,1,91.4049981868515,6|0,3:1|0:0,0:0:0:0:
357,37,71963,2,0,P|305:26|254:16,1,91.4049981868515,10|0,0:0|3:2,0:0:0:0:
234,23,72195,1,0,3:2:0:0:
234,23,72273,2,0,P|240:53|243:72,1,45.7024990934258,2|0,3:2|3:2,0:0:0:0:
286,211,72427,1,2,3:2:0:0:
324,233,72504,1,0,3:2:0:0:
370,233,72581,1,10,3:3:0:0:
408,210,72658,1,0,3:2:0:0:
430,170,72737,6,0,P|412:264|395:358,1,182.809996373703,6|0,3:1|3:2,0:0:0:0:
205,263,73201,1,8,0:0:0:0:
348,124,73355,1,2,0:0:0:0:
348,124,73433,1,8,0:0:0:0:
348,124,73510,1,0,3:2:0:0:
288,346,73664,1,2,3:2:0:0:
154,153,73819,2,0,P|106:163|39:180,1,91.4049981868515,10|0,0:0|3:2,0:0:0:0:
402,308,74128,6,0,P|409:262|417:217,1,91.4049981868515,6|2,3:1|3:2,0:0:0:0:
231,0,74438,2,0,P|239:44|246:90,1,91.4049981868515,10|2,0:0|3:2,0:0:0:0:
137,286,74747,1,10,0:0:0:0:
315,165,74902,1,8,0:0:0:0:
276,187,74979,1,8,0:0:0:0:
230,189,75056,1,10,0:0:0:0:
189,171,75133,1,8,0:0:0:0:
158,138,75211,6,0,B|140:173|105:184|105:184|93:234|140:290,1,182.809996373703,6|8,3:1|3:3,0:0:0:0:
315,165,75675,1,10,3:2:0:0:
82,70,75829,1,0,3:2:0:0:
82,70,75907,1,0,3:2:0:0:
82,70,75984,6,0,P|129:44|179:41,1,91.4049981868515,8|2,3:2|0:0,0:0:0:0:
254,2,76216,2,0,P|295:34|317:80,1,91.4049981868515,8|0,3:2|0:0,0:0:0:0:
315,165,76448,1,8,3:2:0:0:
464,16,76603,6,0,P|489:78|445:156,2,146.610003579346,6|2|2,3:1|0:0|0:0,0:0:0:0:
361,144,77376,1,2,0:0:0:0:
512,225,77530,1,10,0:0:0:0:
367,49,77685,6,0,P|295:64|224:79,1,146.610003579346,6|0,3:1|3:2,0:0:0:0:
223,79,78304,1,0,3:2:0:0:
223,79,78381,1,0,3:2:0:0:
223,79,78458,1,10,3:3:0:0:
273,239,78613,1,10,3:3:0:0:
112,97,78768,2,0,P|121:60|128:25,1,73.3050017896729,14|0,0:0|0:0,0:0:0:0:
7,156,79077,5,6,3:1:0:0:
146,225,79231,1,10,0:0:0:0:
146,225,79309,1,8,0:0:0:0:
146,225,79386,2,0,L|202:213,1,41.1775013823014,10|8,3:2|0:0,0:0:0:0:
69,296,79541,1,10,0:0:0:0:
69,296,79618,1,8,0:0:0:0:
69,296,79695,2,0,L|13:282,3,41.1775013823014,10|8|8|8,3:2|0:0|0:0|0:0,0:0:0:0:
172,372,80005,1,10,3:2:0:0:
172,372,80082,1,8,0:0:0:0:
172,372,80159,6,0,P|233:360|339:340,1,164.710005529206,6|8,3:1|0:0,0:0:0:0:
375,358,80546,1,8,0:0:0:0:
375,358,80623,2,0,P|367:321|363:300,3,41.1775013823014,10|8|8|8,3:2|0:0|0:0|0:0,0:0:0:0:
290,236,80933,1,10,3:3:0:0:
295,193,81010,1,8,3:3:0:0:
302,152,81087,1,10,3:3:0:0:
309,112,81164,1,8,3:3:0:0:
315,70,81242,2,0,P|389:81|453:39,1,123.532504146904,14|0,0:0|0:0,0:0:0:0:
512,33,81551,6,0,B|462:5|412:40|427:50|386:90|324:53,1,182.809996373703,6|10,3:1|0:0,0:0:0:0:
108,88,82015,1,0,0:0:0:0:
108,88,82092,1,8,0:0:0:0:
108,88,82170,1,2,3:2:0:0:
288,197,82324,1,2,3:2:0:0:
218,4,82479,1,10,0:0:0:0:
82,194,82634,6,0,P|98:270|121:386,1,182.809996373703,6|0,3:1|3:2,0:0:0:0:
369,297,83097,1,8,0:0:0:0:
198,182,83252,1,2,0:0:0:0:
198,182,83329,1,8,0:0:0:0:
198,182,83407,1,0,3:2:0:0:
260,384,83561,1,0,3:2:0:0:
393,199,83716,1,10,0:0:0:0:
407,165,83793,1,8,0:0:0:0:
409,129,83870,1,8,0:0:0:0:
398,95,83947,1,8,0:0:0:0:
375,66,84025,5,6,3:1:0:0:
296,270,84180,1,2,3:2:0:0:
506,158,84335,1,10,0:0:0:0:
276,69,84489,1,2,3:2:0:0:
276,69,84567,1,2,3:2:0:0:
276,69,84644,5,10,3:2:0:0:
408,304,84799,1,10,0:0:0:0:
454,7,84953,1,10,0:0:0:0:
222,196,85108,2,0,B|112:177|0:159|0:159|76:201|57:300,1,365.619992747406,6|0,3:1|0:0,0:0:0:0:
256,192,85881,12,0,87814,0:0:0:0:
