osu file format v14

[General]
AudioFilename: audio.mp3
AudioLeadIn: 0
PreviewTime: 56345
Countdown: 0
SampleSet: Soft
StackLeniency: 0.4
Mode: 0
LetterboxInBreaks: 0
WidescreenStoryboard: 0

[Editor]
DistanceSpacing: 0.6
BeatDivisor: 4
GridSize: 32
TimelineZoom: 1.6

[Metadata]
Title:Gamushara (TV Size)
TitleUnicode:我武者羅 (TV Size)
Artist:CHiCO with HoneyWorks
ArtistUnicode:CHiCO with HoneyWorks
Creator:Aakki
Version:Pain
Source:BORUTO-ボルト- NARUTO NEXT GENERATIONS
Tags:anime pop j-pop jpop rock j-rock jrock japanese opening uzumaki boruto naruto uchiha sasuke kuki1537 a_r_m_i_n shirahane suou armin
BeatmapID:3098079
BeatmapSetID:1513125

[Difficulty]
HPDrainRate:5.8
CircleSize:4
OverallDifficulty:9
ApproachRate:9.3
SliderMultiplier:1.8
SliderTickRate:1

[Events]
//Background and Video events
0,0,"when the bns are sus.jpg",0,0
Video,-316,"very sus bns man.mp4"
//Break Periods
//Storyboard Layer 0 (Background)
//Storyboard Layer 1 (Fail)
//Storyboard Layer 2 (Pass)
//Storyboard Layer 3 (Foreground)
//Storyboard Layer 4 (Overlay)
//Storyboard Sound Samples

[TimingPoints]
-112,309.278350515464,4,2,1,70,1,0
197,-100,4,2,1,40,0,0
506,-222.222222222221,4,2,1,40,0,0
9645,309.278350515464,4,2,1,70,1,0
9799,309.278350515464,4,2,1,70,1,0
9799,-133.333333333333,4,2,1,70,0,0
12273,-100,4,2,1,70,0,0
12504,-100,4,2,1,5,0,0
12582,-100,4,2,1,70,0,0
14669,-100,4,2,1,5,0,0
14747,-100,4,2,1,70,0,0
17221,-200,4,2,1,50,0,0
22170,-133.333333333333,4,2,1,60,0,0
25726,-100,4,2,1,60,0,0
27118,-111.111111111111,4,2,1,70,0,0
27349,-111.111111111111,4,2,1,5,0,0
27427,-111.111111111111,4,2,1,70,0,0
34462,-111.111111111111,4,2,1,5,0,0
34541,-111.111111111111,4,2,1,70,0,0
37015,-133.333333333333,4,2,1,60,0,0
41654,-83.3333333333333,4,2,1,60,0,0
41963,-142.857142857143,4,2,1,60,0,0
46603,-83.3333333333334,4,2,1,60,0,0
46834,-83.3333333333334,4,2,1,5,0,0
46912,-166.666666666667,4,2,1,55,0,0
50469,-100,4,2,1,55,0,0
51860,-333.333333333333,4,2,1,45,0,0
54335,-66.6666666666667,4,2,1,75,0,0
55572,-90.9090909090909,4,2,1,75,0,0
56345,-333.333333333333,4,2,1,75,0,0
56809,-83.3333333333333,4,2,1,85,0,1
57040,-83.3333333333333,4,2,1,5,0,1
57118,-83.3333333333333,4,2,1,85,0,1
59205,-83.3333333333333,4,2,1,5,0,1
59283,-83.3333333333333,4,2,1,85,0,1
61988,-83.3333333333333,4,2,1,5,0,1
62067,-83.3333333333333,4,2,1,85,0,1
66937,-83.3333333333333,4,2,1,5,0,1
67015,-83.3333333333333,4,2,1,85,0,1
69102,-83.3333333333333,4,2,1,5,0,1
69180,-83.3333333333333,4,2,1,85,0,1
71885,-83.3333333333333,4,2,1,5,0,1
71963,-83.3333333333333,4,2,1,85,0,1
75442,-83.3333333333333,4,2,1,5,0,1
75520,-83.3333333333333,4,2,1,85,0,1
76603,-125,4,2,1,70,0,0
77685,-83.3333333333333,4,2,1,70,0,0
77916,-83.3333333333333,4,2,1,5,0,0
77994,-142.857142857143,4,2,1,70,0,0
78768,-66.6666666666667,4,2,1,70,0,0
78999,-66.6666666666667,4,2,1,5,0,0
79077,-76.9230769230769,4,2,1,70,0,0
81473,-76.9230769230769,4,2,1,5,0,0
81551,-83.3333333333333,4,2,1,85,0,1
85108,-500,4,2,1,85,0,0

[Colours]
Combo1 : 168,168,255
Combo2 : 255,138,21
Combo3 : 255,91,91
Combo4 : 255,255,83

[HitObjects]
341,100,661,5,2,0:0:0:0:
276,59,815,1,2,0:0:0:0:
343,20,970,1,2,0:0:0:0:
271,140,1125,6,0,P|236:133|227:131,1,40.4999987640381,2|0,0:0|0:0,0:0:0:0:
184,75,1434,2,0,P|164:79|144:83,1,40.4999987640381,2|0,0:0|0:0,0:0:0:0:
72,39,1743,2,0,P|66:68|54:136,1,80.9999975280763,2|2,0:0|0:0,0:0:0:0:
28,194,2207,6,0,P|51:163|141:165,1,121.499996292114,2|0,0:0|0:0,0:0:0:0:
175,224,2826,2,0,P|206:230|262:237,1,80.9999975280763,2|2,0:0|0:0,0:0:0:0:
326,172,3290,2,0,P|310:157|289:151,1,40.4999987640381,2|0,0:0|0:0,0:0:0:0:
341,256,3599,5,2,0:0:0:0:
429,192,3753,1,2,0:0:0:0:
491,293,3908,2,0,P|472:287|452:282,1,40.4999987640381,2|2,0:0|0:0,0:0:0:0:
360,360,4217,2,0,P|379:355|398:349,2,40.4999987640381,2|2|2,0:0|0:0|0:0,0:0:0:0:
262,382,4681,6,0,P|239:375|221:317,1,80.9999975280763,2|0,0:0|0:0,0:0:0:0:
177,243,5145,2,0,P|171:211|159:152,2,80.9999975280763,2|2|2,0:0|0:0|0:0,0:0:0:0:
115,104,6073,6,0,P|135:90|158:87,1,40.4999987640381,2|0,0:0|0:0,0:0:0:0:
222,25,6382,2,0,P|246:29|264:43,1,40.4999987640381,2|0,0:0|0:0,0:0:0:0:
306,129,6692,1,2,0:0:0:0:
362,25,6846,1,2,0:0:0:0:
417,99,7001,1,2,0:0:0:0:
512,1,7156,6,0,P|500:42|490:89,1,80.9999975280763,2|0,0:0|0:0,0:0:0:0:
460,262,7619,1,0,0:0:0:0:
404,176,7774,1,2,0:0:0:0:
312,305,7929,1,2,0:0:0:0:
309,205,8083,1,2,0:0:0:0:
404,336,8238,2,0,P|422:346|442:351,1,40.4999987640381,2|0,0:0|0:0,0:0:0:0:
404,176,8547,5,2,0:0:0:0:
404,176,9645,5,2,1:2:0:0:
409,159,9722,1,0,1:0:0:0:
403,142,9799,5,8,0:0:0:0:
151,203,9953,1,8,0:0:0:0:
151,203,10262,6,0,B|161:258|161:258|181:280|181:280|193:346,1,135.000005149842,2|0,0:0|0:0,0:0:0:0:
30,370,10726,2,0,B|38:321|38:321|58:299|58:299|68:244,1,135.000005149842,2|0,0:0|0:0,0:0:0:0:
113,85,11190,2,0,B|123:140|123:140|143:162|143:162|151:210,1,135.000005149842,2|2,0:0|1:2,0:0:0:0:
206,285,11577,1,0,1:0:0:0:
211,268,11654,5,8,0:0:0:0:
271,62,11809,1,8,0:0:0:0:
399,255,11963,1,8,0:0:0:0:
441,265,12041,1,8,0:0:0:0:
478,241,12118,1,8,0:0:0:0:
488,198,12195,1,8,0:0:0:0:
464,160,12273,6,0,P|395:168|295:191,1,135,6|0,1:2|2:0,0:0:0:0:
280,237,12582,2,0,P|251:180|267:146,1,90,10|0,0:0|0:0,0:0:0:0:
289,76,12814,1,8,0:0:0:0:
292,89,12891,1,2,1:2:0:0:
144,170,13046,1,2,1:2:0:0:
217,0,13201,1,8,0:0:0:0:
330,181,13355,6,0,P|371:185|413:151,1,90,6|0,1:2|0:0,0:0:0:0:
486,13,13664,2,0,P|442:37|423:91,1,90,2|8,1:2|0:0,0:0:0:0:
462,264,13974,1,2,0:0:0:0:
465,251,14051,1,8,0:0:0:0:
468,238,14128,1,2,1:2:0:0:
283,345,14283,1,2,1:2:0:0:
325,69,14438,2,0,B|332:91|364:109|364:109|331:147|330:215,1,135,10|0,0:0|2:0,0:0:0:0:
345,262,14747,5,14,0:2:0:0:
210,44,14902,1,0,1:0:0:0:
99,288,15056,1,10,0:0:0:0:
262,150,15211,1,0,1:0:0:0:
264,137,15289,1,0,1:0:0:0:
266,124,15366,1,10,0:0:0:0:
33,212,15520,1,2,1:2:0:0:
283,345,15675,1,8,3:0:0:0:
163,66,15829,6,0,P|130:19|10:23,1,180,6|8,1:2|0:0,0:0:0:0:
6,108,16216,1,0,1:0:0:0:
22,98,16293,2,0,P|55:108|67:115,1,45,0|0,1:0|1:0,0:0:0:0:
142,232,16448,2,0,P|162:222|184:216,1,45,0|0,1:0|1:0,0:0:0:0:
303,104,16603,1,8,3:0:0:0:
334,93,16680,1,8,3:0:0:0:
367,101,16757,1,8,3:0:0:0:
391,123,16834,1,8,3:0:0:0:
401,155,16912,1,8,0:0:0:0:
342,208,17067,1,0,1:0:0:0:
351,223,17221,6,0,B|278:229|292:181|211:192,1,135,2|0,0:0|0:0,0:0:0:0:
152,150,17840,1,2,0:0:0:0:
152,150,17994,1,2,0:0:0:0:
4,281,18304,6,0,P|35:269|79:307,1,90,2|2,0:0|0:0,0:0:0:0:
119,368,18768,2,0,P|142:363|165:354,1,45,2|2,0:0|0:0,0:0:0:0:
220,298,19077,2,0,L|226:248,2,45,2|2|2,0:0|0:0|0:0,0:0:0:0:
327,371,19695,5,0,0:0:0:0:
342,359,19850,2,0,P|378:353|396:298,1,90,2|2,0:0|0:0,0:0:0:0:
335,212,20469,1,2,0:0:0:0:
403,96,20778,6,0,B|447:84|447:84|481:126,1,90,2|2,0:0|0:0,0:0:0:0:
424,246,21242,1,2,0:0:0:0:
492,197,21396,1,2,0:0:0:0:
406,317,21551,1,2,0:0:0:0:
371,169,21706,2,0,P|344:165|308:219,1,90,2|2,0:0|0:0,0:0:0:0:
313,251,22092,1,2,0:0:0:0:
313,251,22170,6,0,P|276:227|232:235,1,67.5000025749208,2|2,1:2|0:0,0:0:0:0:
216,315,22479,1,2,1:2:0:0:
216,315,22634,2,0,B|145:324|167:268|85:281,1,135.000005149842,2|2,0:0|0:0,0:0:0:0:
8,354,23097,1,2,1:2:0:0:
86,298,23252,1,2,0:0:0:0:
13,172,23407,6,0,L|2:249,1,67.5000025749208,2|2,1:2|0:0,0:0:0:0:
131,180,23716,1,2,1:2:0:0:
56,39,23871,2,0,L|67:116,1,67.5000025749208,2|0,0:0|1:0,0:0:0:0:
257,135,24180,2,0,P|218:85|139:98,1,135.000005149842,2|2,0:0|0:0,0:0:0:0:
236,225,24644,5,2,1:2:0:0:
340,149,24799,2,0,P|360:142|414:170,1,67.5000025749208,2|0,0:0|1:0,0:0:0:0:
455,300,25108,1,2,1:2:0:0:
458,290,25185,1,0,1:0:0:0:
461,280,25262,1,0,1:0:0:0:
508,117,25417,1,2,1:2:0:0:
350,267,25572,1,8,0:0:0:0:
270,58,25726,6,0,L|366:40,1,90,6|0,1:2|0:0,0:0:0:0:
164,254,26036,1,10,0:0:0:0:
151,250,26113,1,0,1:0:0:0:
138,244,26190,2,0,P|106:252|79:258,1,45,0|0,1:0|1:0,0:0:0:0:
26,132,26345,2,0,P|58:140|85:146,1,45,0|0,1:0|1:0,0:0:0:0:
258,37,26500,1,8,3:0:0:0:
216,19,26577,1,8,3:0:0:0:
175,37,26654,1,4,3:0:0:0:
161,79,26731,1,4,3:0:0:0:
180,119,26809,5,8,0:0:0:0:
226,139,26886,1,8,0:0:0:0:
257,198,26963,1,8,0:0:0:0:
246,269,27041,1,8,0:0:0:0:
199,332,27118,6,0,P|131:319|44:309,1,121.499996292114,6|0,1:2|2:0,0:0:0:0:
0,287,27427,2,0,P|29:242|73:242,1,80.9999975280763,10|0,0:0|0:0,0:0:0:0:
141,203,27659,1,8,0:0:0:0:
136,214,27737,1,2,1:2:0:0:
75,334,27891,1,2,1:2:0:0:
11,149,28046,1,8,0:0:0:0:
221,226,28201,6,0,B|276:218|276:218|319:244|319:244|388:236,1,161.999995056153,6|2,1:2|1:2,0:0:0:0:
478,54,28664,1,10,0:0:0:0:
335,137,28819,1,0,0:0:0:0:
339,152,28896,1,8,0:0:0:0:
344,167,28974,1,2,1:2:0:0:
486,327,29128,1,0,1:0:0:0:
455,145,29283,2,0,L|438:256,1,80.9999975280763,10|0,0:0|0:0,0:0:0:0:
311,360,29592,5,4,1:2:0:0:
172,223,29747,2,0,P|212:205|268:219,1,80.9999975280763,2|8,0:0|0:0,0:0:0:0:
94,372,30056,1,2,0:0:0:0:
97,356,30134,1,8,0:0:0:0:
100,340,30211,1,2,1:2:0:0:
48,160,30366,1,0,1:0:0:0:
175,311,30520,1,10,0:0:0:0:
245,75,30675,6,0,B|201:87|160:108|160:108|117:84|131:46,1,161.999995056153,6|2,1:2|1:2,0:0:0:0:
322,98,31139,2,0,P|281:87|232:70,1,80.9999975280763,10|0,0:0|0:0,0:0:0:0:
196,0,31371,1,8,0:0:0:0:
200,15,31448,1,2,1:2:0:0:
136,193,31603,1,2,1:2:0:0:
330,169,31757,1,8,0:0:0:0:
237,174,31912,1,8,0:0:0:0:
233,189,31989,1,8,0:0:0:0:
230,205,32067,5,6,1:2:0:0:
332,337,32221,2,0,P|301:300|264:297,1,80.9999975280763,2|8,0:0|0:0,0:0:0:0:
76,353,32530,1,2,0:0:0:0:
91,357,32608,1,8,0:0:0:0:
106,360,32685,1,0,1:0:0:0:
180,301,32840,1,2,1:2:0:0:
0,377,32994,1,10,0:0:0:0:
37,181,33149,6,0,B|73:145|119:163|119:163|140:211|201:203,1,161.999995056153,6|2,1:2|1:2,0:0:0:0:
289,82,33613,1,10,0:0:0:0:
366,231,33768,1,2,0:0:0:0:
370,215,33845,1,8,0:0:0:0:
374,199,33922,1,0,1:0:0:0:
464,78,34077,1,2,1:2:0:0:
312,298,34231,2,0,P|270:302|246:213,1,121.499996292114,10|0,0:0|2:0,0:0:0:0:
334,312,34541,5,14,0:0:0:0:
191,366,34695,1,2,1:2:0:0:
416,341,34850,1,8,0:0:0:0:
148,208,35005,1,2,1:2:0:0:
143,223,35082,1,0,1:0:0:0:
146,238,35159,1,8,0:0:0:0:
330,151,35314,1,2,1:2:0:0:
121,73,35469,1,8,0:0:0:0:
357,232,35623,6,0,B|395:246|431:266|431:266|493:253|460:185,1,161.999995056153,6|0,1:2|1:0,0:0:0:0:
342,16,36087,2,0,P|308:38|303:87,1,80.9999975280763,12|0,0:0|0:0,0:0:0:0:
194,279,36396,5,8,3:0:0:0:
198,259,36500,1,8,3:0:0:0:
202,239,36603,1,8,3:0:0:0:
234,199,36706,5,6,3:0:0:0:
230,182,36809,1,4,3:0:0:0:
227,166,36912,1,4,3:0:0:0:
189,117,37015,6,0,L|201:44,2,67.5000025749208,6|2|2,1:2|0:0|1:2,0:0:0:0:
132,183,37479,2,0,P|95:199|60:185,1,67.5000025749208,2|0,0:0|1:0,0:0:0:0:
51,263,37788,2,0,P|13:248|-1:213,1,67.5000025749208,2|0,0:0|1:0,0:0:0:0:
26,46,38097,1,2,0:0:0:0:
25,56,38175,1,0,0:0:0:0:
23,65,38252,5,0,1:0:0:0:
93,119,38407,1,2,0:0:0:0:
239,36,38561,2,0,L|164:47,1,67.5000025749208,0|0,1:0|0:0,0:0:0:0:
274,167,38871,2,0,B|292:137|292:137|272:88,2,67.5000025749208,2|2|2,1:2|0:0|1:2,0:0:0:0:
131,276,39335,1,0,1:0:0:0:
147,280,39412,1,0,1:0:0:0:
163,285,39489,5,6,1:2:0:0:
222,342,39644,2,0,P|241:311|241:273,1,67.5000025749208,2|0,0:0|1:0,0:0:0:0:
162,149,39953,1,8,3:0:0:0:
159,169,40030,1,8,3:0:0:0:
168,186,40108,1,2,1:2:0:0:
308,221,40262,1,10,3:0:0:0:
242,280,40417,1,6,3:0:0:0:
318,133,40572,1,10,0:0:0:0:
344,130,40649,1,8,0:0:0:0:
363,149,40726,5,4,1:2:0:0:
399,227,40881,1,2,0:0:0:0:
477,105,41036,2,0,L|458:175,1,67.5000025749208,0|2,1:0|0:0,0:0:0:0:
492,339,41345,6,0,P|460:306|432:302,1,67.5000025749208,14|2,0:0|0:0,0:0:0:0:
399,227,41577,1,12,0:0:0:0:
390,240,41654,2,0,P|344:244|307:295,1,107.999996704102,12|12,0:0|0:0,0:0:0:0:
218,358,41963,6,0,L|83:331,2,125.999996154785,6|0|0,1:2|1:0|1:0,0:0:0:0:
281,310,42737,1,2,0:0:0:0:
193,226,42891,1,2,1:2:0:0:
245,161,43046,6,0,P|274:204|271:223,1,62.9999980773926,2|4,0:0|1:2,0:0:0:0:
161,139,43355,1,2,0:0:0:0:
246,35,43510,2,0,P|217:78|220:97,1,62.9999980773926,0|8,1:0|3:0,0:0:0:0:
383,177,43819,5,0,0:0:0:0:
461,154,43974,1,8,3:0:0:0:
438,76,44128,1,6,3:0:0:0:
360,99,44283,1,10,3:0:0:0:
348,104,44360,1,8,3:0:0:0:
336,109,44438,6,0,P|296:101|266:90,1,62.9999980773926,6|0,1:2|0:0,0:0:0:0:
109,172,44747,1,10,0:0:0:0:
186,85,44902,1,10,0:0:0:0:
231,238,45056,1,8,0:0:0:0:
82,86,45211,1,10,0:0:0:0:
33,338,45366,1,8,0:0:0:0:
229,157,45520,1,10,0:0:0:0:
329,349,45675,5,8,0:0:0:0:
343,354,45752,1,0,1:0:0:0:
358,351,45829,2,0,L|403:343,1,31.4999990386963,0|0,1:0|1:0,0:0:0:0:
474,278,45984,2,0,L|429:270,1,31.4999990386963,8|8,3:0|3:0,0:0:0:0:
312,200,46139,2,0,L|357:192,1,31.4999990386963,8|8,3:0|3:0,0:0:0:0:
475,88,46293,1,4,3:0:0:0:
459,67,46371,1,4,3:0:0:0:
432,57,46448,1,4,3:0:0:0:
400,61,46525,1,4,3:0:0:0:
373,88,46603,6,0,P|332:114|256:41,1,161.999995056153,14|0,0:0|2:0,0:0:0:0:
267,44,46912,6,0,L|276:99,1,53.9999983520508,6|2,1:2|0:0,0:0:0:0:
172,122,47221,2,0,L|181:177,1,53.9999983520508,2|2,1:2|1:2,0:0:0:0:
299,200,47530,2,0,L|308:255,1,53.9999983520508,0|2,1:0|0:0,0:0:0:0:
195,279,47839,2,0,L|204:334,1,53.9999983520508,0|2,1:0|1:2,0:0:0:0:
264,377,48072,1,0,1:0:0:0:
266,366,48149,5,0,1:0:0:0:
338,332,48304,1,2,0:0:0:0:
417,370,48458,2,0,L|479:381,1,53.9999983520508,0|0,1:0|1:0,0:0:0:0:
332,248,48768,2,0,L|394:259,1,53.9999983520508,2|2,1:2|1:2,0:0:0:0:
212,356,49077,2,0,L|274:367,1,53.9999983520508,2|2,1:2|1:2,0:0:0:0:
338,332,49309,1,0,1:0:0:0:
334,342,49386,5,0,1:0:0:0:
237,275,49541,1,2,1:2:0:0:
323,194,49695,2,0,L|333:257,1,53.9999983520508,0|0,1:0|0:0,0:0:0:0:
231,116,50005,1,2,1:2:0:0:
228,126,50082,1,0,1:0:0:0:
225,136,50159,1,2,1:2:0:0:
222,146,50237,1,0,1:0:0:0:
220,156,50314,1,2,1:2:0:0:
149,228,50469,6,0,L|128:136,1,90,10|0,0:0|1:0,0:0:0:0:
49,324,50778,2,0,L|29:224,1,90,10|0,0:0|1:0,0:0:0:0:
186,356,51087,6,0,P|237:361|266:319,1,90,14|0,0:0|0:0,0:0:0:0:
318,248,51396,2,0,L|325:217,2,30,8|8|8,3:0|3:0|3:0,0:0:0:0:
330,278,51551,5,8,3:0:0:0:
253,19,51706,1,8,0:0:0:0:
197,76,51860,6,0,P|179:72|41:27,1,161.999995056153,2|2,0:0|0:0,0:0:0:0:
13,141,52943,6,0,P|26:125|29:115,1,26.9999991760254,2|0,0:0|0:0,0:0:0:0:
13,217,53252,2,0,P|33:214|42:209,1,26.9999991760254,2|0,0:0|0:0,0:0:0:0:
112,255,53561,1,0,0:0:0:0:
123,266,53716,2,0,P|158:263|180:249,1,53.9999983520508,0|2,0:0|0:0,0:0:0:0:
215,189,54180,1,2,0:0:0:0:
423,329,54335,6,0,L|489:346,1,67.5000025749208,2|0,1:0|0:0,0:0:0:0:
417,39,54953,6,0,L|483:22,1,67.5000025749208,2|0,1:0|0:0,0:0:0:0:
235,358,55572,6,0,L|220:292,1,49.5000015106202,8|0,0:0|0:0,0:0:0:0:
262,242,55726,2,0,L|251:290,1,49.5000015106202,8|0,0:0|1:0,0:0:0:0:
104,208,55881,1,8,0:0:0:0:
111,173,55958,1,0,1:0:0:0:
144,144,56036,1,0,1:0:0:0:
187,135,56113,1,0,1:0:0:0:
239,158,56190,1,8,0:0:0:0:
416,38,56345,6,0,P|403:41|391:46,2,26.9999991760254,2|2|2,0:0|0:0|0:0,0:0:0:0:
498,184,56809,6,0,P|437:163|338:138,1,161.999995056153,6|0,1:2|2:0,0:0:0:0:
275,71,57118,2,0,P|250:85|240:160,1,107.999996704102,10|0,0:0|0:0,0:0:0:0:
284,238,57350,1,8,0:0:0:0:
290,217,57427,1,2,1:2:0:0:
115,282,57582,1,0,1:0:0:0:
321,384,57737,1,10,0:0:0:0:
154,100,57891,6,0,B|89:87|37:63|37:63|-23:85|11:144,1,215.999993408203,6|0,1:2|1:0,0:0:0:0:
115,282,58355,1,8,0:0:0:0:
237,76,58510,1,2,0:0:0:0:
245,95,58587,1,8,0:0:0:0:
242,116,58664,1,0,1:0:0:0:
197,214,58819,1,2,1:2:0:0:
327,18,58974,2,0,P|356:82|455:61,1,161.999995056153,10|0,0:0|2:0,0:0:0:0:
455,59,59283,5,6,1:2:0:0:
306,191,59438,1,2,0:0:0:0:
494,270,59592,1,10,0:0:0:0:
408,167,59747,1,2,0:0:0:0:
400,187,59824,1,8,0:0:0:0:
392,207,59902,1,2,1:2:0:0:
235,299,60056,1,2,1:2:0:0:
323,84,60211,1,10,0:0:0:0:
512,362,60366,6,0,B|451:393|404:342|434:324|367:269|297:321,1,215.999993408203,6|0,1:2|1:0,0:0:0:0:
49,334,60829,2,0,P|77:370|153:359,1,107.999996704102,10|0,0:0|0:0,0:0:0:0:
197,287,61061,1,8,0:0:0:0:
191,306,61139,1,2,1:2:0:0:
12,218,61293,1,0,1:0:0:0:
196,68,61448,1,10,0:0:0:0:
238,62,61525,1,8,0:0:0:0:
274,85,61603,1,8,0:0:0:0:
281,127,61680,1,8,0:0:0:0:
261,165,61757,6,0,P|188:143|88:116,1,161.999995056153,6|0,1:2|2:0,0:0:0:0:
50,45,62067,2,0,P|17:62|10:135,1,107.999996704102,10|0,0:0|0:0,0:0:0:0:
52,207,62299,1,8,0:0:0:0:
57,186,62376,1,2,1:2:0:0:
153,47,62530,1,2,1:2:0:0:
0,265,62685,1,10,0:0:0:0:
261,165,62840,6,0,B|315:187|313:251|313:251|331:188|400:192,1,215.999993408203,6|0,1:2|1:0,0:0:0:0:
512,73,63304,1,8,0:0:0:0:
480,316,63458,1,2,0:0:0:0:
485,294,63536,1,8,0:0:0:0:
475,274,63613,1,2,1:2:0:0:
348,85,63768,1,2,1:2:0:0:
401,368,63922,2,0,B|415:345|397:313|390:322|374:295|387:264,1,107.999996704102,10|0,0:0|1:0,0:0:0:0:
423,34,64231,5,14,0:0:0:0:
181,167,64386,1,2,1:2:0:0:
424,138,64541,5,10,0:0:0:0:
132,43,64695,1,2,1:2:0:0:
278,273,64850,5,10,0:0:0:0:
340,34,65005,1,2,1:2:0:0:
271,300,65159,1,10,0:0:0:0:
125,52,65314,6,0,B|104:6|49:-16|-3:26|-3:26|11:91|77:74,1,215.999993408203,4|8,1:2|0:0,0:0:0:0:
98,127,65701,1,0,1:0:0:0:
88,140,65778,2,0,P|70:163|71:203,1,53.9999983520508,0|0,1:0|1:0,0:0:0:0:
100,266,65933,2,0,P|116:290|154:301,1,53.9999983520508,0|0,1:0|1:0,0:0:0:0:
299,145,66087,1,8,3:0:0:0:
255,124,66164,1,8,3:0:0:0:
211,147,66242,1,10,3:0:0:0:
203,194,66319,1,8,3:0:0:0:
231,237,66396,2,0,B|258:244|258:244|258:247|258:247|290:256,1,53.9999983520508,10|8,0:0|0:0,0:0:0:0:
424,340,66551,2,0,B|397:347|397:347|397:350|397:350|365:359,1,53.9999983520508,10|8,0:0|0:0,0:0:0:0:
299,145,66706,6,0,B|330:99|377:121|377:121|399:168|450:162,1,161.999995056153,6|0,1:2|2:0,0:0:0:0:
451,77,67015,2,0,P|446:61|359:47,1,107.999996704102,10|0,0:0|0:0,0:0:0:0:
288,44,67247,1,8,0:0:0:0:
292,28,67324,1,2,1:2:0:0:
149,159,67479,1,0,1:0:0:0:
330,247,67634,1,10,0:0:0:0:
87,37,67788,6,0,B|57:72|26:92|26:92|60:144|78:244,1,215.999993408203,6|0,1:2|1:0,0:0:0:0:
174,366,68252,1,8,0:0:0:0:
239,194,68407,1,2,0:0:0:0:
243,209,68484,1,8,0:0:0:0:
236,223,68561,1,2,1:2:0:0:
33,328,68716,1,2,1:2:0:0:
155,149,68871,2,0,P|201:94|311:131,1,161.999995056153,10|0,0:0|2:0,0:0:0:0:
356,163,69180,5,6,1:2:0:0:
470,10,69335,1,2,0:0:0:0:
361,241,69489,1,10,0:0:0:0:
321,60,69644,1,2,0:0:0:0:
323,75,69721,1,8,0:0:0:0:
326,90,69799,1,2,1:2:0:0:
428,201,69953,1,2,1:2:0:0:
255,10,70108,1,10,0:0:0:0:
137,237,70262,6,0,B|186:256|239:285|239:285|314:256|255:167,1,215.999993408203,6|0,1:2|1:0,0:0:0:0:
31,260,70726,2,0,P|98:242|164:234,1,107.999996704102,10|0,0:0|0:0,0:0:0:0:
186,156,70958,1,8,0:0:0:0:
180,170,71036,1,2,1:2:0:0:
16,70,71190,1,2,1:2:0:0:
64,62,71268,1,0,1:0:0:0:
111,52,71345,1,8,0:0:0:0:
158,44,71422,1,8,0:0:0:0:
206,35,71500,1,8,0:0:0:0:
253,24,71577,1,8,0:0:0:0:
300,13,71654,6,0,P|373:35|465:75,1,161.999995056153,6|0,1:2|2:0,0:0:0:0:
512,127,71963,2,0,P|476:164|409:131,1,107.999996704102,8|0,0:0|1:0,0:0:0:0:
340,101,72195,1,0,1:0:0:0:
345,115,72273,2,0,P|355:157|359:173,1,53.9999983520508,10|0,0:2|1:0,0:0:0:0:
226,278,72427,2,0,P|232:251|238:225,1,53.9999983520508,10|8,3:0|3:0,0:0:0:0:
438,332,72582,2,0,P|444:358|450:384,1,53.9999983520508,10|8,3:0|3:0,0:0:0:0:
278,151,72737,6,0,B|172:106|189:219|44:147,1,215.999993408203,6|0,1:2|1:0,0:0:0:0:
205,42,73201,1,8,0:0:0:0:
51,321,73355,1,2,0:0:0:0:
53,304,73433,1,8,0:0:0:0:
55,288,73510,1,2,1:2:0:0:
237,225,73664,1,0,1:0:0:0:
52,52,73819,2,0,L|73:169,1,107.999996704102,10|0,0:0|1:0,0:0:0:0:
231,320,74128,5,14,0:0:0:0:
354,59,74283,1,2,1:2:0:0:
327,265,74438,5,10,0:0:0:0:
193,47,74592,1,2,1:2:0:0:
189,68,74670,1,0,0:0:0:0:
185,89,74747,1,10,0:0:0:0:
3,337,74902,1,8,0:0:0:0:
38,303,74979,1,8,0:0:0:0:
85,294,75056,1,10,0:0:0:0:
130,312,75134,1,8,0:0:0:0:
158,350,75211,6,0,P|221:339|334:335,1,161.999995056153,6|0,1:2|2:0,0:0:0:0:
386,366,75520,6,0,P|395:331|370:291,1,53.9999983520508,12|0,0:0|0:0,0:0:0:0:
469,234,75675,1,10,0:0:0:0:
325,111,75829,1,0,1:0:0:0:
293,101,75907,1,0,1:0:0:0:
259,119,75984,6,0,B|215:110|215:110|214:115|214:115|154:104,1,107.999996704102,8|2,0:0|0:0,0:0:0:0:
96,45,76216,6,0,B|51:80|51:80|85:142,1,107.999996704102,8|0,0:0|0:0,0:0:0:0:
158,216,76448,6,0,P|132:196|102:198,1,53.9999983520508,10|0,0:0|0:0,0:0:0:0:
49,335,76603,6,0,B|99:397|204:332|142:321|234:253|310:343,1,288,6|2,1:2|0:0,0:0:0:0:
303,336,77530,5,8,0:0:0:0:
176,99,77685,2,0,B|222:115|233:155|233:155|225:118|266:70,1,161.999995056153,6|0,1:2|2:0,0:0:0:0:
306,27,77994,6,0,P|361:23|386:103,1,125.999996154785,8|10,3:0|3:0,0:0:0:0:
340,149,78381,1,8,3:0:0:0:
338,132,78458,1,10,3:0:0:0:
422,201,78613,1,6,3:0:0:0:
256,298,78768,6,0,B|200:298|162:268|163:223|163:223|215:193|258:238,1,202.500007724762,14|0,0:0|2:0,0:0:0:0:
270,321,79077,5,6,1:2:0:0:
476,378,79231,1,10,0:0:0:0:
480,360,79309,1,8,0:0:0:0:
479,342,79386,2,0,B|483:314|483:314|480:313|480:313|484:284,1,58.4999973220826,10|8,1:2|0:0,0:0:0:0:
417,145,79541,2,0,B|420:171|420:171|417:172|417:172|421:200,1,58.4999973220826,10|8,0:0|0:0,0:0:0:0:
270,321,79695,1,10,1:2:0:0:
226,338,79773,1,8,0:0:0:0:
177,318,79850,1,8,0:0:0:0:
163,267,79927,1,8,0:0:0:0:
190,221,80005,2,0,P|189:182|180:145,1,58.4999973220826,10|8,1:2|0:0,0:0:0:0:
0,50,80159,6,0,B|48:105|107:77|107:77|130:0|249:30,1,233.999989288331,14|8,0:0|0:0,0:0:0:0:
257,78,80546,1,8,0:0:0:0:
267,61,80623,2,0,P|294:47|328:49,1,58.4999973220826,2|0,1:2|1:0,0:0:0:0:
403,87,80778,2,0,P|429:101|447:130,1,58.4999973220826,0|0,1:0|1:0,0:0:0:0:
376,288,80933,1,10,3:0:0:0:
326,304,81010,1,8,3:0:0:0:
279,279,81087,1,10,3:0:0:0:
270,227,81164,1,8,3:0:0:0:
306,188,81242,2,0,P|313:251|201:273,1,175.499991966248,12|0,0:0|2:0,0:0:0:0:
148,330,81551,6,0,P|133:258|89:111,1,215.999993408203,6|8,1:2|0:0,0:0:0:0:
15,2,82015,1,0,0:0:0:0:
9,17,82092,1,8,0:0:0:0:
13,32,82170,1,2,1:2:0:0:
199,116,82324,1,2,1:2:0:0:
27,197,82479,1,10,0:0:0:0:
234,40,82634,6,0,B|281:67|335:15|335:15|337:86|390:112,1,215.999993408203,6|0,1:2|1:0,0:0:0:0:
476,268,83097,1,8,0:0:0:0:
508,68,83252,1,2,0:0:0:0:
504,83,83329,1,8,0:0:0:0:
499,98,83407,1,2,1:2:0:0:
323,288,83561,1,0,1:0:0:0:
239,76,83716,1,10,0:0:0:0:
264,35,83793,1,8,0:0:0:0:
310,18,83871,1,8,0:0:0:0:
357,28,83948,1,8,0:0:0:0:
391,61,84025,5,14,0:0:0:0:
167,204,84180,1,2,1:2:0:0:
435,231,84335,5,10,0:0:0:0:
152,38,84489,1,10,0:0:0:0:
144,58,84567,1,8,0:0:0:0:
147,79,84644,5,10,0:0:0:0:
200,378,84799,1,8,0:0:0:0:
144,58,84953,1,8,0:0:0:0:
410,343,85108,6,0,B|435:283|383:199|296:190|296:190|353:214|353:262,1,315,6|0,1:2|0:0,0:0:0:0:
