osu file format v14

[General]
AudioFilename: audio.mp3
AudioLeadIn: 0
PreviewTime: 56345
Countdown: 0
SampleSet: Soft
StackLeniency: 0.4
Mode: 0
LetterboxInBreaks: 0
WidescreenStoryboard: 1

[Editor]
DistanceSpacing: 1.4
BeatDivisor: 4
GridSize: 32
TimelineZoom: 1.6

[Metadata]
Title:Gamushara (TV Size)
TitleUnicode:我武者羅 (TV Size)
Artist:CHiCO with HoneyWorks
ArtistUnicode:CHiCO with HoneyWorks
Creator:Aakki
Version:Hard
Source:BORUTO-ボルト- NARUTO NEXT GENERATIONS
Tags:anime pop j-pop jpop rock j-rock jrock japanese opening uzumaki boruto naruto uchiha sasuke kuki1537 a_r_m_i_n shirahane suou armin
BeatmapID:3098186
BeatmapSetID:1513125

[Difficulty]
HPDrainRate:4
CircleSize:3.7
OverallDifficulty:6.5
ApproachRate:8
SliderMultiplier:1.3
SliderTickRate:1

[Events]
//Background and Video events
0,0,"when the bns are sus.jpg",0,0
Video,-316,"very sus bns man.mp4"
//Break Periods
2,17421,21420
2,52060,53585
//Storyboard Layer 0 (Background)
//Storyboard Layer 1 (Fail)
//Storyboard Layer 2 (Pass)
//Storyboard Layer 3 (Foreground)
//Storyboard Layer 4 (Overlay)
//Storyboard Sound Samples

[TimingPoints]
-112,309.278350515464,4,2,1,70,1,0
197,-100,4,2,1,40,0,0
1125,-133.333333333333,4,2,1,40,0,0
9645,309.278350515464,4,2,1,70,1,0
9799,309.278350515464,4,2,1,70,1,0
9799,-125,4,2,1,70,0,0
12273,-100,4,2,1,70,0,0
17221,-125,4,2,1,50,0,0
22170,-125,4,2,1,60,0,0
26190,-100,4,2,1,60,0,0
27118,-111.111111111111,4,2,1,70,0,0
37015,-125,4,2,1,60,0,0
46912,-133.333333333333,4,2,1,55,0,0
51860,-133.333333333333,4,2,1,45,0,0
54335,-105.263157894737,4,2,1,75,0,0
56345,-125,4,2,1,75,0,0
56809,-100,4,2,1,85,0,1
76603,-125,4,2,1,70,0,0
79077,-100,4,2,1,70,0,0
81551,-100,4,2,1,85,0,1
85108,-111.111111111111,4,2,1,85,0,0

[Colours]
Combo1 : 168,168,255
Combo2 : 255,138,21
Combo3 : 255,91,91
Combo4 : 255,255,83

[HitObjects]
59,90,1125,6,0,P|88:68|160:68,1,97.50000371933,2|2,0:0|0:0,0:0:0:0:
263,167,1743,2,0,L|364:151,1,97.50000371933,2|2,0:0|0:0,0:0:0:0:
423,104,2207,1,2,0:0:0:0:
510,365,2826,6,0,P|457:349|411:339,1,97.50000371933,2|2,0:0|0:0,0:0:0:0:
346,292,3290,1,2,0:0:0:0:
210,357,3599,2,0,L|263:367,2,48.750001859665,2|2|2,0:0|0:0|0:0,0:0:0:0:
147,312,4063,1,2,0:0:0:0:
147,312,4217,2,0,P|138:274|146:204,1,97.50000371933,2|2,0:0|0:0,0:0:0:0:
190,152,4681,1,2,0:0:0:0:
391,175,5145,6,0,P|421:177|453:124,2,97.50000371933,2|2|2,0:0|0:0|0:0,0:0:0:0:
295,80,6073,6,0,L|196:64,1,97.50000371933,2|2,0:0|0:0,0:0:0:0:
168,192,6692,2,0,L|71:207,1,97.50000371933,2|2,0:0|0:0,0:0:0:0:
3,253,7156,2,0,P|27:277|102:283,1,97.50000371933,2|0,0:0|0:0,0:0:0:0:
216,335,7774,1,2,0:0:0:0:
268,274,7929,2,0,P|307:288|321:303,2,48.750001859665,2|2|2,0:0|0:0|0:0,0:0:0:0:
177,166,8547,5,2,0:0:0:0:
177,166,9799,5,8,0:0:0:0:
154,80,9953,1,8,0:0:0:0:
316,180,10262,6,0,P|357:190|406:136,1,104,2|0,0:0|0:0,0:0:0:0:
375,78,10726,2,0,P|334:68|285:122,1,104,2|0,0:0|0:0,0:0:0:0:
243,206,11190,2,0,P|206:240|156:232,1,104,2|2,0:0|1:2,0:0:0:0:
87,176,11654,1,8,0:0:0:0:
153,126,11809,1,8,0:0:0:0:
80,80,11963,2,0,P|80:67|76:54,3,26,8|8|8|8,0:0|0:0|0:0|0:0,0:0:0:0:
100,27,12273,6,0,P|143:8|177:16,1,65,6|0,1:2|0:0,0:0:0:0:
233,62,12582,2,0,B|304:44|289:82|364:66,1,130,10|2,0:0|1:2,0:0:0:0:
460,16,13046,2,0,P|437:44|436:78,1,65,2|8,1:2|0:0,0:0:0:0:
512,143,13355,6,0,L|378:166,1,130,6|2,1:2|1:2,0:0:0:0:
338,234,13819,1,8,0:0:0:0:
338,234,13974,1,2,0:0:0:0:
265,190,14128,2,0,P|231:176|190:183,1,65,2|2,1:2|1:2,0:0:0:0:
154,240,14438,1,10,0:0:0:0:
28,78,14747,6,0,P|64:104|72:132,1,65,14|0,0:2|1:0,0:0:0:0:
145,87,15056,2,0,P|152:130|137:156,1,65,10|0,0:0|1:0,0:0:0:0:
73,218,15366,1,10,0:0:0:0:
73,218,15520,1,2,1:2:0:0:
112,293,15675,1,8,3:0:0:0:
203,273,15829,6,0,B|275:261|262:308|339:283,1,130,6|8,1:2|0:0,0:0:0:0:
376,214,16293,1,0,1:0:0:0:
376,214,16448,1,0,1:0:0:0:
450,256,16603,2,0,L|489:263,3,32.5,8|8|8|8,3:0|3:0|3:0|3:0,0:0:0:0:
509,286,16912,1,8,0:0:0:0:
413,364,17221,5,2,0:0:0:0:
413,364,22170,6,0,P|378:340|308:355,1,104,2|2,1:2|1:2,0:0:0:0:
246,361,22634,1,2,0:0:0:0:
156,280,22943,2,0,P|160:238|171:221,2,52,2|2|2,0:0|1:2|0:0,0:0:0:0:
109,346,23407,5,2,1:2:0:0:
12,246,23716,1,2,1:2:0:0:
63,188,23871,2,0,P|79:143|87:79,1,104,2|2,0:0|0:0,0:0:0:0:
66,16,24335,1,0,1:0:0:0:
197,75,24644,6,0,B|250:93|250:93|307:53,1,104,2|0,1:2|1:0,0:0:0:0:
355,19,25108,2,0,B|394:46|394:46|447:28,1,104,2|2,1:2|1:2,0:0:0:0:
501,102,25572,1,8,0:0:0:0:
501,102,25726,5,6,1:2:0:0:
386,172,26036,1,10,0:0:0:0:
386,172,26190,2,0,L|397:229,3,32.5,0|0|0|0,1:0|1:0|1:0|1:0,0:0:0:0:
366,230,26500,2,0,L|355:287,3,32.5,8|8|4|4,3:0|3:0|3:0|3:0,0:0:0:0:
390,280,26809,2,0,L|401:337,3,32.5,8|8|8|8,0:0|0:0|0:0|0:0,0:0:0:0:
422,330,27118,6,0,P|468:343|512:282,1,116.999996429443,6|10,1:2|0:0,0:0:0:0:
490,164,27737,2,0,P|482:132|480:99,1,58.4999982147217,2|2,1:2|1:2,0:0:0:0:
492,28,28046,1,8,0:0:0:0:
492,28,28201,6,0,B|365:16|508:38|358:25,1,116.999996429443,6|2,1:2|1:2,0:0:0:0:
306,7,28664,2,0,P|270:6|227:76,1,116.999996429443,10|2,0:0|1:2,0:0:0:0:
274,147,29128,1,0,1:0:0:0:
274,147,29283,1,10,0:0:0:0:
185,266,29592,5,4,1:2:0:0:
112,300,29747,2,0,P|102:255|148:192,1,116.999996429443,2|2,0:0|0:0,0:0:0:0:
255,227,30211,2,0,P|265:272|219:335,1,116.999996429443,2|10,1:2|0:0,0:0:0:0:
302,376,30675,6,0,P|342:383|390:318,1,116.999996429443,6|2,1:2|1:2,0:0:0:0:
434,264,31139,2,0,P|423:228|424:204,1,58.4999982147217,10|0,0:0|0:0,0:0:0:0:
459,127,31448,1,2,1:2:0:0:
459,127,31603,2,0,P|400:132|343:152,1,116.999996429443,2|8,1:2|0:0,0:0:0:0:
267,104,32067,5,6,1:2:0:0:
195,161,32221,2,0,P|164:162|141:140,1,58.4999982147217,2|8,0:0|0:0,0:0:0:0:
109,58,32530,2,0,P|74:84|54:163,1,116.999996429443,2|2,0:0|1:2,0:0:0:0:
8,217,32994,1,10,0:0:0:0:
8,217,33149,5,6,1:2:0:0:
72,322,33458,1,2,1:2:0:0:
72,322,33613,1,10,0:0:0:0:
126,253,33768,2,0,B|161:242|194:272|232:260|254:279,1,116.999996429443,2|2,0:0|1:2,0:0:0:0:
301,324,34231,2,0,P|331:328|353:306,1,58.4999982147217,10|0,0:0|0:0,0:0:0:0:
375,232,34541,5,14,0:0:0:0:
375,232,34695,1,2,1:2:0:0:
313,166,34850,1,8,0:0:0:0:
375,98,35005,2,0,P|409:81|488:129,1,116.999996429443,2|2,1:2|1:2,0:0:0:0:
469,306,35623,6,0,B|405:293|415:333|342:315,1,116.999996429443,6|0,1:2|1:0,0:0:0:0:
288,272,36087,2,0,P|253:264|221:278,1,58.4999982147217,12|0,0:0|0:0,0:0:0:0:
151,307,36396,2,0,L|155:261,2,38.9999988098145,8|8|8,3:0|3:0|3:0,0:0:0:0:
103,334,36706,1,6,3:0:0:0:
6,144,37015,6,0,P|49:163|123:82,1,156,6|2,1:2|0:0,0:0:0:0:
234,13,37788,1,2,0:0:0:0:
342,114,38097,2,0,P|377:121|427:66,1,104,2|2,0:0|0:0,0:0:0:0:
459,232,38871,6,0,P|468:176|471:167,2,52,2|2|2,1:2|0:0|1:2,0:0:0:0:
391,286,39335,1,0,1:0:0:0:
441,356,39489,1,6,1:2:0:0:
369,275,39644,2,0,P|336:260|268:308,1,104,2|8,0:0|3:0,0:0:0:0:
209,358,40108,2,0,L|264:374,2,52,2|10|6,1:2|3:0|3:0,0:0:0:0:
143,305,40572,5,10,0:0:0:0:
16,364,40881,1,2,0:0:0:0:
32,229,41190,1,2,0:0:0:0:
111,176,41345,2,0,L|96:94,2,78,14|12|12,0:0|0:0|0:0,0:0:0:0:
173,229,41963,6,0,P|285:252|445:273,1,260,6|2,1:2|0:0,0:0:0:0:
475,208,42891,1,2,1:2:0:0:
405,154,43046,2,0,P|426:109|396:69,1,104,2|2,0:0|0:0,0:0:0:0:
230,344,44128,6,0,P|226:304|219:293,1,52,6|10,3:0|3:0,0:0:0:0:
156,243,44438,2,0,P|197:256|250:200,1,104,6|10,1:2|0:0,0:0:0:0:
233,130,44902,2,0,L|291:139,1,52,10|8,0:0|0:0,0:0:0:0:
364,182,45211,2,0,L|415:174,1,52,10|8,0:0|0:0,0:0:0:0:
477,119,45520,1,10,0:0:0:0:
437,58,45675,6,0,L|402:51,3,26,8|0|0|0,0:0|1:0|1:0|1:0,0:0:0:0:
379,31,45984,2,0,L|353:35,3,26,8|8|8|8,3:0|3:0|3:0|3:0,0:0:0:0:
323,57,46293,2,0,L|297:52,3,26,4|4|4|4,3:0|3:0|3:0|3:0,0:0:0:0:
258,42,46603,1,14,0:0:0:0:
141,151,46912,6,0,L|151:213,2,48.750001859665,6|2|2,1:2|0:0|1:2,0:0:0:0:
71,104,47376,2,0,P|44:118|20:183,1,97.50000371933,2|2,1:2|0:0,0:0:0:0:
64,308,47994,2,0,P|106:329|159:309,1,97.50000371933,2|2,1:2|0:0,0:0:0:0:
210,257,48458,1,0,1:0:0:0:
335,317,48768,2,0,L|345:372,2,48.750001859665,2|2|2,1:2|1:2|1:2,0:0:0:0:
306,229,49231,6,0,P|345:209|410:218,1,97.50000371933,2|2,1:2|1:2,0:0:0:0:
484,109,50005,2,0,P|494:74|505:58,2,48.750001859665,2|2|2,1:2|1:2|1:2,0:0:0:0:
421,165,50469,2,0,P|381:163|367:148,1,48.750001859665,10|0,0:0|1:0,0:0:0:0:
322,98,50778,1,10,0:0:0:0:
157,151,51087,1,14,0:0:0:0:
194,236,51242,2,0,P|198:269|183:300,1,48.750001859665,0|8,0:0|3:0,0:0:0:0:
116,336,51551,1,8,3:0:0:0:
116,336,51706,1,8,0:0:0:0:
50,283,51860,5,2,0:0:0:0:
50,283,54335,5,2,1:0:0:0:
254,253,54953,1,2,1:0:0:0:
443,220,55572,2,0,L|450:173,3,30.8749991755486,8|0|8|0,0:0|0:0|0:0|1:0,0:0:0:0:
412,163,55881,2,0,L|419:116,3,30.8749991755486,8|0|0|0,0:0|1:0|1:0|1:0,0:0:0:0:
395,94,56190,1,8,0:0:0:0:
102,139,56809,6,0,P|86:99|161:42,1,130,6|10,1:2|0:0,0:0:0:0:
223,74,57273,1,0,0:0:0:0:
223,74,57350,1,8,0:0:0:0:
223,74,57427,2,0,L|291:62,1,65,2|0,1:2|1:0,0:0:0:0:
357,110,57737,1,10,0:0:0:0:
336,188,57891,6,0,B|266:168|270:227|190:195,1,130,6|0,1:2|1:0,0:0:0:0:
142,167,58355,1,8,0:0:0:0:
82,232,58510,2,0,B|22:214|22:214|-7:277,1,130,2|2,0:0|1:2,0:0:0:0:
12,352,58974,1,10,0:0:0:0:
191,322,59283,6,0,P|229:313|246:285,1,65,6|2,1:2|0:0,0:0:0:0:
269,216,59592,1,10,0:0:0:0:
353,260,59747,1,2,0:0:0:0:
353,260,59824,1,8,0:0:0:0:
353,260,59902,2,0,L|418:271,1,65,2|2,1:2|1:2,0:0:0:0:
487,226,60211,1,10,0:0:0:0:
430,161,60366,6,0,P|410:113|408:29,1,130,6|0,1:2|1:0,0:0:0:0:
320,66,60829,2,0,P|312:106|302:136,1,65,10|0,0:0|0:0,0:0:0:0:
231,185,61139,2,0,B|167:174|201:118|127:115,1,130,2|10,1:2|0:0,0:0:0:0:
40,158,61603,1,8,0:0:0:0:
40,158,61680,1,8,0:0:0:0:
40,158,61757,6,0,L|52:293,1,130,6|10,1:2|0:0,0:0:0:0:
126,345,62221,1,0,0:0:0:0:
126,345,62299,1,8,0:0:0:0:
126,345,62376,2,0,P|158:319|170:279,1,65,2|2,1:2|1:2,0:0:0:0:
158,217,62685,1,10,0:0:0:0:
235,171,62840,6,0,B|230:87|191:116|198:39,1,130,6|0,1:2|1:0,0:0:0:0:
263,0,63304,1,8,0:0:0:0:
315,66,63458,1,2,0:0:0:0:
395,37,63613,2,0,P|447:22|479:34,1,65,2|2,1:2|1:2,0:0:0:0:
468,116,63922,1,10,0:0:0:0:
461,292,64231,6,0,P|456:257|421:231,1,65,14|2,0:0|1:2,0:0:0:0:
352,216,64541,2,0,P|318:225|297:264,1,65,10|2,0:0|1:2,0:0:0:0:
277,340,64850,1,10,0:0:0:0:
191,359,65005,1,2,1:2:0:0:
129,294,65159,1,10,0:0:0:0:
16,330,65314,6,0,P|49:263|46:194,1,130,4|8,1:2|0:0,0:0:0:0:
13,110,65778,2,0,L|49:103,3,32.5,0|0|0|0,1:0|1:0|1:0|1:0,0:0:0:0:
85,81,66087,2,0,L|116:87,3,32.5,8|8|10|8,3:0|3:0|3:0|3:0,0:0:0:0:
157,108,66396,2,0,L|188:101,3,32.5,10|8|10|8,0:0|0:0|0:0|0:0,0:0:0:0:
228,76,66706,6,0,B|291:70|265:18|354:18,1,130,6|10,1:2|0:0,0:0:0:0:
417,75,67170,1,0,0:0:0:0:
417,75,67247,1,8,0:0:0:0:
417,75,67324,2,0,P|409:112|403:145,1,65,2|0,1:2|1:0,0:0:0:0:
430,222,67634,1,10,0:0:0:0:
490,294,67788,6,0,P|435:314|366:289,1,130,6|0,1:2|1:0,0:0:0:0:
312,236,68252,1,8,0:0:0:0:
256,177,68407,2,0,P|196:154|135:175,1,130,2|2,0:0|1:2,0:0:0:0:
72,238,68871,1,10,0:0:0:0:
227,374,69180,6,0,L|243:305,1,65,6|2,1:2|0:0,0:0:0:0:
326,299,69489,2,0,L|310:230,1,65,10|2,0:0|0:0,0:0:0:0:
243,178,69799,1,2,1:2:0:0:
299,120,69953,1,2,1:2:0:0:
244,54,70108,1,10,0:0:0:0:
317,5,70262,6,0,B|400:4|366:34|460:33,1,130,6|0,1:2|1:0,0:0:0:0:
475,122,70726,2,0,P|455:162|461:194,1,65,10|0,0:0|0:0,0:0:0:0:
398,250,71036,1,2,1:2:0:0:
452,333,71190,1,2,1:2:0:0:
452,333,71268,1,0,1:0:0:0:
452,333,71345,2,0,L|460:371,3,32.5,8|8|8|8,0:0|0:0|0:0|0:0,0:0:0:0:
420,383,71654,6,0,P|374:383|336:311,1,130,6|8,1:2|0:0,0:0:0:0:
302,228,72118,1,0,1:0:0:0:
302,228,72195,1,0,1:0:0:0:
302,228,72273,2,0,L|314:189,3,32.5,10|0|10|8,0:2|1:0|3:0|3:0,0:0:0:0:
307,151,72582,1,10,3:0:0:0:
221,87,72737,6,0,P|181:71|122:137,1,130,6|0,1:2|1:0,0:0:0:0:
79,198,73201,1,8,0:0:0:0:
136,263,73355,1,2,0:0:0:0:
81,330,73510,2,0,P|126:348|208:317,1,130,2|10,1:2|0:0,0:0:0:0:
285,210,74128,6,0,L|369:228,1,65,14|2,0:0|1:2,0:0:0:0:
385,149,74438,2,0,L|448:135,1,65,10|2,0:0|1:2,0:0:0:0:
495,58,74747,1,10,0:0:0:0:
416,20,74902,2,0,L|377:12,3,32.5,8|8|10|8,0:0|0:0|0:0|0:0,0:0:0:0:
345,37,75211,5,6,1:2:0:0:
227,121,75520,1,12,0:0:0:0:
164,68,75675,2,0,P|144:105|147:143,1,65,12|0,0:0|1:0,0:0:0:0:
193,194,75984,2,0,P|241:199|290:170,2,97.5,8|8|10,0:0|0:0|0:0,0:0:0:0:
127,254,76603,5,6,1:2:0:0:
127,254,77530,1,8,0:0:0:0:
200,298,77685,2,0,P|254:302|293:265,1,104,6|8,1:2|3:0,0:0:0:0:
373,137,78304,2,0,L|383:107,2,26,10|8|10,3:0|3:0|3:0,0:0:0:0:
394,218,78613,1,6,3:0:0:0:
463,168,78768,1,14,0:0:0:0:
366,297,79077,5,6,1:2:0:0:
303,243,79231,1,10,0:0:0:0:
303,243,79309,1,8,0:0:0:0:
303,243,79386,2,0,L|309:206,3,32.5,10|8|10|8,1:2|0:0|0:0|0:0,0:0:0:0:
276,177,79695,2,0,L|270:140,3,32.5,10|8|8|8,1:2|0:0|0:0|0:0,0:0:0:0:
253,101,80005,1,10,1:2:0:0:
165,151,80159,6,0,P|126:167|63:108,1,130,14|8,0:0|0:0,0:0:0:0:
166,40,80623,1,2,1:2:0:0:
166,40,80701,1,0,1:0:0:0:
166,40,80778,1,0,1:0:0:0:
257,87,80933,1,10,3:0:0:0:
329,24,81087,2,0,P|385:24|422:98,1,130,10|0,3:0|0:0,0:0:0:0:
502,135,81551,6,0,P|471:117|422:183,1,130,6|8,1:2|0:0,0:0:0:0:
408,270,82015,1,0,0:0:0:0:
408,270,82092,1,8,0:0:0:0:
408,270,82170,2,0,L|340:261,1,65,2|2,1:2|1:2,0:0:0:0:
291,189,82479,1,10,0:0:0:0:
232,268,82634,6,0,B|163:273|196:322|110:334,1,130,6|0,1:2|1:0,0:0:0:0:
39,299,83097,1,8,0:0:0:0:
89,241,83252,1,2,0:0:0:0:
34,174,83407,2,0,P|29:114|14:36,1,130,2|10,1:2|0:0,0:0:0:0:
121,86,83871,1,8,0:0:0:0:
121,86,83948,1,8,0:0:0:0:
121,86,84025,6,0,P|167:57|193:57,1,65,14|2,0:0|1:2,0:0:0:0:
249,104,84335,1,10,0:0:0:0:
314,52,84489,1,10,0:0:0:0:
314,52,84567,1,8,0:0:0:0:
314,52,84644,2,0,L|383:35,1,65,10|8,0:0|0:0,0:0:0:0:
467,85,84953,1,8,0:0:0:0:
470,175,85108,6,0,B|290:220|420:298|214:331,1,292.499991073609,6|0,1:2|0:0,0:0:0:0:
