osu file format v14

[General]
AudioFilename: audio.mp3
AudioLeadIn: 0
PreviewTime: 56345
Countdown: 0
SampleSet: Soft
StackLeniency: 0.4
Mode: 0
LetterboxInBreaks: 0
WidescreenStoryboard: 1

[Editor]
DistanceSpacing: 0.3
BeatDivisor: 4
GridSize: 4
TimelineZoom: 1.6

[Metadata]
Title:Gamushara (TV Size)
TitleUnicode:我武者羅 (TV Size)
Artist:CHiCO with HoneyWorks
ArtistUnicode:CHiCO with HoneyWorks
Creator:Aakki
Version:A r M i N's Extra
Source:BORUTO-ボルト- NARUTO NEXT GENERATIONS
Tags:anime pop j-pop jpop rock j-rock jrock japanese opening uzumaki boruto naruto uchiha sasuke kuki1537 a_r_m_i_n shirahane suou armin
BeatmapID:3102022
BeatmapSetID:1513125

[Difficulty]
HPDrainRate:5.4
CircleSize:3.6
OverallDifficulty:9
ApproachRate:9.2
SliderMultiplier:1.8
SliderTickRate:1

[Events]
//Background and Video events
0,0,"when the bns are sus.jpg",0,0
Video,-316,"very sus bns man.mp4"
//Break Periods
2,51906,53765
//Storyboard Layer 0 (Background)
//Storyboard Layer 1 (Fail)
//Storyboard Layer 2 (Pass)
//Storyboard Layer 3 (Foreground)
//Storyboard Layer 4 (Overlay)
//Storyboard Sound Samples

[TimingPoints]
-112,309.278350515464,4,2,1,70,1,0
197,-100,4,2,1,40,0,0
506,-125,4,2,1,40,0,0
9645,309.278350515464,4,2,1,70,1,0
9645,-125,4,2,1,70,0,0
9799,309.278350515464,4,2,1,70,1,0
9799,-125,4,2,1,70,0,0
11654,-100,4,2,1,70,0,0
17221,-125,4,2,1,50,0,0
22170,-111.111111111111,4,2,1,60,0,0
27118,-100,4,2,1,70,0,0
36318,-100,4,2,1,5,0,0
36396,-100,4,2,1,70,0,0
37015,-111.111111111111,4,2,1,60,0,0
46834,-111.111111111111,4,2,1,5,0,0
46912,-111.111111111111,4,2,1,55,0,0
51860,-125,4,2,1,45,0,0
54335,-66.6666666666667,4,2,1,75,0,0
54412,-66.6666666666667,4,2,1,5,0,0
54953,-66.6666666666667,4,2,1,75,0,0
55030,-66.6666666666667,4,2,1,5,0,0
55572,-100,4,2,1,75,0,0
56809,-90.9090909090909,4,2,1,85,0,1
75442,-90.9090909090909,4,2,1,5,0,1
75520,-90.9090909090909,4,2,1,85,0,1
76370,-90.9090909090909,4,2,1,5,0,1
76448,-90.9090909090909,4,2,1,85,0,1
76603,-166.666666666667,4,2,1,70,0,0
77916,-166.666666666667,4,2,1,5,0,0
77994,-125,4,2,1,70,0,0
78768,-100,4,2,1,70,0,0
78999,-100,4,2,1,5,0,0
79077,-100,4,2,1,70,0,0
81473,-100,4,2,1,5,0,0
81551,-90.9090909090909,4,2,1,85,0,1
85108,-166.666666666667,4,2,1,85,0,0

[Colours]
Combo1 : 87,108,157
Combo2 : 235,136,46
Combo3 : 143,151,184
Combo4 : 231,48,66

[HitObjects]
168,183,661,6,0,L|155:253,2,72,2|2|2,0:0|0:0|0:0,0:0:0:0:
113,98,1125,6,0,P|84:84|34:82,1,72,2|0,0:0|0:0,0:0:0:0:
214,92,1434,2,0,P|243:106|293:108,1,72,2|0,0:0|0:0,0:0:0:0:
413,0,1743,2,0,P|383:20|363:50,1,72,2|0,0:0|0:0,0:0:0:0:
373,152,2052,1,2,0:0:0:0:
272,9,2207,6,0,P|179:-3|114:90,1,216,2|0,0:0|0:0,0:0:0:0:
188,233,2826,2,0,L|213:91,1,144,2|2,0:0|0:0,0:0:0:0:
364,51,3290,2,0,L|376:121,1,72,2|0,0:0|0:0,0:0:0:0:
506,233,3599,6,0,P|485:203|456:182,1,72,2|2,0:0|0:0,0:0:0:0:
296,240,3908,2,0,P|331:237|364:222,1,72,2|2,0:0|0:0,0:0:0:0:
216,181,4217,1,2,0:0:0:0:
205,282,4372,1,2,0:0:0:0:
308,140,4527,1,2,0:0:0:0:
285,341,4681,6,0,P|228:381|158:371,1,144,2|0,0:0|0:0,0:0:0:0:
92,215,5145,2,0,L|105:286,1,72,2|0,0:0|0:0,0:0:0:0:
158,138,5455,2,0,P|127:119|91:113,1,72,2|0,0:0|0:0,0:0:0:0:
192,234,5764,2,0,P|223:216|246:189,1,72,2|0,0:0|0:0,0:0:0:0:
364,51,6073,6,0,L|376:121,1,72,2|0,0:0|0:0,0:0:0:0:
418,277,6382,2,0,L|431:207,1,72,2|0,0:0|0:0,0:0:0:0:
330,326,6692,2,0,P|352:354|382:372,1,72,2|2,0:0|0:0,0:0:0:0:
332,225,7001,1,2,0:0:0:0:
234,356,7156,6,0,B|123:383|139:292|29:319,1,216,2|0,0:0|0:0,0:0:0:0:
152,217,7774,1,2,0:0:0:0:
152,217,7929,2,0,P|149:181|134:148,1,72,2|2,0:0|0:0,0:0:0:0:
12,46,8238,2,0,L|0:116,1,72,2|0,0:0|0:0,0:0:0:0:
440,119,9645,6,0,L|433:154,1,36,2|0,1:2|1:0,0:0:0:0:
398,384,9799,1,8,0:0:0:0:
263,185,9953,2,0,L|334:173,1,72,8|0,0:0|0:0,0:0:0:0:
186,121,10262,1,2,0:0:0:0:
186,121,10417,2,0,P|167:151|162:187,1,72
283,85,10726,1,2,0:0:0:0:
283,85,10881,2,0,P|265:53|237:31,1,72
27,8,11190,1,2,0:0:0:0:
27,8,11345,2,0,L|98:20,1,72,0|2,0:0|1:2,0:0:0:0:
137,31,11577,1,0,1:0:0:0:
137,31,11654,5,8,0:0:0:0:
45,233,11809,1,8,0:0:0:0:
246,127,11963,1,8,0:0:0:0:
240,161,12040,1,8,0:0:0:0:
235,194,12117,1,8,0:0:0:0:
229,227,12194,1,8,0:0:0:0:
224,261,12273,6,0,P|182:276|137:272,1,90,6|0,1:2|0:0,0:0:0:0:
187,45,12582,2,0,L|275:30,1,90,10|0,0:0|0:0,0:0:0:0:
314,26,12814,1,8,0:0:0:0:
314,26,12891,1,2,1:2:0:0:
447,196,13046,1,2,1:2:0:0:
246,127,13201,1,8,0:0:0:0:
415,17,13355,6,0,L|400:105,1,90,6|0,1:2|0:0,0:0:0:0:
164,186,13664,2,0,L|149:97,1,90,2|8,1:2|0:0,0:0:0:0:
297,226,13974,1,2,0:0:0:0:
297,226,14051,1,8,0:0:0:0:
297,226,14128,1,2,1:2:0:0:
68,157,14283,1,2,1:2:0:0:
260,38,14438,2,0,L|246:127,1,90,10|0,0:0|0:0,0:0:0:0:
342,344,14747,5,14,0:2:0:0:
164,186,14902,1,0,1:0:0:0:
392,255,15056,2,0,L|407:167,1,90,10|0,0:0|1:0,0:0:0:0:
418,135,15288,1,0,1:0:0:0:
418,135,15366,1,10,0:0:0:0:
261,285,15520,1,2,1:2:0:0:
489,226,15675,1,8,3:0:0:0:
296,108,15829,6,0,L|311:197,1,90,6|0,1:2|0:0,0:0:0:0:
137,332,16139,1,8,0:0:0:0:
124,300,16216,1,0,1:0:0:0:
126,267,16293,1,0,1:0:0:0:
142,237,16370,1,0,1:0:0:0:
168,217,16448,6,0,L|212:224,1,45,0|0,1:0|1:0,0:0:0:0:
96,146,16603,2,0,L|51:138,1,45,8|8,3:0|3:0,0:0:0:0:
200,73,16757,2,0,L|192:117,1,45,8|8,3:0|3:0,0:0:0:0:
103,45,16912,2,0,L|110:0,1,45,8|8,0:0|0:0,0:0:0:0:
270,0,17067,1,0,1:0:0:0:
270,0,17221,6,0,P|291:28|300:63,1,72,2|0,0:0|0:0,0:0:0:0:
419,130,17530,2,0,P|428:95|449:66,1,72,2|0,0:0|0:0,0:0:0:0:
324,162,17840,1,2,0:0:0:0:
398,230,17994,2,0,L|468:218,1,72,2|0,0:0|0:0,0:0:0:0:
333,307,18304,6,0,B|264:295|264:295|261:297|261:297|191:283,1,144,2|2,0:0|0:0,0:0:0:0:
85,169,18768,1,2,0:0:0:0:
237,193,18922,1,2,0:0:0:0:
130,78,19077,2,0,P|95:67|60:70,1,72,2|2,0:0|0:0,0:0:0:0:
206,11,19386,2,0,P|240:21|275:18,1,72,2|0,0:0|0:0,0:0:0:0:
409,159,19695,5,0,0:0:0:0:
409,159,19850,2,0,L|397:229,1,72,2|0,0:0|0:0,0:0:0:0:
266,340,20159,2,0,P|287:311|317:291,1,72,2|0,0:0|0:0,0:0:0:0:
477,349,20469,2,0,P|442:346|410:331,1,72,2|0,0:0|0:0,0:0:0:0:
304,190,20778,6,0,L|280:48,1,144,2|2,0:0|0:0,0:0:0:0:
148,139,21242,2,0,L|136:209,1,72,2|2,0:0|0:0,0:0:0:0:
11,308,21551,1,2,0:0:0:0:
11,308,21706,2,0,L|0:237,1,72,2|0,0:0|0:0,0:0:0:0:
317,241,22170,6,0,L|237:227,1,80.9999975280763,2|2,1:2|0:0,0:0:0:0:
229,47,22479,2,0,L|215:126,1,80.9999975280763,2|2,1:2|0:0,0:0:0:0:
35,135,22788,2,0,L|114:148,1,80.9999975280763,0|2,1:0|0:0,0:0:0:0:
123,329,23097,2,0,L|136:249,1,80.9999975280763,2|2,1:2|0:0,0:0:0:0:
315,140,23407,6,0,P|350:116|400:110,1,80.9999975280763,2|2,1:2|0:0,0:0:0:0:
309,306,23716,2,0,P|285:273|278:233,1,80.9999975280763,2|2,1:2|0:0,0:0:0:0:
476,312,24025,2,0,P|443:335|403:342,1,80.9999975280763,0|2,1:0|0:0,0:0:0:0:
482,145,24335,2,0,P|506:180|512:230,1,80.9999975280763,0|2,1:0|0:0,0:0:0:0:
315,140,24644,6,0,L|301:61,1,80.9999975280763,2|2,1:2|0:0,0:0:0:0:
178,238,24953,2,0,L|164:317,1,80.9999975280763,0|2,1:0|1:2,0:0:0:0:
160,357,25185,1,0,1:0:0:0:
160,357,25262,1,0,1:0:0:0:
96,179,25417,1,2,1:2:0:0:
262,295,25572,1,8,0:0:0:0:
46,267,25726,6,0,P|-1:205|9:127,1,161.999995056153,6|10,1:2|0:0,0:0:0:0:
88,37,26113,1,0,1:0:0:0:
88,37,26190,2,0,L|96:77,1,40.4999987640381,0|0,1:0|1:0,0:0:0:0:
193,151,26345,2,0,L|200:111,1,40.4999987640381,0|0,1:0|1:0,0:0:0:0:
271,18,26500,6,0,P|294:9|321:6,3,40.4999987640381,8|8|4|4,3:0|3:0|3:0|3:0,0:0:0:0:
394,62,26809,1,8,0:0:0:0:
399,91,26886,1,8,0:0:0:0:
404,121,26963,1,8,0:0:0:0:
409,151,27040,1,8,0:0:0:0:
415,181,27118,6,0,L|430:269,1,90,6|0,1:2|0:0,0:0:0:0:
222,357,27427,2,0,L|238:269,1,90,10|0,0:0|0:0,0:0:0:0:
251,237,27659,1,8,0:0:0:0:
251,237,27737,1,2,1:2:0:0:
399,366,27891,2,0,P|443:369|485:354,1,90,2|8,1:2|0:0,0:0:0:0:
340,144,28201,6,0,B|253:129|253:129|250:131|250:131|162:114,1,180,6|2,1:2|1:2,0:0:0:0:
0,278,28664,1,10,0:0:0:0:
67,86,28819,1,0,0:0:0:0:
67,86,28896,1,8,0:0:0:0:
67,86,28974,2,0,L|82:174,1,90,2|0,1:2|1:0,0:0:0:0:
235,325,29283,2,0,L|250:236,1,90,10|0,0:0|0:0,0:0:0:0:
81,341,29592,5,4,1:2:0:0:
196,151,29747,2,0,P|238:136|283:140,1,90,2|8,0:0|0:0,0:0:0:0:
446,279,30056,1,2,0:0:0:0:
446,279,30134,1,8,0:0:0:0:
446,279,30211,1,2,1:2:0:0:
350,31,30366,1,0,1:0:0:0:
250,236,30520,1,10,0:0:0:0:
466,175,30675,6,0,B|515:150|515:150|393:122,1,180,6|2,1:2|1:2,0:0:0:0:
181,66,31139,1,10,0:0:0:0:
355,220,31293,1,0,0:0:0:0:
355,220,31371,1,8,0:0:0:0:
355,220,31448,1,2,1:2:0:0:
268,16,31603,1,2,1:2:0:0:
161,179,31757,2,0,L|72:163,1,90,8|8,0:0|0:0,0:0:0:0:
41,161,31989,1,8,0:0:0:0:
41,161,32067,5,6,1:2:0:0:
242,119,32221,2,0,P|259:158|257:207,1,90,2|8,0:0|0:0,0:0:0:0:
120,350,32530,1,2,0:0:0:0:
120,350,32608,1,8,0:0:0:0:
120,350,32685,1,0,1:0:0:0:
326,280,32840,1,2,1:2:0:0:
161,179,32994,1,10,0:0:0:0:
262,358,33149,6,0,P|336:381|417:323,1,180,6|2,1:2|1:2,0:0:0:0:
454,116,33613,1,10,0:0:0:0:
326,280,33768,1,2,0:0:0:0:
326,280,33845,1,8,0:0:0:0:
326,280,33922,1,0,1:0:0:0:
512,235,34077,1,2,1:2:0:0:
358,88,34231,2,0,L|374:177,1,90,10|0,0:0|0:0,0:0:0:0:
149,311,34541,5,14,0:0:0:0:
221,73,34695,1,2,1:2:0:0:
326,280,34850,1,8,0:0:0:0:
99,164,35005,1,2,1:2:0:0:
361,13,35159,5,8,0:0:0:0:
229,251,35314,1,2,1:2:0:0:
137,17,35469,1,8,0:0:0:0:
336,156,35623,2,0,B|423:141|423:141|426:143|426:143|514:126,1,180,6|0,1:2|1:0,0:0:0:0:
375,282,36087,6,0,P|320:244|256:256,1,135,12|0,0:0|2:0,0:0:0:0:
197,343,36396,5,8,3:0:0:0:
197,343,36500,6,0,P|162:331|129:324,1,60,8|8,3:0|3:0,0:0:0:0:
33,258,36706,5,6,3:0:0:0:
33,258,36809,6,0,P|62:251|91:241,1,60,4|4,3:0|3:0,0:0:0:0:
183,203,37015,6,0,L|168:123,1,80.9999975280763,6|2,1:2|0:0,0:0:0:0:
326,95,37324,1,2,1:2:0:0:
326,95,37479,2,0,P|301:126|266:146,1,80.9999975280763,2|0,0:0|1:0,0:0:0:0:
163,22,37789,2,0,P|202:27|237:48,1,80.9999975280763,2|0,0:0|1:0,0:0:0:0:
79,77,38097,6,0,P|64:38|68:-9,1,80.9999975280763,2|0,0:0|1:0,0:0:0:0:
169,123,38407,2,0,L|140:285,1,161.999995056153,2|0,0:0|0:0,0:0:0:0:
17,384,38871,1,2,1:2:0:0:
58,226,39025,1,2,0:0:0:0:
117,381,39180,2,0,L|196:366,1,80.9999975280763,2|0,1:2|1:0,0:0:0:0:
235,362,39412,1,0,1:0:0:0:
235,362,39489,5,6,1:2:0:0:
155,203,39644,2,0,L|141:283,1,80.9999975280763,2|0,0:0|1:0,0:0:0:0:
246,159,39953,1,8,3:0:0:0:
246,159,40030,1,8,3:0:0:0:
246,159,40108,1,2,1:2:0:0:
91,125,40262,1,10,3:0:0:0:
239,260,40417,2,0,P|277:256|313:234,1,80.9999975280763,6|10,3:0|0:0,0:0:0:0:
339,210,40649,1,8,0:0:0:0:
339,210,40726,5,4,1:2:0:0:
475,306,40881,2,0,L|395:292,1,80.9999975280763,2|0,0:0|1:0,0:0:0:0:
309,345,41190,1,2,0:0:0:0:
451,207,41345,6,0,L|437:127,1,80.9999975280763,14|2,0:0|0:0,0:0:0:0:
407,108,41577,2,0,L|421:28,1,80.9999975280763,12|0,0:0|0:0,0:0:0:0:
398,0,41809,1,12,0:0:0:0:
312,157,41963,6,0,P|241:177|169:133,2,161.999995056153,6|0|0,1:2|1:0|1:0,0:0:0:0:
398,0,42737,1,2,0:0:0:0:
252,77,42891,1,2,1:2:0:0:
410,182,43046,6,0,L|396:102,1,80.9999975280763,2|4,0:0|1:2,0:0:0:0:
340,255,43355,2,0,P|379:278|414:283,1,80.9999975280763,2|0,0:0|1:0,0:0:0:0:
312,157,43664,1,8,3:0:0:0:
254,309,43819,1,0,1:0:0:0:
227,212,43974,1,8,3:0:0:0:
157,284,44128,2,0,L|77:270,1,80.9999975280763,6|10,3:0|3:0,0:0:0:0:
42,266,44360,1,8,3:0:0:0:
42,266,44438,6,0,L|28:186,1,80.9999975280763,6|0,1:2|0:0,0:0:0:0:
164,41,44747,1,10,0:0:0:0:
9,86,44902,1,10,0:0:0:0:
183,141,45056,5,8,0:0:0:0:
70,5,45211,1,10,0:0:0:0:
122,222,45366,1,8,0:0:0:0:
9,86,45520,1,10,0:0:0:0:
222,235,45675,5,8,0:0:0:0:
250,244,45752,1,0,1:0:0:0:
280,244,45829,1,0,1:0:0:0:
309,235,45906,1,0,1:0:0:0:
334,217,45984,2,0,L|341:177,3,40.4999987640381,8|8|8|8,3:0|3:0|3:0|3:0,0:0:0:0:
435,140,46293,2,0,L|442:179,3,40.4999987640381,4|4|4|4,3:0|3:0|3:0|3:0,0:0:0:0:
357,77,46603,2,0,L|230:54,1,121.499996292114,14|0,0:0|2:0,0:0:0:0:
202,50,46912,5,6,1:2:0:0:
310,167,47067,1,2,0:0:0:0:
154,139,47221,1,2,1:2:0:0:
262,256,47376,2,0,P|303:268|343:263,1,80.9999975280763,2|0,1:2|1:0,0:0:0:0:
163,240,47685,2,0,P|132:269|116:306,1,80.9999975280763,2|0,0:0|1:0,0:0:0:0:
40,160,47994,1,2,1:2:0:0:
40,160,48072,1,0,1:0:0:0:
40,160,48149,5,0,1:0:0:0:
167,59,48304,2,0,L|153:139,1,80.9999975280763,2|0,0:0|1:0,0:0:0:0:
280,259,48613,1,0,1:0:0:0:
251,115,48768,1,2,1:2:0:0:
183,283,48922,1,2,1:2:0:0:
333,173,49077,2,0,P|373:169|411:180,1,80.9999975280763,2|2,1:2|1:2,0:0:0:0:
437,213,49309,1,0,1:0:0:0:
437,213,49386,5,0,1:0:0:0:
279,258,49541,2,0,P|250:231|234:194,1,80.9999975280763,2|0,1:2|1:0,0:0:0:0:
258,34,49850,1,0,0:0:0:0:
333,173,50005,1,2,1:2:0:0:
187,106,50159,1,2,1:2:0:0:
351,73,50314,1,2,1:2:0:0:
160,8,50469,6,0,P|124:25|99:56,1,80.9999975280763,10|0,0:0|1:0,0:0:0:0:
112,235,50778,2,0,P|114:195|101:158,1,80.9999975280763,10|0,0:0|1:0,0:0:0:0:
0,319,51087,2,0,L|80:333,1,80.9999975280763,14|0,0:0|0:0,0:0:0:0:
246,382,51396,1,8,3:0:0:0:
246,382,51474,1,8,3:0:0:0:
246,382,51551,1,8,3:0:0:0:
112,235,51706,1,8,0:0:0:0:
295,303,54335,6,0,L|282:369,1,67.5000025749208,2|0,1:0|0:0,0:0:0:0:
50,172,54953,6,0,L|60:238,1,67.5000025749208,2|0,1:0|0:0,0:0:0:0:
332,105,55572,6,0,L|324:149,1,45,8|0,0:0|0:0,0:0:0:0:
223,65,55726,2,0,L|230:109,1,45,8|0,0:0|1:0,0:0:0:0:
303,7,55881,1,8,0:0:0:0:
336,3,55958,1,0,1:0:0:0:
369,10,56035,1,0,1:0:0:0:
397,28,56112,1,0,1:0:0:0:
418,54,56190,1,8,0:0:0:0:
120,332,56809,6,0,L|102:233,1,99.0000030212403,6|0,1:2|0:0,0:0:0:0:
332,105,57118,2,0,L|314:203,1,99.0000030212403,10|0,0:0|0:0,0:0:0:0:
312,242,57350,1,8,0:0:0:0:
312,242,57427,1,2,1:2:0:0:
188,56,57582,1,0,1:0:0:0:
411,169,57737,1,10,0:0:0:0:
195,274,57891,6,0,B|73:247|73:247|43:270|43:311,1,198.000006042481,6|0,1:2|1:0,0:0:0:0:
208,171,58355,1,8,0:0:0:0:
0,64,58510,1,2,0:0:0:0:
0,64,58587,1,8,0:0:0:0:
0,64,58664,1,0,1:0:0:0:
117,231,58819,1,2,1:2:0:0:
175,19,58974,2,0,L|273:1,1,99.0000030212403,10|0,0:0|0:0,0:0:0:0:
430,244,59283,5,6,1:2:0:0:
240,97,59438,1,2,0:0:0:0:
367,323,59592,1,10,0:0:0:0:
347,85,59747,1,2,0:0:0:0:
347,85,59824,1,8,0:0:0:0:
347,85,59902,5,2,1:2:0:0:
210,282,60056,1,2,1:2:0:0:
431,142,60211,1,10,0:0:0:0:
274,360,60366,2,0,P|201:383|114:312,1,198.000006042481,6|0,1:2|1:0,0:0:0:0:
283,132,60829,6,0,L|301:230,1,99.0000030212403,10|0,0:0|0:0,0:0:0:0:
313,269,61061,1,8,0:0:0:0:
313,269,61139,1,2,1:2:0:0:
129,162,61293,1,0,1:0:0:0:
315,3,61448,1,10,0:0:0:0:
359,19,61525,1,8,0:0:0:0:
391,57,61602,1,8,0:0:0:0:
399,105,61679,1,8,0:0:0:0:
381,150,61757,6,0,L|283:132,1,99.0000030212403,6|0,1:2|0:0,0:0:0:0:
133,298,62067,2,0,P|193:299|234:273,1,99.0000030212403,10|0,0:0|0:0,0:0:0:0:
248,253,62299,1,8,0:0:0:0:
248,253,62376,1,2,1:2:0:0:
110,90,62530,1,2,1:2:0:0:
44,343,62685,1,10,0:0:0:0:
215,138,62840,6,0,B|316:107|299:201|401:170,1,198.000006042481,6|0,1:2|1:0,0:0:0:0:
512,6,63304,1,8,0:0:0:0:
491,237,63458,1,2,0:0:0:0:
491,237,63536,1,8,0:0:0:0:
491,237,63613,1,2,1:2:0:0:
418,43,63768,1,2,1:2:0:0:
392,272,63922,1,10,0:0:0:0:
496,106,64077,1,0,1:0:0:0:
215,138,64231,5,14,0:0:0:0:
491,237,64386,1,2,1:2:0:0:
188,311,64541,1,10,0:0:0:0:
417,168,64695,1,2,1:2:0:0:
334,384,64850,5,10,0:0:0:0:
215,138,65005,1,2,1:2:0:0:
426,343,65159,1,10,0:0:0:0:
281,61,65314,2,0,P|188:38|120:104,1,198.000006042481,4|8,1:2|0:0,0:0:0:0:
206,186,65701,5,0,1:0:0:0:
206,186,65778,2,0,L|215:137,1,49.5000015106202,0|0,1:0|1:0,0:0:0:0:
106,205,65933,2,0,L|115:254,1,49.5000015106202,0|0,1:0|1:0,0:0:0:0:
306,180,66087,6,0,P|329:172|353:168,3,49.5000015106202,8|8|10|8,3:0|3:0|3:0|3:0,0:0:0:0:
449,189,66396,1,10,0:0:0:0:
490,162,66473,1,8,0:0:0:0:
512,118,66550,1,10,0:0:0:0:
509,70,66627,1,8,0:0:0:0:
481,29,66706,6,0,L|383:11,1,99.0000030212403,6|0,1:2|0:0,0:0:0:0:
206,186,67015,2,0,L|224:284,1,99.0000030212403,10|0,0:0|0:0,0:0:0:0:
235,323,67247,1,8,0:0:0:0:
235,323,67324,1,2,1:2:0:0:
283,121,67479,1,0,1:0:0:0:
85,259,67634,1,10,0:0:0:0:
351,215,67788,6,0,B|402:102|402:102|352:47,1,198.000006042481,6|0,1:2|1:0,0:0:0:0:
206,186,68252,1,8,0:0:0:0:
430,294,68407,1,2,0:0:0:0:
430,294,68484,1,8,0:0:0:0:
430,294,68561,1,2,1:2:0:0:
283,121,68716,1,2,1:2:0:0:
212,357,68871,2,0,P|167:378|119:374,1,99.0000030212403,10|0,0:0|0:0,0:0:0:0:
189,86,69180,5,6,1:2:0:0:
295,299,69335,1,2,0:0:0:0:
267,22,69489,1,10,0:0:0:0:
204,255,69644,1,2,0:0:0:0:
204,255,69721,1,8,0:0:0:0:
204,255,69799,5,2,1:2:0:0:
424,164,69953,1,2,1:2:0:0:
189,86,70108,1,10,0:0:0:0:
328,311,70262,2,0,B|367:259|444:277|444:277|461:310|495:321,1,198.000006042481,6|0,1:2|1:0,0:0:0:0:
454,68,70726,6,0,P|405:64|361:85,1,99.0000030212403,10|0,0:0|0:0,0:0:0:0:
344,118,70958,1,8,0:0:0:0:
344,118,71036,1,2,1:2:0:0:
180,37,71190,2,0,L|188:86,1,49.5000015106202,2|0,1:2|1:0,0:0:0:0:
176,312,71345,1,8,0:0:0:0:
133,337,71422,1,8,0:0:0:0:
85,337,71499,1,8,0:0:0:0:
42,312,71576,1,8,0:0:0:0:
18,269,71654,6,0,L|36:171,1,99.0000030212403,6|0,1:2|1:0,0:0:0:0:
280,42,71963,1,8,0:0:0:0:
28,70,72118,2,0,L|77:79,1,49.5000015106202,0|0,1:0|1:0,0:0:0:0:
245,150,72273,1,10,0:2:0:0:
281,143,72350,1,0,1:0:0:0:
318,136,72427,1,10,3:0:0:0:
354,129,72504,1,8,3:0:0:0:
391,123,72582,2,0,L|400:74,1,49.5000015106202,10|8,3:0|3:0,0:0:0:0:
183,69,72737,6,0,P|145:136|194:238,1,198.000006042481,6|0,1:2|1:0,0:0:0:0:
432,192,73201,1,8,0:0:0:0:
306,371,73355,1,2,0:0:0:0:
306,371,73433,1,8,0:0:0:0:
306,371,73510,2,0,L|288:273,1,99.0000030212403,2|0,1:2|1:0,0:0:0:0:
99,135,73819,1,10,0:0:0:0:
332,182,73974,1,0,1:0:0:0:
86,269,74128,5,14,0:0:0:0:
211,4,74283,1,2,1:2:0:0:
255,304,74438,1,10,0:0:0:0:
115,35,74592,1,2,1:2:0:0:
160,338,74747,5,10,0:0:0:0:
293,63,74902,2,0,L|284:112,1,49.5000015106202,8|8,0:0|0:0,0:0:0:0:
130,241,75056,1,10,0:0:0:0:
130,241,75134,1,8,0:0:0:0:
130,241,75211,2,0,P|59:246|5:197,1,148.50000453186,6|0,1:2|2:0,0:0:0:0:
0,161,75520,5,12,0:0:0:0:
248,132,75675,2,0,L|266:34,1,99.0000030212403,12|0,0:0|1:0,0:0:0:0:
276,2,75907,1,0,1:0:0:0:
276,2,75984,2,0,P|324:-2|369:18,1,99.0000030212403,8|2,0:0|0:0,0:0:0:0:
391,48,76216,2,0,P|439:51|484:31,1,99.0000030212403,8|0,0:0|2:0,0:0:0:0:
503,0,76448,1,10,0:0:0:0:
367,162,76603,6,0,B|397:375|397:375|378:321|317:308,1,323.999990112305,6|8,1:2|0:0,0:0:0:0:
62,227,77685,6,0,P|70:271|78:314,1,80.9999975280763,6|0,1:2|2:0,0:0:0:0:
105,337,77994,2,0,P|167:349|224:298,1,144,8|10,3:0|3:0,0:0:0:0:
231,266,78381,1,8,3:0:0:0:
231,266,78458,1,10,3:0:0:0:
348,384,78613,1,6,3:0:0:0:
302,193,78768,6,0,L|321:59,1,135,14|0,0:0|2:0,0:0:0:0:
329,24,79077,5,6,1:2:0:0:
196,128,79231,2,0,L|204:172,1,45,10|8,0:0|0:0,0:0:0:0:
109,78,79386,2,0,L|117:33,3,45,10|8|10|8,1:2|0:0|0:0|0:0,0:0:0:0:
30,141,79695,2,0,L|46:229,1,90,10|8,1:2|0:0,0:0:0:0:
134,289,79927,1,8,0:0:0:0:
134,289,80005,2,0,L|125:333,1,45,10|8,1:2|0:0,0:0:0:0:
204,172,80159,6,0,P|256:120|355:137,1,180,14|8,0:0|0:0,0:0:0:0:
417,223,80546,1,8,0:0:0:0:
417,223,80623,2,0,P|411:244|406:266,3,45,2|0|0|0,1:2|1:0|1:0|1:0,0:0:0:0:
468,116,80933,6,0,P|490:110|512:105,1,45,10|8,3:0|3:0,0:0:0:0:
279,263,81087,2,0,P|257:257|235:252,1,45,10|8,3:0|3:0,0:0:0:0:
441,355,81242,6,0,L|417:223,1,135,12|0,0:0|2:0,0:0:0:0:
353,136,81551,6,0,P|308:115|259:119,1,99.0000030212403,6|0,1:2|0:0,0:0:0:0:
97,281,81860,2,0,L|79:183,1,99.0000030212403,8|0,0:0|0:0,0:0:0:0:
76,151,82092,1,8,0:0:0:0:
76,151,82170,1,2,1:2:0:0:
229,304,82324,1,2,1:2:0:0:
2,249,82479,1,10,0:0:0:0:
238,203,82634,6,0,B|333:186|333:186|336:183|336:183|431:166,1,198.000006042481,6|0,1:2|1:0,0:0:0:0:
257,57,83097,1,8,0:0:0:0:
351,294,83252,1,2,0:0:0:0:
351,294,83329,1,8,0:0:0:0:
351,294,83407,1,2,1:2:0:0:
405,82,83561,1,0,1:0:0:0:
246,211,83716,1,10,0:0:0:0:
246,211,83793,1,8,0:0:0:0:
246,211,83871,2,0,L|196:201,1,49.5000015106202,8|8,0:0|0:0,0:0:0:0:
64,45,84025,5,14,0:0:0:0:
151,276,84180,1,2,1:2:0:0:
257,57,84335,1,10,0:0:0:0:
44,170,84489,2,0,L|93:180,1,49.5000015106202,10|8,0:0|0:0,0:0:0:0:
275,343,84644,5,10,0:0:0:0:
19,272,84799,1,8,0:0:0:0:
306,150,84954,1,8,0:0:0:0:
128,373,85108,5,4,1:2:0:0:
256,192,85185,12,0,87814,0:0:0:0:
