osu file format v14

[General]
AudioFilename: audio.mp3
AudioLeadIn: 0
PreviewTime: 63903
Countdown: 0
SampleSet: Soft
StackLeniency: 0.3
Mode: 0
LetterboxInBreaks: 0
WidescreenStoryboard: 0

[Editor]
Bookmarks: 20986,77653
DistanceSpacing: 1.1
BeatDivisor: 4
GridSize: 8
TimelineZoom: 1.4

[Metadata]
Title:Ai no Scenario (TV Size)
TitleUnicode:アイのシナリオ (TV Size)
Artist:CHiCO with HoneyWorks
ArtistUnicode:CHiCO with HoneyWorks
Creator:sanairrt
Version:gokugohan12468's Easy
Source:まじっく快斗1412
Tags:japanese jpop pop j-pop rock j-rock jrock anime op opening 2 a-1 pictures inc kuroba magic kaito 1412 黒羽快斗 Not DT Farmer Mocaotic arronchu1207 eclipselotus Time Capsule Chihara Minori kittyadventure gokugohan12468
BeatmapID:2950700
BeatmapSetID:1278201

[Difficulty]
HPDrainRate:2
CircleSize:2
OverallDifficulty:2
ApproachRate:3
SliderMultiplier:0.9
SliderTickRate:1

[Events]
//Background and Video events
Video,0,"Video (3).mp4"
0,0,"75836710_p0.jpg",0,0
//Break Periods
//Storyboard Layer 0 (Background)
//Storyboard Layer 1 (Fail)
//Storyboard Layer 2 (Pass)
//Storyboard Layer 3 (Foreground)
//Storyboard Layer 4 (Overlay)
//Storyboard Sound Samples

[TimingPoints]
987,333.333333333333,4,2,2,50,1,0
987,-100,4,2,2,50,0,0
6320,-100,4,2,2,65,0,0
8987,-100,4,2,2,70,0,0
11653,-100,4,2,1,70,0,0
12653,-100,4,2,1,65,0,0
16320,-100,4,2,2,65,0,0
16986,-100,4,2,2,80,0,1
22320,-100,4,2,2,70,0,0
32320,-100,4,2,2,60,0,0
32987,-100,4,2,2,75,0,0
43653,-100,4,2,2,65,0,0
54320,-100,4,2,2,75,0,0
59653,-100,4,2,2,60,0,0
62320,-100,4,2,2,70,0,0
64320,-100,4,2,2,70,0,0
64653,-100,4,2,2,80,0,0
64986,-100,4,2,2,90,0,1
86320,-100,4,2,2,90,0,0
87320,-100,4,2,2,80,0,0
88986,-100,4,2,2,5,0,0

[Colours]
Combo1 : 0,49,98
Combo2 : 128,128,128

[HitObjects]
5,115,986,6,0,B|117:92|63:168|175:138,1,180,6|2,3:2|3:2,0:2:0:0:
252,76,1986,1,0,3:2:0:0:
316,150,2320,2,0,P|400:159|416:242,1,180,0|0,3:2|3:2,0:2:0:0:
245,342,3653,6,0,B|122:332|122:332|85:288,1,180,2|2,3:2|3:2,0:2:0:0:
65,91,4986,2,0,B|180:105|180:105|211:160,1,180,0|0,3:2|3:2,2:2:0:0:
366,36,6320,6,0,P|448:53|453:137,1,180,6|2,3:2|3:2,0:2:0:0:
376,199,7320,1,0,3:2:0:0:
438,275,7653,2,0,B|389:313|389:313|271:298,1,180,0|2,3:2|3:2,0:2:0:0:
194,356,8653,1,0,0:2:0:0:
107,307,8986,6,0,L|94:172,1,135,14|14,0:2|0:2,2:0:0:0:
120,25,9986,1,14,0:2:0:0:
450,129,11153,2,0,L|445:173,1,45,2|2,0:2|0:2,0:0:0:0:
503,253,11653,6,0,P|468:331|383:336,1,180,2|2,0:2|0:2,2:0:0:0:
283,343,12653,2,0,L|269:163,1,180,10|10,0:2|0:2,2:0:0:0:
196,95,13653,1,2,0:2:0:0:
97,99,13986,1,10,0:2:0:0:
55,189,14320,6,0,B|78:301|2:247|26:358,1,180,2|2,3:2|0:0,2:0:0:0:
122,333,15320,2,0,P|201:353|227:275,1,180,10|10,0:2|0:2,2:0:0:0:
291,199,16320,2,0,B|334:186|334:186|372:208,1,90,10|14,0:2|0:2,2:0:0:0:
462,167,16986,6,0,P|483:129|475:86,1,90,6|8,3:2|0:2,0:2:0:0:
389,36,17653,2,0,P|345:33|311:61,1,90,2|10,3:2|0:2,2:0:0:0:
223,114,18320,1,0,3:2:0:0:
124,101,18653,2,0,L|116:11,2,90,10|2|10,0:2|3:2|0:2,0:2:0:0:
69,184,19653,6,0,P|34:209|24:252,1,90,2|8,3:2|0:2,0:2:0:0:
97,319,20320,2,0,P|139:309|165:273,1,90,2|8,3:2|0:2,2:0:0:0:
232,199,20986,1,0,3:2:0:0:
306,264,21320,2,0,L|299:353,2,90,10|2|10,0:2|3:2|0:2,2:0:0:0:
381,199,22320,6,0,L|470:205,1,90,6|2,3:2|3:2,0:2:0:0:
502,111,22986,2,0,P|488:69|452:44,1,90,2|2,3:2|3:2,2:0:0:0:
352,34,23653,2,0,L|218:53,1,135,2|2,3:2|0:2,2:0:0:0:
37,221,24986,6,0,L|126:208,1,90,2|2,3:2|3:2,2:0:0:0:
127,307,25653,2,0,L|216:294,1,90,2|2,3:2|3:2,2:0:0:0:
290,359,26320,1,2,3:2:0:0:
476,293,26986,1,2,3:2:0:0:
499,96,27653,6,0,B|427:86|427:86|402:59|402:59|332:48,1,180,2|2,3:2|3:2,0:0:0:0:
247,102,28653,1,2,3:2:0:0:
283,194,28986,2,0,L|300:327,1,135,2|2,3:2|0:2,2:0:0:0:
53,353,30320,6,0,P|28:318|30:273,1,90,2|2,3:2|3:2,0:0:0:0:
28,175,30986,2,0,L|161:157,1,135,2|10,3:2|0:2,2:0:0:0:
320,347,32320,2,0,L|409:335,1,90,14|10,0:2|0:2,2:0:0:0:
479,265,32986,5,6,3:2:0:0:
481,66,33653,2,0,P|442:44|398:52,1,90,2|10,3:2|0:2,0:0:0:0:
300,38,34320,1,2,3:2:0:0:
268,131,34653,2,0,P|246:170|254:214,1,90,10|2,0:2|3:2,0:0:0:0:
221,306,35320,1,10,0:2:0:0:
126,277,35653,6,0,P|83:282|45:259,2,90,2|10|2,3:2|0:2|3:2,0:2:0:0:
107,179,36653,1,10,0:2:0:0:
62,90,36986,2,0,B|111:38|111:38|219:54,1,180,2|2,3:2|3:2,2:0:0:0:
416,64,38320,6,0,B|437:99|437:99|428:147,1,90,2|10,3:2|0:2,2:0:0:0:
350,209,38986,2,0,B|329:244|329:244|337:292,1,90,2|10,3:2|0:2,2:0:0:0:
258,353,39653,1,2,3:2:0:0:
171,304,39986,2,0,P|128:310|88:290,1,90,10|0,0:2|3:2,2:0:0:0:
35,98,40986,6,0,L|125:85,1,90,2|10,3:2|0:2,2:0:0:0:
206,30,41653,2,0,P|264:58|264:122,1,135,2|6,3:2|3:2,2:0:0:0:
314,261,42653,1,12,0:2:0:0:
411,278,42986,2,0,P|451:261|473:222,1,90,2|10,3:2|0:3,0:0:0:0:
472,123,43653,6,0,B|355:99|439:54|326:32,1,180,6|10,3:2|2:0,0:0:0:0:
165,147,44986,2,0,P|83:162|77:245,1,180,0|10,3:2|0:2,2:0:0:0:
252,339,46320,2,0,B|320:334|320:334|350:355|350:355|424:349,2,180,6|8|0,3:2|0:2|3:2,0:2:0:0:
385,192,48320,1,10,0:2:0:0:
195,135,48986,6,0,B|101:127|101:127|72:157|25:161,1,180,6|8,3:2|2:0,0:0:0:0:
37,259,49986,1,2,0:2:0:0:
123,307,50320,2,0,B|166:271|218:285|218:285|239:321|281:325,1,180,2|10,3:2|0:2,2:0:0:0:
404,169,51653,6,0,P|485:148|498:65,1,180,6|8,3:2|0:2,0:2:0:0:
403,33,52653,1,2,0:2:0:0:
322,90,52986,2,0,L|233:74,1,90,8|12,0:2|0:2,2:0:0:0:
141,36,53653,1,10,0:2:0:0:
47,69,53986,1,10,0:2:0:0:
17,163,54320,6,0,P|46:220|111:232,1,135,6|2,3:2|3:2,2:0:0:0:
204,200,55153,1,2,3:2:0:0:
286,323,55653,2,0,P|350:311|380:253,1,135,2|2,3:2|3:2,2:0:0:0:
360,155,56486,1,2,3:2:0:0:
253,47,56986,6,0,B|225:52|225:52|202:37|202:37|168:43,1,90,2|10,3:2|0:2,2:0:0:0:
117,128,57653,2,0,B|83:121|83:121|60:136|60:136|32:131,1,90,2|8,3:2|0:2,2:0:0:0:
36,230,58320,1,14,0:2:0:0:
82,317,58653,1,2,3:2:0:0:
179,332,58986,2,0,P|221:320|249:286,1,90,10|6,0:2|0:3,2:0:0:0:
273,189,59653,6,0,B|404:173|404:173|436:137,1,180,6|2,3:2|0:2,2:0:0:0:
263,39,60986,2,0,B|197:47|197:47|181:64,1,90,2|2,0:2|0:2,0:2:0:0:
84,86,61653,2,0,B|92:151|92:151|109:167,1,90,10|2,0:3|2:0,0:0:0:0:
52,248,62320,6,0,P|80:326|163:317,1,180,6|14,3:2|0:2,0:0:0:0:
308,350,63486,1,14,0:2:0:0:
391,227,63986,2,0,L|401:137,2,90,2|2|2,0:2|0:2|0:2,0:2:0:0:
485,258,64986,6,0,L|504:79,1,180,6|2,3:2|3:2,0:2:0:0:
416,32,65986,1,8,0:2:0:0:
322,66,66320,2,0,B|283:46|283:46|240:65,1,90,0|8,3:2|0:2,2:0:0:0:
163,126,66986,2,0,B|120:145|120:145|81:125,1,90,0|8,3:2|0:2,2:0:0:0:
22,204,67653,6,0,B|72:233|72:233|77:355,1,180,2|2,3:2|3:2,0:2:0:0:
175,363,68653,1,8,0:2:0:0:
257,302,68986,2,0,B|322:295|322:295|342:308,1,90,0|8,3:2|0:2,2:0:0:0:
409,236,69653,2,0,B|474:243|474:243|494:229,1,90,0|8,3:2|0:2,2:0:0:0:
498,129,70320,5,6,3:2:0:0:
400,113,70653,2,0,L|409:23,2,90,10|2|8,0:2|3:2|0:2,0:2:0:0:
302,132,71653,1,0,3:2:0:0:
204,148,71986,2,0,L|213:237,2,90,10|2|8,0:2|3:2|0:2,0:2:0:0:
153,62,72986,5,2,3:2:0:0:
54,74,73320,1,8,0:2:0:0:
10,162,73653,1,2,3:2:0:0:
51,251,73986,1,10,0:2:0:0:
45,350,74320,6,0,L|178:331,1,135,6|10,3:2|0:2,0:2:0:0:
273,358,75153,1,10,0:2:0:0:
388,265,75653,6,0,P|469:240|471:156,1,180,6|2,3:2|3:2,0:2:0:0:
396,91,76653,1,8,0:2:0:0:
311,141,76986,2,0,L|212:130,1,90,0|8,3:2|0:2,2:0:0:0:
127,99,77653,2,0,L|116:198,1,90,0|8,3:2|0:2,2:0:0:0:
51,263,78320,6,0,P|137:256|189:325,1,180,2|2,3:2|3:2,0:2:0:0:
284,352,79320,1,8,0:2:0:0:
362,291,79653,2,0,P|405:283|433:249,1,90,0|8,3:2|0:2,2:0:0:0:
378,165,80320,2,0,P|334:157|306:123,1,90,0|8,3:2|0:2,2:0:0:0:
256,38,80986,5,6,3:2:0:0:
156,32,81320,2,0,L|66:28,2,90,10|2|8,0:2|3:2|0:2,0:2:0:0:
197,122,82320,1,0,3:2:0:0:
113,175,82653,2,0,L|23:171,2,90,10|2|8,0:2|3:2|0:2,0:2:0:0:
158,263,83653,6,0,P|207:305|272:296,1,135,2|2,3:2|0:2,0:2:0:0:
384,195,84653,1,14,0:2:0:0:
467,141,84986,2,0,L|457:52,1,90,10|8,0:2|0:2,2:0:0:0:
361,25,85653,2,0,L|272:35,1,90,12|2,0:2|3:2,2:0:0:0:
197,101,86320,6,0,P|136:79|79:112,1,135,14|14,0:2|0:2,2:0:0:0:
171,228,87320,2,0,B|203:316|259:330|319:331|358:305|409:254|416:180|364:144|279:137|275:208,1,450,14|0,0:2|0:2,0:2:0:0:
