osu file format v14

[General]
AudioFilename: audio.mp3
AudioLeadIn: 0
PreviewTime: 63903
Countdown: 0
SampleSet: Soft
StackLeniency: 0.3
Mode: 0
LetterboxInBreaks: 0
WidescreenStoryboard: 1

[Editor]
DistanceSpacing: 0.8
BeatDivisor: 4
GridSize: 8
TimelineZoom: 1.4

[Metadata]
Title:Ai no Scenario (TV Size)
TitleUnicode:アイのシナリオ (TV Size)
Artist:CHiCO with HoneyWorks
ArtistUnicode:CHiCO with HoneyWorks
Creator:sanairrt
Version:Tatoe
Source:まじっく快斗1412
Tags:japanese jpop pop j-pop rock j-rock jrock anime op opening 2 a-1 pictures inc kuroba magic kaito 1412 黒羽快斗 Not DT Farmer Mocaotic arronchu1207 eclipselotus Time Capsule Chihara Minori kittyadventure gokugohan12468
BeatmapID:2936635
BeatmapSetID:1278201

[Difficulty]
HPDrainRate:6
CircleSize:4
OverallDifficulty:8.5
ApproachRate:9.2
SliderMultiplier:1.8
SliderTickRate:1

[Events]
//Background and Video events
Video,0,"Video (3).mp4"
0,0,"75836710_p0.jpg",0,0
//Break Periods
//Storyboard Layer 0 (Background)
//Storyboard Layer 1 (Fail)
//Storyboard Layer 2 (Pass)
//Storyboard Layer 3 (Foreground)
//Storyboard Layer 4 (Overlay)
//Storyboard Sound Samples

[TimingPoints]
987,333.333333333333,4,2,2,60,1,0
987,-125,4,2,2,50,0,0
5653,-125,4,2,2,60,0,0
6320,-125,4,2,2,50,0,0
8986,-125,4,2,2,70,0,0
9986,-200,4,2,2,60,0,0
11320,-250,4,2,2,60,0,0
11570,-250,4,2,2,5,0,0
11653,-142.857142857143,4,2,1,40,0,0
16320,-142.857142857143,4,2,2,60,0,0
16986,-100,4,2,2,70,0,0
22320,-125,4,2,2,50,0,0
31820,-125,4,2,2,40,0,0
32153,-125,4,2,2,60,0,0
32320,-125,4,2,2,60,0,0
32986,-100,4,2,2,60,0,0
43320,-100,4,2,2,50,0,0
43653,-142.857142857143,4,2,2,50,0,0
44986,-125,4,2,2,50,0,0
46320,-142.857142857143,4,2,2,50,0,0
48903,-142.857142857143,4,2,2,5,0,0
48986,-142.857142857143,4,2,2,50,0,0
50320,-125,4,2,2,50,0,0
52986,-125,4,2,2,60,0,0
54320,-100,4,2,2,60,0,0
58320,-100,4,2,2,70,0,0
58653,-100,4,2,2,65,0,0
58986,-100,4,2,2,60,0,0
59320,-100,4,2,2,50,0,0
59653,-166.666666666667,4,2,2,40,0,0
61653,-111.111111111111,4,2,2,60,0,0
62320,-125,4,2,2,60,0,0
62903,-125,4,2,2,5,0,0
62986,-125,4,2,2,60,0,0
63653,-166.666666666667,4,2,0,60,0,0
63986,-166.666666666667,4,2,2,50,0,0
64235,-166.666666666667,4,2,0,50,0,0
64236,-166.666666666667,4,2,0,5,0,0
64320,-125,4,2,2,60,0,0
64570,-125,4,2,2,5,0,0
64653,-100,4,2,2,70,0,0
64903,-100,4,2,2,5,0,0
64986,-90.9090909090909,4,2,2,80,0,1
86320,-90.9090909090909,4,2,2,70,0,0
87320,-166.666666666667,4,2,2,60,0,0
88986,-166.666666666667,4,2,2,5,0,0

[Colours]
Combo1 : 172,172,255
Combo2 : 128,128,128
Combo3 : 77,77,255
Combo4 : 255,128,128

[HitObjects]
56,206,986,6,0,B|185:238|185:238|224:192,2,180,6|0|2,3:2|3:2|3:2,0:2:0:0:
74,358,1820,2,0,P|127:346|169:338,1,72,2|0,0:2|3:2,0:2:0:0:
214,203,2153,1,2,0:2:0:0:
313,302,2320,6,0,P|304:339|293:391,1,72,0|2,3:2|0:2,0:2:0:0:
447,231,2653,2,0,P|455:268|467:320,1,72,0|2,3:2|0:2,0:2:0:0:
311,119,2986,2,0,P|302:156|291:208,1,72,0|2,3:2|0:2,0:2:0:0:
440,45,3320,2,0,P|448:82|460:134,1,72,0|0,3:2|0:2,0:2:0:0:
309,75,3653,6,0,P|236:77|195:13,2,144,2|0|2,3:2|3:2|3:2,0:2:0:0:
139,101,4486,2,0,P|75:110|42:114,1,72,2|0,0:2|3:2,0:2:0:0:
0,225,4820,1,2,0:2:0:0:
144,342,4986,6,0,P|152:295|161:241,1,72,0|2,3:2|0:2,0:2:0:0:
293,145,5320,2,0,P|298:180|305:215,1,72,0|2,3:2|0:2,0:2:0:0:
156,271,5653,1,0,3:2:0:0:
67,111,5820,1,14,0:2:0:0:
156,271,5986,1,0,3:2:0:0:
293,145,6153,1,14,0:2:0:0:
382,305,6320,6,0,P|426:296|471:288,1,72,6|0,3:2|0:2,0:2:0:0:
386,123,6653,2,0,P|367:84|247:65,1,144,2|2,3:2|3:2,0:2:0:0:
168,200,7153,2,0,P|162:235|155:270,1,72,2|0,0:2|3:2,0:2:0:0:
293,145,7486,1,2,0:2:0:0:
140,45,7653,6,0,P|76:54|43:58,1,72,0|0,3:2|0:2,0:2:0:0:
96,189,7986,2,0,P|159:198|192:202,1,72,2|0,3:2|0:2,0:2:0:0:
318,106,8320,1,2,3:2:0:0:
375,257,8486,1,2,0:2:0:0:
202,206,8653,1,0,0:2:0:0:
406,159,8820,1,2,0:2:0:0:
245,350,8986,5,14,0:2:0:0:
202,206,9153,1,0,3:2:0:0:
159,62,9320,1,0,3:2:0:0:
406,159,9486,5,14,0:2:0:0:
245,350,9653,1,0,3:2:0:0:
224,121,9820,1,2,3:2:0:0:
423,249,9986,2,0,P|482:108|363:79,1,315,14|0,0:2|0:0,0:0:0:0:
292,130,11236,1,2,0:2:0:0:
292,130,11320,2,0,P|260:124|233:119,1,54,2|0,0:2|0:2,0:2:0:0:
159,62,11653,5,2,0:2:0:0:
53,161,11820,2,0,P|59:195|68:238,1,62.9999980773926,2|8,0:2|0:2,0:2:0:0:
298,105,12153,5,2,0:2:0:0:
159,62,12320,2,0,P|132:84|99:113,1,62.9999980773926,2|0,0:2|0:0,0:0:0:0:
330,246,12653,5,10,0:2:0:0:
298,105,12820,2,0,P|265:92|223:78,1,62.9999980773926,2|0,0:2|3:2,0:2:0:0:
223,344,13153,5,2,0:2:0:0:
330,246,13320,2,0,P|324:211|315:168,1,62.9999980773926,10|0,0:2|0:2,0:2:0:0:
144,190,13653,5,2,0:2:0:0:
298,105,13820,1,2,0:2:0:0:
144,190,13986,1,10,0:2:0:0:
298,105,14153,1,2,0:2:0:0:
262,307,14320,5,2,3:2:0:0:
144,190,14486,2,0,P|124:155|118:121,1,62.9999980773926,2|8,0:2|0:2,0:2:0:0:
259,289,14820,5,2,0:2:0:0:
377,172,14986,2,0,P|397:137|403:103,1,62.9999980773926,2|0,0:0|0:0,0:0:0:0:
256,271,15320,5,10,0:2:0:0:
138,154,15486,2,0,P|118:119|112:85,1,62.9999980773926,2|0,0:2|3:2,0:2:0:0:
253,253,15820,5,2,0:2:0:0:
371,136,15986,2,0,P|391:101|397:67,1,62.9999980773926,10|0,0:2|0:2,0:2:0:0:
218,58,16320,5,10,0:2:0:0:
218,58,16403,1,8,0:3:0:0:
218,58,16486,2,0,L|205:111,1,31.4999990386963,2|0,3:2|3:2,0:2:0:0:
247,191,16653,1,14,0:2:0:0:
250,222,16736,1,2,0:2:0:0:
253,253,16820,1,2,0:2:0:0:
256,285,16903,1,2,0:2:0:0:
259,316,16986,6,0,P|324:331|374:234,1,180,6|8,3:2|0:2,0:2:0:0:
304,76,17486,1,0,0:2:0:0:
250,222,17653,1,2,3:2:0:0:
99,85,17820,2,0,P|143:74|203:61,1,90,2|10,0:2|0:2,0:2:0:0:
328,165,18153,1,2,0:2:0:0:
135,281,18320,6,0,P|126:231|115:172,1,90,0|0,3:2|0:2,0:2:0:0:
333,283,18653,2,0,P|324:327|316:371,1,90,10|0,0:2|0:2,0:2:0:0:
250,222,18986,1,2,3:2:0:0:
420,167,19153,1,0,0:2:0:0:
255,114,19320,1,10,0:2:0:0:
333,283,19486,1,0,0:2:0:0:
343,84,19653,6,0,P|292:27|182:57,1,180,2|8,3:2|0:2,0:2:0:0:
77,152,20153,1,0,0:2:0:0:
255,114,20320,1,2,3:2:0:0:
66,42,20486,2,0,P|77:81|94:158,1,90,2|8,0:2|0:2,0:2:0:0:
250,222,20820,1,2,0:2:0:0:
92,306,20986,5,0,3:2:0:0:
250,222,21153,1,0,0:2:0:0:
77,152,21320,1,10,0:2:0:0:
235,68,21486,1,0,0:2:0:0:
163,243,21653,1,2,3:2:0:0:
358,275,21820,1,0,3:2:0:0:
374,268,21903,1,8,0:2:0:0:
391,262,21986,1,10,0:2:0:0:
444,139,22153,1,8,0:2:0:0:
431,136,22236,1,8,0:2:0:0:
421,133,22320,6,0,P|381:122|322:108,1,72,6|0,3:2|0:2,0:2:0:0:
202,231,22653,2,0,P|242:221|301:206,1,72,2|0,3:2|0:2,0:2:0:0:
143,61,22986,1,2,3:2:0:0:
81,203,23153,1,2,0:2:0:0:
228,98,23320,1,2,3:2:0:0:
74,115,23486,1,2,0:2:0:0:
202,231,23653,5,2,3:2:0:0:
319,108,23820,2,0,P|308:64|297:21,1,72,2|0,0:2|3:2,0:2:0:0:
157,153,24153,1,2,0:2:0:0:
283,282,24320,2,0,P|294:238|305:195,1,72,0|0,3:2|0:2,0:2:0:0:
437,144,24653,2,0,P|445:178|454:213,1,72,0|0,3:2|0:2,0:2:0:0:
346,310,24986,6,0,P|307:301|269:261,1,72,2|0,3:2|0:2,0:2:0:0:
204,323,25320,2,0,P|192:284|207:231,1,72,2|0,3:2|0:2,0:2:0:0:
121,206,25653,2,0,P|148:176|201:163,1,72,2|0,3:2|0:2,0:2:0:0:
180,75,25986,2,0,P|219:84|257:124,1,72,2|0,3:2|0:2,0:2:0:0:
121,206,26320,6,0,P|63:214|9:145,2,144,2|0|2,3:2|3:2|3:2,0:2:0:0:
255,137,27153,1,2,0:2:0:0:
149,45,27320,2,0,P|114:49|60:60,1,72,0|0,3:2|0:2,0:2:0:0:
121,206,27653,5,2,3:2:0:0:
255,137,27820,1,2,0:2:0:0:
149,45,27986,1,2,3:2:0:0:
209,213,28153,1,2,0:2:0:0:
298,60,28320,1,2,3:2:0:0:
151,128,28486,1,2,0:2:0:0:
305,223,28653,2,0,P|346:211|390:198,1,72,2|2,3:2|0:2,0:2:0:0:
422,31,28986,6,0,P|369:72|285:50,1,144,2|2,3:2|3:2,0:2:0:0:
183,169,29486,1,2,0:2:0:0:
77,56,29653,2,0,P|68:91|60:126,1,72,0|0,3:2|0:2,0:2:0:0:
199,239,29986,2,0,P|190:203|182:168,1,72,0|2,3:2|0:2,0:2:0:0:
77,342,30320,5,2,3:2:0:0:
199,239,30486,1,2,0:2:0:0:
52,213,30653,1,2,3:2:0:0:
173,329,30820,1,2,0:2:0:0:
224,156,30986,1,2,3:2:0:0:
52,213,31153,2,0,P|60:248|68:283,1,72,2|0,0:2|3:2,0:2:0:0:
224,156,31486,1,10,0:2:0:0:
245,174,31820,6,0,P|289:165|325:158,2,72,2|2|2,0:2|0:2|0:2,0:2:0:0:
353,261,32320,1,14,0:2:0:0:
377,245,32403,1,8,0:2:0:0:
396,224,32486,1,10,0:2:0:0:
409,198,32570,1,8,0:2:0:0:
415,170,32653,1,10,0:2:0:0:
414,142,32736,1,8,0:2:0:0:
405,114,32820,1,10,0:2:0:0:
390,90,32903,1,8,0:2:0:0:
368,71,32986,5,6,3:2:0:0:
245,174,33153,1,2,0:2:0:0:
201,10,33320,1,10,0:2:0:0:
330,156,33486,1,2,0:2:0:0:
124,131,33653,1,2,3:2:0:0:
279,49,33820,1,2,0:2:0:0:
166,224,33986,2,0,P|118:216|69:208,1,90,10|2,0:2|0:2,0:2:0:0:
256,303,34320,5,2,3:2:0:0:
330,156,34486,1,2,0:2:0:0:
407,327,34653,1,10,0:2:0:0:
263,214,34820,1,2,0:2:0:0:
423,142,34986,1,0,3:2:0:0:
254,36,35153,2,0,P|209:41|146:47,1,90,0|8,0:2|0:2,0:2:0:0:
77,209,35486,1,0,0:2:0:0:
261,258,35653,6,0,P|280:212|274:166,1,90,2|0,3:2|0:2,0:2:0:0:
77,209,35986,2,0,P|58:255|64:301,1,90,10|0,0:2|0:2,0:2:0:0:
149,152,36320,2,0,P|86:116|52:121,1,90,2|0,3:2|0:2,0:2:0:0:
191,315,36653,2,0,P|254:351|288:346,1,90,10|0,0:2|0:2,0:2:0:0:
424,213,36986,6,0,B|353:220|353:220|333:250|333:250|254:258,2,180,2|8|2,3:2|0:2|3:2,0:0:0:0:
416,318,37820,1,2,0:2:0:0:
260,257,37986,2,0,P|272:198|281:154,1,90,8|0,0:2|0:2,0:2:0:0:
220,41,38320,5,2,3:2:0:0:
379,104,38486,1,2,0:2:0:0:
189,172,38653,1,10,0:2:0:0:
311,37,38820,1,2,0:2:0:0:
139,1,38986,1,2,3:2:0:0:
281,135,39153,1,2,0:2:0:0:
103,223,39320,2,0,P|89:159|78:109,1,90,10|2,0:2|0:2,0:2:0:0:
65,327,39653,6,0,P|118:251|213:274,1,180,2|10,3:2|0:2,0:2:0:0:
313,360,40153,1,2,0:2:0:0:
373,238,40320,1,0,3:2:0:0:
196,259,40486,2,0,P|205:302|215:346,1,90,0|8,0:2|0:2,0:2:0:0:
373,238,40820,1,2,0:2:0:0:
233,153,40986,5,2,3:2:0:0:
373,238,41153,1,2,0:2:0:0:
196,259,41320,1,10,0:2:0:0:
353,141,41486,1,2,0:2:0:0:
397,326,41653,1,2,3:2:0:0:
279,251,41820,1,10,0:3:0:0:
430,171,41986,1,8,0:3:0:0:
294,54,42153,6,0,B|226:64|226:64|202:106|202:106|129:117,1,180,6|0,3:2|3:2,0:2:0:0:
0,266,42653,2,0,P|39:294|99:285,1,90,12|8,0:2|0:2,0:2:0:0:
242,242,42986,1,2,3:2:0:0:
68,170,43153,1,10,0:3:0:0:
175,320,43320,1,10,0:3:0:0:
205,127,43486,1,8,0:3:0:0:
356,213,43653,6,0,B|388:327|388:327|341:392,2,188.999994232178,6|0|0,3:2|3:2|0:0,0:0:0:0:
322,117,44820,1,2,0:2:0:0:
237,254,44986,5,0,3:2:0:0:
82,177,45153,2,0,P|94:101|105:28,1,144,8|0,0:2|3:2,0:2:0:0:
251,130,45653,2,0,P|294:121|344:112,1,72,10|2,0:2|0:2,0:2:0:0:
426,226,45986,2,0,P|382:217|333:208,1,72,0|0,0:2|0:2,0:2:0:0:
219,113,46320,6,0,P|170:102|107:215,1,188.999994232178,6|0,3:2|3:2,0:2:0:0:
167,304,46986,2,0,P|235:291|313:277,1,125.999996154785,8|2,0:2|0:2,0:2:0:0:
341,161,47486,1,2,0:2:0:0:
427,282,47653,5,0,3:2:0:0:
341,161,47820,1,8,0:3:0:0:
469,168,47986,1,0,0:2:0:0:
325,263,48153,1,0,3:2:0:0:
469,168,48320,1,10,0:2:0:0:
333,74,48486,1,0,3:2:0:0:
206,140,48653,2,0,P|167:164|100:160,1,94.499997116089,8|0,0:3|0:0,0:2:0:0:
20,211,48986,6,0,P|33:107|48:6,2,188.999994232178,6|2|2,3:2|3:2|0:2,0:0:0:0:
119,166,50153,1,0,0:2:0:0:
6,306,50320,5,2,3:2:0:0:
154,249,50486,2,0,P|230:228|304:258,1,144,10|0,0:2|3:2,0:2:0:0:
410,314,50986,2,0,P|400:353|390:410,1,72,10|0,0:2|0:2,0:2:0:0:
289,247,51320,2,0,P|296:211|304:176,1,72,2|0,0:2|0:2,0:2:0:0:
442,57,51653,6,0,P|453:120|470:223,1,144,6|0,3:2|0:2,0:2:0:0:
410,314,52153,1,0,3:2:0:0:
289,247,52320,2,0,P|256:252|201:262,2,72,8|0|2,0:2|0:2|0:2,0:2:0:0:
410,314,52820,1,2,0:2:0:0:
466,198,52986,5,8,0:2:0:0:
462,180,53070,1,8,0:3:0:0:
458,162,53153,1,0,3:2:0:0:
297,116,53320,1,12,0:2:0:0:
454,25,53486,1,2,3:2:0:0:
366,190,53653,1,10,0:2:0:0:
231,57,53820,2,0,L|243:8,1,36,10|8,0:2|0:2,0:2:0:0:
110,95,53986,1,10,0:2:0:0:
114,130,54070,1,8,0:2:0:0:
119,166,54153,1,10,0:2:0:0:
124,201,54236,1,8,0:2:0:0:
129,237,54320,5,6,3:2:0:0:
320,200,54486,1,2,0:2:0:0:
177,369,54653,1,10,0:2:0:0:
217,178,54820,1,2,3:2:0:0:
217,178,54903,1,8,0:3:0:0:
217,178,54986,1,0,3:2:0:0:
322,335,55153,2,0,P|369:323|424:311,1,90,2|8,3:2|0:2,0:2:0:0:
512,162,55486,1,0,3:2:0:0:
512,162,55570,1,8,0:3:0:0:
512,162,55653,5,2,3:2:0:0:
328,113,55820,1,0,3:2:0:0:
416,286,55986,1,10,0:2:0:0:
429,91,56153,1,2,3:2:0:0:
429,91,56236,1,8,0:3:0:0:
429,91,56320,1,0,3:2:0:0:
295,219,56486,2,0,P|245:224|200:189,1,90,2|8,3:2|0:2,0:2:0:0:
82,75,56820,1,0,3:2:0:0:
82,75,56903,1,8,0:3:0:0:
82,75,56986,5,2,3:2:0:0:
262,22,57153,1,0,0:2:0:0:
168,194,57320,2,0,P|179:245|191:290,1,90,10|0,0:2|3:2,0:2:0:0:
202,318,57570,1,8,0:3:0:0:
202,318,57653,1,2,3:2:0:0:
379,206,57820,1,2,0:2:0:0:
187,171,57986,1,8,0:2:0:0:
315,333,58153,1,2,3:2:0:0:
328,113,58320,5,14,0:2:0:0:
202,318,58486,1,10,0:2:0:0:
137,98,58653,1,2,3:2:0:0:
379,206,58820,1,8,0:2:0:0:
104,227,58986,5,10,0:2:0:0:
328,113,59153,1,8,0:3:0:0:
202,318,59320,1,6,0:3:0:0:
228,143,59486,1,4,0:3:0:0:
315,333,59653,5,6,3:2:0:0:
379,206,59986,1,2,0:2:0:0:
290,111,60320,2,0,P|236:105|182:102,1,107.999996704102,2|2,0:2|0:2,0:2:0:0:
18,197,60986,2,0,P|60:227|125:219,1,107.999996704102,2|2,0:2|0:2,0:2:0:0:
226,143,61653,6,0,P|233:78|242:2,2,121.499996292114,10|8|8,0:3|0:3|0:3,0:0:0:0:
219,254,62320,6,0,B|280:226|325:270|325:270|361:240|361:240|401:283|463:274,1,252,6|0,3:2|0:0,0:0:0:0:
435,187,62986,1,14,0:2:0:0:
354,360,63153,1,8,0:2:0:0:
354,360,63236,1,8,0:3:0:0:
354,360,63320,1,2,3:2:0:0:
219,254,63486,5,14,0:2:0:0:
219,254,63986,6,0,P|195:237|142:230,1,80.9999975280763,2|0,0:2|0:2,0:2:0:0:
60,186,64320,6,0,P|99:147|161:137,1,108,2|0,0:2|0:2,0:2:0:0:
237,96,64653,6,0,P|198:54|121:46,1,135,2|0,0:2|0:2,0:2:0:0:
149,135,64986,6,0,B|226:121|226:121|265:149|265:149|359:128,1,198.000006042481,6|8,3:2|0:2,0:2:0:0:
506,90,65486,1,0,0:2:0:0:
350,0,65653,1,2,3:2:0:0:
390,191,65820,2,0,P|449:218|502:208,1,99.0000030212403,2|8,0:2|0:2,0:2:0:0:
255,60,66153,6,0,P|204:67|150:76,1,99.0000030212403,2|0,0:2|3:2,0:2:0:0:
9,192,66486,1,2,0:2:0:0:
77,0,66653,1,8,0:2:0:0:
198,160,66820,2,0,P|219:206|214:269,1,99.0000030212403,2|0,0:2|3:2,0:2:0:0:
18,384,67153,2,0,P|8:327|-2:265,1,99.0000030212403,2|8,0:2|0:2,0:2:0:0:
109,154,67486,1,0,0:2:0:0:
245,283,67653,6,0,P|348:305|415:205,2,198.000006042481,2|8|2,3:2|0:2|3:2,0:2:0:0:
330,111,68486,2,0,P|384:123|441:137,1,99.0000030212403,2|8,0:2|0:2,0:2:0:0:
245,283,68820,6,0,P|205:313|128:305,1,99.0000030212403,2|0,0:2|3:2,0:2:0:0:
82,151,69153,1,2,0:2:0:0:
6,323,69320,1,8,0:2:0:0:
190,196,69486,1,2,0:2:0:0:
0,118,69653,1,0,3:2:0:0:
129,285,69820,2,0,P|183:294|241:304,1,99.0000030212403,2|8,0:2|0:2,0:2:0:0:
394,209,70153,1,2,0:2:0:0:
233,107,70320,5,6,3:2:0:0:
403,202,70486,1,0,0:2:0:0:
272,338,70653,2,0,B|190:322|190:322|164:294|164:294|78:279,1,198.000006042481,10|2,0:2|3:2,0:2:0:0:
17,103,71153,2,0,P|63:73|130:83,1,99.0000030212403,2|8,0:2|0:2,0:2:0:0:
190,196,71486,1,2,0:2:0:0:
345,96,71653,6,0,P|335:47|324:-6,1,99.0000030212403,0|0,3:2|0:2,0:2:0:0:
461,148,71986,2,0,P|398:212|281:206,1,198.000006042481,10|2,0:2|3:2,0:2:0:0:
141,79,72486,1,2,0:2:0:0:
230,269,72653,1,8,0:2:0:0:
345,96,72820,1,2,0:2:0:0:
151,193,72986,6,0,P|135:250|119:318,1,99.0000030212403,2|0,3:2|0:2,0:2:0:0:
373,242,73320,1,8,0:2:0:0:
228,111,73486,1,0,0:2:0:0:
315,311,73653,2,0,P|368:337|421:321,1,99.0000030212403,2|2,3:2|0:2,0:2:0:0:
345,96,73986,1,10,0:2:0:0:
230,269,74153,1,2,0:2:0:0:
43,97,74320,6,0,P|101:85|158:75,1,99.0000030212403,6|2,3:2|0:2,0:2:0:0:
327,287,74653,2,0,P|268:275|212:265,1,99.0000030212403,8|10,3:2|0:2,0:2:0:0:
156,249,74903,1,8,0:2:0:0:
156,249,74986,1,0,3:2:0:0:
301,117,75153,1,10,0:2:0:0:
345,96,75236,1,8,0:2:0:0:
394,100,75320,1,12,0:2:0:0:
435,127,75403,1,8,0:3:0:0:
459,170,75486,1,8,0:3:0:0:
459,219,75570,1,8,0:3:0:0:
436,262,75653,6,0,B|316:300|316:300|287:265|216:257,1,198.000006042481,6|8,3:2|0:2,0:2:0:0:
76,317,76153,1,0,0:2:0:0:
150,120,76320,1,2,3:2:0:0:
254,264,76486,2,0,P|277:318|272:365,1,99.0000030212403,2|8,0:2|0:2,0:2:0:0:
51,217,76820,6,0,P|37:152|27:102,1,99.0000030212403,2|0,0:2|3:2,0:2:0:0:
227,176,77153,1,2,0:2:0:0:
76,317,77320,1,8,0:2:0:0:
150,120,77486,2,0,P|198:83|256:83,1,99.0000030212403,2|0,0:2|3:2,0:2:0:0:
397,256,77820,1,2,0:2:0:0:
227,176,77986,1,8,0:2:0:0:
408,71,78153,1,0,0:2:0:0:
289,255,78320,6,0,P|189:273|127:179,2,198.000006042481,2|8|2,3:2|0:2|3:2,0:2:0:0:
459,137,79153,2,0,P|446:74|434:12,1,99.0000030212403,2|8,0:2|0:2,0:2:0:0:
246,78,79486,6,0,P|236:126|226:175,1,99.0000030212403,2|0,0:2|3:2,0:2:0:0:
335,345,79820,1,2,0:2:0:0:
166,260,79986,1,8,0:2:0:0:
353,180,80153,1,2,0:2:0:0:
212,355,80320,1,0,3:2:0:0:
101,177,80486,2,0,P|159:165|212:156,1,99.0000030212403,2|8,0:2|0:2,0:2:0:0:
342,261,80820,1,2,0:2:0:0:
167,356,80986,6,0,P|113:342|79:292,1,99.0000030212403,6|0,3:2|0:2,0:2:0:0:
197,64,81320,2,0,P|181:159|165:260,1,198.000006042481,10|2,0:2|3:2,0:2:0:0:
342,261,81820,1,2,0:2:0:0:
167,356,81986,1,8,0:2:0:0:
267,179,82153,1,2,0:2:0:0:
406,328,82320,6,0,P|456:360|511:356,1,99.0000030212403,0|0,3:2|0:2,0:2:0:0:
472,147,82653,2,0,B|394:136|394:136|370:103|370:103|277:93,1,198.000006042481,10|2,0:2|3:2,0:2:0:0:
165,259,83153,1,2,0:2:0:0:
78,82,83320,1,8,0:2:0:0:
267,179,83486,1,2,0:2:0:0:
85,323,83653,6,0,P|60:269|70:215,1,99.0000030212403,2|0,3:2|0:2,0:2:0:0:
198,75,83986,1,8,0:2:0:0:
310,278,84153,2,0,P|299:331|288:390,1,99.0000030212403,2|0,0:2|3:2,0:2:0:0:
165,259,84486,1,2,0:2:0:0:
292,94,84653,2,0,P|353:107|401:120,1,99.0000030212403,14|0,0:2|0:2,0:2:0:0:
397,300,84986,5,10,0:2:0:0:
397,300,85070,1,8,0:2:0:0:
397,300,85153,2,0,P|372:305|342:313,1,49.5000015106202,2|0,3:2|3:2,0:2:0:0:
116,247,85320,5,8,0:2:0:0:
116,247,85403,1,8,0:2:0:0:
116,247,85486,2,0,P|140:252|171:260,1,49.5000015106202,2|0,3:2|3:2,0:2:0:0:
378,147,85653,5,12,0:2:0:0:
257,323,85820,1,10,0:2:0:0:
257,323,85903,1,8,0:2:0:0:
257,323,85986,2,0,P|252:293|248:261,1,49.5000015106202,2|0,3:2|3:2,0:2:0:0:
182,139,86153,1,8,0:2:0:0:
185,114,86236,1,8,0:2:0:0:
189,90,86320,5,14,0:2:0:0:
378,147,86486,1,2,3:2:0:0:
201,264,86653,1,2,3:2:0:0:
324,51,86820,5,14,0:2:0:0:
420,246,86986,1,2,3:2:0:0:
195,174,87153,1,2,3:2:0:0:
414,47,87320,6,0,B|414:117|360:160|291:158|260:118|239:91|239:91|190:122|164:158|164:158|128:140|98:122|98:122|53:171|-15:178,1,539.999983520508,14|0,0:2|0:2,0:2:0:0:
