osu file format v14

[General]
AudioFilename: audio.mp3
AudioLeadIn: 0
PreviewTime: 63903
Countdown: 0
SampleSet: Soft
StackLeniency: 0.2
Mode: 0
LetterboxInBreaks: 0
WidescreenStoryboard: 1

[Editor]
DistanceSpacing: 1.2
BeatDivisor: 4
GridSize: 8
TimelineZoom: 1.4

[Metadata]
Title:Ai no Scenario (TV Size)
TitleUnicode:アイのシナリオ (TV Size)
Artist:CHiCO with HoneyWorks
ArtistUnicode:CHiCO with HoneyWorks
Creator:sanairrt
Version:Chu's Insane
Source:まじっく快斗1412
Tags:japanese jpop pop j-pop rock j-rock jrock anime op opening 2 a-1 pictures inc kuroba magic kaito 1412 黒羽快斗 Not DT Farmer Mocaotic arronchu1207 eclipselotus Time Capsule Chihara Minori kittyadventure gokugohan12468
BeatmapID:2658931
BeatmapSetID:1278201

[Difficulty]
HPDrainRate:5.5
CircleSize:4.2
OverallDifficulty:7.6
ApproachRate:9
SliderMultiplier:1.6
SliderTickRate:1

[Events]
//Background and Video events
0,0,"75836710_p0.jpg",0,0
Video,0,"Video (3).mp4"
//Break Periods
//Storyboard Layer 0 (Background)
//Storyboard Layer 1 (Fail)
//Storyboard Layer 2 (Pass)
//Storyboard Layer 3 (Foreground)
//Storyboard Layer 4 (Overlay)
//Storyboard Sound Samples

[TimingPoints]
987,333.333333333333,4,2,2,60,1,0
987,-153.846153846154,4,2,2,50,0,0
5820,-153.846153846154,4,2,2,60,0,0
6320,-153.846153846154,4,2,2,50,0,0
6570,-153.846153846154,4,2,2,5,0,0
6653,-153.846153846154,4,2,2,50,0,0
8986,-105.263157894737,4,2,2,70,0,0
9986,-222.222222222222,4,2,2,60,0,0
11570,-222.222222222222,4,2,2,5,0,0
11653,-153.846153846154,4,2,1,40,0,0
16320,-76.9230769230769,4,2,2,60,0,0
16986,-105.263157894737,4,2,2,70,0,0
17236,-105.263157894737,4,2,2,5,0,0
17320,-105.263157894737,4,2,2,70,0,0
19903,-105.263157894737,4,2,2,5,0,0
19986,-105.263157894737,4,2,2,70,0,0
22320,-125,4,2,2,50,0,0
32320,-105.263157894737,4,2,2,60,0,0
33403,-105.263157894737,4,2,2,5,0,0
33486,-105.263157894737,4,2,2,60,0,0
35903,-105.263157894737,4,2,2,5,0,0
35986,-105.263157894737,4,2,2,60,0,0
36570,-105.263157894737,4,2,2,5,0,0
36653,-105.263157894737,4,2,2,60,0,0
37236,-105.263157894737,4,2,2,5,0,0
37320,-105.263157894737,4,2,2,60,0,0
43653,-125,4,2,2,50,0,0
51570,-105.263157894737,4,2,2,5,0,0
51653,-125,4,2,2,50,0,0
52986,-105.263157894737,4,2,2,60,0,0
58320,-105.263157894737,4,2,2,70,0,0
58653,-105.263157894737,4,2,2,65,0,0
58986,-105.263157894737,4,2,2,60,0,0
59320,-105.263157894737,4,2,2,50,0,0
59653,-105.263157894737,4,2,2,40,0,0
61653,-166.666666666667,4,2,2,60,0,0
62320,-133.333333333333,4,2,2,60,0,0
62986,-76.9230769230769,4,2,2,60,0,0
63570,-105.263157894737,4,2,2,5,0,0
63986,-142.857142857143,4,2,2,60,0,0
64153,-142.857142857143,4,2,2,5,0,0
64320,-142.857142857143,4,2,2,60,0,0
64486,-142.857142857143,4,2,2,5,0,0
64653,-142.857142857143,4,2,2,60,0,0
64820,-142.857142857143,4,2,2,5,0,0
64986,-95.2380952380952,4,2,2,80,0,1
65236,-105.263157894737,4,2,2,5,0,1
65320,-95.2380952380952,4,2,2,80,0,1
67903,-105.263157894737,4,2,2,5,0,1
67986,-95.2380952380952,4,2,2,80,0,1
70570,-105.263157894737,4,2,2,5,0,1
70653,-95.2380952380952,4,2,2,80,0,1
71903,-105.263157894737,4,2,2,5,0,1
71986,-95.2380952380952,4,2,2,80,0,1
73236,-105.263157894737,4,2,2,5,0,1
73320,-95.2380952380952,4,2,2,80,0,1
75903,-105.263157894737,4,2,2,5,0,1
75986,-95.2380952380952,4,2,2,80,0,1
78570,-105.263157894737,4,2,2,5,0,1
78653,-95.2380952380952,4,2,2,80,0,1
81236,-105.263157894737,4,2,2,5,0,1
81320,-95.2380952380952,4,2,2,80,0,1
82570,-105.263157894737,4,2,2,5,0,1
82653,-95.2380952380952,4,2,2,80,0,1
83903,-105.263157894737,4,2,2,5,0,1
83986,-95.2380952380952,4,2,2,80,0,1
86320,-95.2380952380952,4,2,2,80,0,0
87320,-105.263157894737,4,2,2,60,0,0
88986,-105.263157894737,4,2,2,5,0,0

[Colours]
Combo1 : 172,172,255
Combo2 : 128,128,128
Combo3 : 77,77,255
Combo4 : 255,128,128

[HitObjects]
180,99,987,6,0,L|67:85,2,103.999995239258,6|0|2,3:2|3:2|3:2,0:2:0:0:
258,55,1820,2,0,P|267:21|265:-4,1,51.999997619629,2|0,0:2|3:2,0:2:0:0:
180,99,2153,6,0,L|191:160,1,51.999997619629,2|0,0:2|3:2,0:0:0:0:
272,185,2486,2,0,L|311:151,1,51.999997619629,2|0,0:2|3:2,0:0:0:0:
189,150,2820,2,0,P|182:192|188:212,1,51.999997619629,2|0,0:2|3:2,0:0:0:0:
240,273,3153,2,0,L|351:287,1,103.999995239258,2|0,0:2|0:2,0:0:0:0:
451,242,3653,6,0,P|481:218|475:143,2,103.999995239258,2|0|2,3:2|3:2|3:2,0:2:0:0:
379,195,4486,2,0,L|375:142,1,51.999997619629,2|0,0:2|3:2,0:2:0:0:
325,72,4820,2,0,L|329:19,1,51.999997619629,2|0,0:2|3:2,0:0:0:0:
375,143,5153,6,0,P|351:155|322:158,1,51.999997619629,2|0,0:2|3:2,0:0:0:0:
287,37,5486,2,0,P|309:51|326:75,1,51.999997619629,2|0,0:2|3:2,0:0:0:0:
240,167,5820,2,0,P|241:140|253:113,1,51.999997619629,14|0,0:2|3:2,0:0:0:0:
326,158,6153,1,14,0:2:0:0:
266,264,6320,6,0,L|178:253,1,77.9999964294435,6|0,3:2|0:0,0:2:0:0:
182,263,6653,2,0,L|186:322,1,51.999997619629,2|0,3:2|0:0,0:2:0:0:
81,375,6986,1,2,3:2:0:0:
81,375,7153,2,0,L|84:323,1,51.999997619629,2|0,0:2|3:2,0:2:0:0:
24,231,7486,2,0,L|16:112,1,103.999995239258,2|0,0:2|0:2,0:0:0:0:
79,54,7986,6,0,P|111:47|137:55,1,51.999997619629,2|0,3:2|0:2,0:2:0:0:
211,104,8320,1,2,3:2:0:0:
211,104,8486,2,0,P|243:111|269:103,1,51.999997619629,2|0,0:2|0:2,0:0:0:0:
341,51,8820,1,2,0:2:0:0:
430,132,8986,5,14,0:2:0:0:
417,222,9153,1,0,3:2:0:0:
404,312,9320,1,0,3:2:0:0:
282,365,9486,5,14,0:2:0:0:
225,292,9653,1,0,3:2:0:0:
315,278,9820,1,2,3:2:0:0:
153,356,9986,6,0,B|111:362|87:328|87:328|94:302|94:302|62:281|60:240|60:240|92:212|93:174,1,251.999992309571,14|0,0:2|0:0,0:0:0:0:
8,170,11236,1,2,0:2:0:0:
5,162,11320,2,0,L|11:97,1,53.9999983520508,2|0,0:2|0:2,0:2:0:0:
64,40,11653,5,2,0:2:0:0:
64,40,11820,2,0,L|129:31,1,51.999997619629,2|8,0:2|0:2,0:2:0:0:
248,90,12153,5,2,0:2:0:0:
248,90,12320,2,0,L|183:81,1,51.999997619629,2|0,0:2|0:0,0:0:0:0:
64,140,12653,5,10,0:2:0:0:
64,140,12820,2,0,L|129:131,1,51.999997619629,2|0,0:2|3:2,0:2:0:0:
248,190,13153,5,2,0:2:0:0:
248,190,13320,2,0,L|183:181,1,51.999997619629,10|0,0:2|0:2,0:2:0:0:
106,283,13653,5,2,0:2:0:0:
213,271,13820,1,2,0:2:0:0:
106,283,13986,1,10,0:2:0:0:
213,271,14153,1,2,0:2:0:0:
39,341,14320,5,2,3:2:0:0:
39,341,14486,2,0,P|22:311|19:290,1,51.999997619629,2|8,0:2|0:2,0:2:0:0:
125,236,14820,5,2,0:2:0:0:
125,236,14986,2,0,P|120:261|106:283,1,51.999997619629,2|0,0:0|0:0,0:0:0:0:
68,173,15320,5,10,0:2:0:0:
68,173,15486,2,0,P|51:143|48:122,1,51.999997619629,2|0,0:2|3:2,0:2:0:0:
154,68,15820,5,2,0:2:0:0:
155,68,15986,2,0,P|149:93|135:114,1,51.999997619629,10|0,0:2|0:2,0:2:0:0:
48,219,16320,6,0,P|53:193|67:172,1,51.999997619629,10|8,0:2|0:3,0:0:0:0:
206,167,16486,1,2,3:2:0:0:
209,175,16570,1,0,3:2:0:0:
212,183,16653,2,0,L|205:237,1,51.999997619629,14|2,0:2|0:2,0:0:0:0:
129,322,16820,2,0,L|122:270,1,51.999997619629,2|2,0:2|0:2,0:0:0:0:
212,183,16986,6,0,B|335:194,1,113.999996955872,6|0,3:2|0:0,0:2:0:0:
396,242,17320,2,0,B|412:209|412:209|405:156,1,75.9999979705811,8|0,0:2|0:2,0:0:0:0:
308,24,17653,1,2,3:2:0:0:
387,80,17820,2,0,L|468:70,1,75.9999979705811,2|10,0:2|0:2,0:2:0:0:
308,24,18153,2,0,B|246:34|246:34|226:55|226:55|166:63,1,151.999995941162,2|0,0:2|0:2,0:0:0:0:
82,118,18653,2,0,L|88:194,1,75.9999979705811,10|0,0:2|0:2,0:2:0:0:
215,294,18986,2,0,L|221:218,1,75.9999979705811,2|0,3:2|0:2,0:0:0:0:
166,63,19320,2,0,L|172:139,1,75.9999979705811,10|0,0:2|0:2,0:0:0:0:
307,250,19653,6,0,P|350:261|418:231,1,113.999996955872,2|0,3:2|0:0,0:2:0:0:
454,162,19986,2,0,P|483:184|493:232,1,75.9999979705811,8|0,0:2|0:2,0:0:0:0:
359,138,20320,1,2,3:2:0:0:
416,66,20486,2,0,L|491:54,1,75.9999979705811,2|8,0:2|0:2,0:2:0:0:
359,138,20820,2,0,B|325:138|298:108|298:108|251:113|228:149,1,151.999995941162,2|0,0:2|0:2,0:0:0:0:
188,227,21320,2,0,L|204:307,1,75.9999979705811,10|0,0:2|0:2,0:0:0:0:
79,374,21653,5,2,3:2:0:0:
75,368,21736,1,0,3:2:0:0:
71,362,21820,2,0,P|73:331|78:315,1,37.9999989852906,0|8,3:2|0:2,0:0:0:0:
19,268,21986,1,10,0:2:0:0:
22,261,22070,1,0,3:2:0:0:
25,255,22153,2,0,P|52:241|69:237,1,37.9999989852906,8|8,0:2|0:2,0:0:0:0:
143,261,22320,6,0,L|152:195,1,64,6|0,3:2|0:2,0:2:0:0:
215,134,22653,2,0,L|206:70,1,64,2|0,3:2|0:2,0:2:0:0:
267,5,22986,1,2,3:2:0:0:
267,5,23153,1,2,0:2:0:0:
121,89,23320,2,0,P|81:85|53:77,1,64,2|2,3:2|0:2,0:0:0:0:
3,7,23653,5,2,3:2:0:0:
58,78,23820,2,0,L|53:148,1,64,2|0,0:2|3:2,0:2:0:0:
35,229,24153,2,0,B|66:236|97:219|97:219|136:229|152:271,1,128,2|0,0:2|0:2,0:0:0:0:
222,211,24653,2,0,L|214:148,1,64,0|0,3:2|0:2,0:2:0:0:
295,267,24986,6,0,L|286:346,1,64,2|0,3:2|0:2,0:2:0:0:
393,378,25320,2,0,L|385:314,1,64,2|0,3:2|0:2,0:2:0:0:
375,223,25653,6,0,L|454:232,1,64,2|0,3:2|0:2,0:2:0:0:
480,109,25986,2,0,L|416:116,1,64,2|0,3:2|0:2,0:2:0:0:
327,145,26320,6,0,B|322:85|322:85|326:77|326:77|321:15,2,128,2|0|2,3:2|3:2|3:2,0:2:0:0:
233,49,27153,1,2,0:2:0:0:
233,49,27320,2,0,L|170:55,1,64,0|0,3:2|0:2,0:2:0:0:
69,192,27653,5,2,3:2:0:0:
156,209,27820,1,2,0:2:0:0:
243,227,27986,1,2,3:2:0:0:
243,227,28153,1,2,0:2:0:0:
340,116,28320,5,2,3:2:0:0:
320,29,28486,1,2,0:2:0:0:
233,49,28653,1,2,3:2:0:0:
253,136,28820,1,2,0:2:0:0:
399,196,28986,6,0,B|437:193|459:169|459:169|495:176|512:200,1,128,2|2,3:2|3:2,0:2:0:0:
392,287,29486,2,0,L|265:274,1,128,2|0,0:2|0:2,0:0:0:0:
192,327,29986,1,0,3:2:0:0:
105,227,30153,6,0,P|85:180|111:108,1,128,2|2,0:2|0:2,0:0:0:0:
240,168,30653,2,0,L|173:171,1,64,2|2,3:2|0:2,0:0:0:0:
235,48,30986,1,2,3:2:0:0:
235,48,31153,2,0,L|298:50,1,64,2|0,0:2|3:2,0:2:0:0:
389,149,31486,1,10,0:2:0:0:
389,149,31820,6,0,P|423:141|459:140,2,64,2|2|2,0:2|0:2|0:2,0:2:0:0:
326,224,32320,1,14,0:2:0:0:
332,230,32403,1,8,0:2:0:0:
338,236,32486,2,0,P|341:267|338:281,1,37.9999989852906,10|8,0:2|0:2,0:0:0:0:
258,264,32653,1,10,0:2:0:0:
249,265,32736,1,8,0:2:0:0:
241,267,32820,2,0,P|212:254|202:244,1,37.9999989852906,10|8,0:2|0:2,0:0:0:0:
169,174,32986,5,6,3:2:0:0:
67,242,33153,2,0,L|78:365,1,113.999996955872,2|0,0:2|0:0,0:0:0:0:
86,364,33486,1,2,0:2:0:0:
241,311,33653,2,0,L|164:301,1,75.9999979705811,2|2,3:2|0:2,0:0:0:0:
307,380,33986,2,0,P|343:364|388:358,1,75.9999979705811,10|2,0:2|0:2,0:2:0:0:
509,229,34320,5,2,3:2:0:0:
428,276,34486,2,0,L|344:261,1,75.9999979705811,2|10,0:2|0:2,0:0:0:0:
268,170,34820,2,0,B|224:171|200:202|200:202|151:205|123:172,1,151.999995941162,2|0,0:2|0:2,0:0:0:0:
77,103,35320,2,0,L|84:24,1,75.9999979705811,8|0,0:2|0:2,0:0:0:0:
254,3,35653,6,0,P|301:2|353:56,1,113.999996955872,2|0,3:2|0:0,0:2:0:0:
426,78,35986,2,0,L|505:65,1,75.9999979705811,10|0,0:2|0:2,0:2:0:0:
398,197,36320,2,0,B|343:213|343:213|291:179,1,113.999996955872,2|0,3:2|0:0,0:2:0:0:
213,212,36653,2,0,L|209:298,1,75.9999979705811,10|0,0:2|0:2,0:2:0:0:
108,372,36986,6,0,P|51:360|25:302,1,113.999996955872,2|0,3:2|0:0,0:0:0:0:
54,234,37320,2,0,L|59:157,1,75.9999979705811,8|0,0:2|0:2,0:0:0:0:
36,20,37653,1,2,3:2:0:0:
111,70,37820,2,0,B|151:93|187:82|187:82|213:49|254:45,1,151.999995941162,2|0,0:2|0:2,0:0:0:0:
329,7,38320,5,2,3:2:0:0:
416,160,38486,1,2,0:2:0:0:
471,81,38653,2,0,L|377:67,1,75.9999979705811,10|2,0:2|0:2,0:0:0:0:
315,124,38986,5,2,3:2:0:0:
425,284,39153,1,2,0:2:0:0:
333,311,39320,5,10,0:2:0:0:
416,160,39486,1,2,0:2:0:0:
506,233,39653,6,0,L|495:385,1,151.999995941162,2|10,3:2|0:2,0:2:0:0:
333,311,40153,2,0,B|292:300|272:267|272:267|228:265|181:296,1,151.999995941162,2|0,0:2|0:2,0:0:0:0:
123,328,40653,2,0,L|44:309,1,75.9999979705811,8|2,0:2|0:2,0:0:0:0:
0,227,40986,5,2,3:2:0:0:
122,146,41153,1,2,0:2:0:0:
25,61,41320,2,0,L|35:144,1,75.9999979705811,10|2,0:2|0:2,0:0:0:0:
105,240,41653,1,2,3:2:0:0:
192,130,41820,2,0,P|146:131|115:152,1,75.9999979705811,10|8,0:3|0:3,0:0:0:0:
272,196,42153,6,0,L|437:179,1,151.999995941162,6|0,3:2|3:2,0:2:0:0:
495,120,42653,1,12,0:2:0:0:
380,6,42820,1,8,0:2:0:0:
375,11,42903,1,8,0:2:0:0:
373,18,42986,2,0,L|385:97,1,75.9999979705811,2|10,3:2|0:3,0:0:0:0:
423,180,43320,2,0,L|411:259,1,75.9999979705811,10|8,0:3|0:3,0:0:0:0:
308,331,43653,6,0,B|278:306|250:306|250:306|228:333|190:338,1,128,6|2,3:2|0:2,0:0:0:0:
111,302,44153,1,0,3:2:0:0:
186,177,44320,1,10,0:2:0:0:
186,177,44486,2,0,L|319:193,1,128,2|2,0:2|0:2,0:0:0:0:
392,146,44986,5,0,3:2:0:0:
302,280,45153,1,8,0:2:0:0:
392,146,45320,2,0,L|384:80,1,64,2|0,0:2|3:2,0:0:0:0:
279,26,45653,1,10,0:2:0:0:
279,26,45820,2,0,B|212:11|223:61|148:41,1,128,2|0,0:2|0:2,0:0:0:0:
13,0,46320,6,0,L|30:141,1,128,6|0,3:2|0:0,0:2:0:0:
95,251,46820,1,0,3:2:0:0:
169,179,46986,2,0,L|97:164,1,64,8|0,0:2|0:0,0:2:0:0:
218,274,47320,2,0,P|248:260|289:256,1,64,2|2,0:2|0:2,0:0:0:0:
366,269,47653,5,0,3:2:0:0:
296,166,47820,1,8,0:3:0:0:
393,99,47986,2,0,L|383:162,1,64,0|0,0:2|3:2,0:0:0:0:
278,255,48320,1,10,0:2:0:0:
189,240,48486,1,0,3:2:0:0:
281,263,48653,1,8,0:3:0:0:
188,233,48820,1,2,0:0:0:0:
93,303,48986,6,0,P|88:227|77:165,1,128,6|2,3:2|0:2,0:0:0:0:
92,65,49486,1,2,3:2:0:0:
235,121,49653,2,0,L|159:130,1,64,8|0,0:2|0:0,0:0:0:0:
220,274,49986,2,0,P|224:231|214:209,1,64,2|0,0:2|0:2,0:0:0:0:
124,255,50320,5,2,3:2:0:0:
260,384,50486,2,0,P|228:359|133:366,1,128,10|0,0:2|3:2,0:2:0:0:
317,298,50986,2,0,P|347:306|379:301,1,64,10|0,0:2|0:2,0:2:0:0:
482,200,51320,2,0,L|469:91,1,96,2|0,0:2|0:0,0:2:0:0:
479,91,51653,6,0,L|491:20,1,64,6|0,3:2|0:0,0:2:0:0:
353,0,51986,2,0,L|363:63,1,64,0|0,0:2|3:2,0:0:0:0:
288,151,52320,2,0,B|257:142|241:118|241:118|201:120|177:148,1,128,8|2,0:2|0:2,0:2:0:0:
114,208,52820,1,2,0:2:0:0:
3,98,52986,1,8,0:2:0:0:
9,104,53070,1,8,0:3:0:0:
15,110,53153,6,0,L|91:101,1,75.9999979705811,0|12,3:2|0:2,0:0:0:0:
142,21,53486,1,2,3:2:0:0:
249,118,53653,2,0,L|241:204,1,75.9999979705811,10|10,0:2|0:2,0:0:0:0:
300,260,53903,1,8,0:2:0:0:
307,265,53986,2,0,L|354:259,1,37.9999989852906,10|8,0:2|0:2,0:0:0:0:
412,201,54153,2,0,L|459:207,1,37.9999989852906,10|8,0:2|0:2,0:0:0:0:
504,274,54320,6,0,P|510:313|495:355,1,75.9999979705811,6|2,3:2|0:2,0:0:0:0:
419,384,54653,1,10,0:2:0:0:
344,260,54820,1,2,3:2:0:0:
345,252,54903,1,8,0:3:0:0:
346,244,54986,6,0,L|356:165,1,75.9999979705811,0|2,3:2|3:2,0:0:0:0:
368,80,55320,1,8,0:2:0:0:
244,17,55486,1,0,3:2:0:0:
239,22,55570,1,8,0:3:0:0:
238,29,55653,6,0,L|248:109,1,75.9999979705811,2|0,3:2|3:2,0:0:0:0:
189,175,55986,1,10,0:2:0:0:
43,129,56153,1,2,3:2:0:0:
45,121,56236,1,8,0:3:0:0:
50,114,56320,6,0,P|85:99|124:104,1,75.9999979705811,0|2,3:2|3:2,0:0:0:0:
189,175,56653,1,8,0:2:0:0:
93,325,56820,1,0,3:2:0:0:
92,318,56903,1,8,0:3:0:0:
91,311,56986,6,0,L|81:231,1,75.9999979705811,2|0,3:2|0:2,0:0:0:0:
209,381,57320,2,0,L|219:301,1,75.9999979705811,10|0,0:2|3:2,0:2:0:0:
220,298,57570,1,8,0:3:0:0:
221,291,57653,5,2,3:2:0:0:
290,168,57820,1,2,0:2:0:0:
379,267,57986,2,0,L|298:253,1,75.9999979705811,8|2,0:2|3:2,0:0:0:0:
171,174,58320,5,14,0:2:0:0:
152,85,58486,1,10,0:2:0:0:
213,17,58653,1,2,3:2:0:0:
213,17,58820,1,8,0:2:0:0:
378,126,58986,5,10,0:2:0:0:
367,216,59153,1,8,0:3:0:0:
277,205,59320,1,6,0:3:0:0:
288,115,59486,1,4,0:3:0:0:
451,60,59653,5,6,3:2:0:0:
499,140,60320,1,2,0:2:0:0:
451,220,60986,1,2,0:2:0:0:
499,300,61653,2,0,L|489:375,2,71.9999978027344,10|8|8,0:3|0:3|0:3,0:0:0:0:
451,220,62320,6,0,P|383:207|299:275,1,180.000006866455,6|0,3:2|0:0,0:0:0:0:
281,367,62986,5,14,0:2:0:0:
173,312,63153,1,8,0:2:0:0:
166,314,63236,1,8,0:3:0:0:
159,315,63320,1,2,3:2:0:0:
59,255,63486,2,0,L|67:202,1,51.999997619629,14|0,0:2|0:0,0:0:0:0:
66,203,63986,6,0,L|60:146,1,55.9999982910157,2|0,0:2|0:0,0:2:0:0:
79,209,64320,6,0,L|73:152,1,55.9999982910157,2|0,0:2|0:0,0:2:0:0:
92,215,64653,6,0,L|86:158,1,55.9999982910157,2|0,0:2|0:0,0:2:0:0:
286,106,64986,6,0,L|415:119,1,125.999996154785,6|0,3:2|0:0,0:2:0:0:
482,169,65320,2,0,B|487:214|487:214|466:253,1,83.9999974365235,8|0,0:2|0:2,0:0:0:0:
356,384,65653,1,2,3:2:0:0:
302,298,65820,2,0,L|392:290,1,83.9999974365235,2|8,0:2|0:2,0:2:0:0:
248,383,66153,6,0,P|211:360|166:353,1,83.9999974365235,2|0,0:2|3:2,0:2:0:0:
17,251,66486,2,0,P|58:243|93:220,1,83.9999974365235,2|8,0:2|0:2,0:0:0:0:
255,378,66820,2,0,P|218:355|173:348,1,83.9999974365235,2|0,0:2|3:2,0:2:0:0:
10,245,67153,2,0,P|51:237|86:214,1,83.9999974365235,2|8,0:2|0:2,0:2:0:0:
190,29,67486,1,0,0:2:0:0:
184,33,67570,1,2,0:0:0:0:
181,40,67653,6,0,L|201:168,1,125.999996154785,2|0,3:2|0:0,0:2:0:0:
290,251,67986,2,0,P|298:208|273:164,1,83.9999974365235,8|0,0:2|0:0,0:0:0:0:
205,302,68320,1,2,3:2:0:0:
283,358,68486,2,0,L|373:349,1,83.9999974365235,2|8,0:2|0:2,0:2:0:0:
493,288,68820,6,0,P|483:246|481:197,1,83.9999974365235,2|0,0:2|3:2,0:2:0:0:
372,87,69153,2,0,P|369:128|359:169,1,83.9999974365235,2|8,0:2|0:2,0:0:0:0:
500,285,69486,2,0,P|490:244|487:202,1,83.9999974365235,2|0,0:2|3:2,0:0:0:0:
369,80,69820,2,0,P|366:121|356:162,1,83.9999974365235,2|8,0:2|0:2,0:2:0:0:
262,108,70153,1,2,0:2:0:0:
413,255,70320,6,0,L|397:383,1,125.999996154785,6|0,3:2|0:0,0:0:0:0:
310,368,70653,2,0,P|292:321|302:281,1,83.9999974365235,10|0,0:2|0:0,0:2:0:0:
411,158,70986,1,2,3:2:0:0:
496,263,71153,2,0,L|411:254,1,83.9999974365235,2|8,0:2|0:2,0:2:0:0:
265,193,71486,1,2,0:2:0:0:
261,186,71570,1,2,0:0:0:0:
262,178,71653,6,0,L|279:48,1,125.999996154785,0|0,3:2|0:0,0:2:0:0:
366,16,71986,2,0,P|375:64|347:110,1,83.9999974365235,10|0,0:2|0:0,0:2:0:0:
262,178,72320,1,2,3:2:0:0:
195,40,72486,2,0,L|284:54,1,83.9999974365235,2|8,0:2|0:2,0:0:0:0:
132,132,72820,1,2,0:2:0:0:
128,140,72903,1,2,0:0:0:0:
121,144,72986,6,0,B|83:156|49:144|49:144|28:168|45:195,1,125.999996154785,2|0,3:2|0:0,0:2:0:0:
88,262,73320,2,0,L|74:349,1,83.9999974365235,8|0,0:2|0:2,0:0:0:0:
168,313,73653,1,2,3:2:0:0:
43,192,73820,1,2,0:2:0:0:
168,313,73986,2,0,L|252:306,1,83.9999974365235,10|2,0:2|0:2,0:0:0:0:
397,225,74320,5,6,3:2:0:0:
344,376,74486,2,0,P|334:332|347:290,1,83.9999974365235,2|8,0:2|3:2,0:0:0:0:
484,200,74820,1,10,0:2:0:0:
492,202,74903,1,8,0:2:0:0:
500,204,74986,1,0,3:2:0:0:
359,122,75153,5,10,0:2:0:0:
353,116,75236,1,8,0:2:0:0:
347,110,75320,2,0,L|303:104,1,41.9999987182618,12|8,0:2|0:3,0:0:0:0:
218,191,75486,2,0,L|259:185,1,41.9999987182618,8|8,0:3|0:3,0:0:0:0:
157,118,75653,6,0,B|99:100|99:100|35:130,1,125.999996154785,6|0,3:2|0:0,0:2:0:0:
7,206,75986,2,0,L|16:294,1,83.9999974365235,8|0,0:2|0:2,0:0:0:0:
106,380,76320,1,2,3:2:0:0:
193,268,76486,2,0,P|146:264|105:289,1,83.9999974365235,2|8,0:2|0:2,0:2:0:0:
263,348,76820,6,0,L|350:337,1,83.9999974365235,2|0,0:2|3:2,0:2:0:0:
495,234,77153,2,0,L|408:223,1,83.9999974365235,2|8,0:2|0:2,0:0:0:0:
261,355,77486,2,0,L|348:344,1,83.9999974365235,2|0,0:2|3:2,0:2:0:0:
493,225,77820,2,0,L|406:214,1,83.9999974365235,2|8,0:2|0:2,0:0:0:0:
303,68,78153,1,0,0:2:0:0:
309,73,78236,1,2,0:0:0:0:
312,80,78320,6,0,L|299:214,1,125.999996154785,2|0,3:2|0:0,0:2:0:0:
203,276,78653,2,0,P|198:231|224:190,1,83.9999974365235,8|0,0:2|0:0,0:0:0:0:
293,318,78986,1,2,3:2:0:0:
190,375,79153,2,0,L|96:358,1,83.9999974365235,2|8,0:2|0:2,0:2:0:0:
16,277,79486,6,0,P|16:238|34:191,1,83.9999974365235,2|0,0:2|3:2,0:2:0:0:
174,128,79820,2,0,P|188:167|188:209,1,83.9999974365235,2|8,0:2|0:2,0:0:0:0:
9,281,80153,2,0,P|9:242|27:195,1,83.9999974365235,2|0,0:2|3:2,0:0:0:0:
181,124,80486,2,0,P|195:163|195:205,1,83.9999974365235,2|8,0:2|0:2,0:2:0:0:
108,259,80820,1,2,0:2:0:0:
264,384,80986,6,0,L|276:246,1,125.999996154785,6|0,3:2|0:0,0:2:0:0:
337,191,81320,2,0,B|377:181|377:181|421:198,1,83.9999974365235,10|0,0:2|0:0,0:2:0:0:
509,301,81653,1,2,3:2:0:0:
382,360,81820,2,0,L|374:270,1,83.9999974365235,2|8,0:2|0:2,0:0:0:0:
300,88,82153,1,2,0:2:0:0:
296,98,82236,1,2,0:0:0:0:
291,106,82320,6,0,P|249:132|172:108,1,125.999996154785,0|0,3:2|0:0,0:2:0:0:
106,24,82653,2,0,L|202:27,1,83.9999974365235,10|0,0:2|0:0,0:2:0:0:
291,106,82986,1,2,3:2:0:0:
184,194,83153,2,0,P|171:143|183:103,1,83.9999974365235,2|8,0:2|0:2,0:0:0:0:
313,229,83486,1,2,0:2:0:0:
320,234,83570,1,2,0:0:0:0:
324,241,83653,6,0,B|336:280|323:314|323:314|299:319|277:346,1,125.999996154785,2|0,3:2|0:0,0:2:0:0:
205,384,83986,2,0,L|117:371,1,83.9999974365235,8|2,0:2|0:2,0:0:0:0:
43,205,84320,1,0,3:2:0:0:
163,278,84486,1,2,0:2:0:0:
39,380,84653,2,0,P|29:333|46:289,1,83.9999974365235,14|0,0:2|0:2,0:2:0:0:
166,180,84986,5,10,0:2:0:0:
173,174,85070,1,8,0:2:0:0:
182,171,85153,2,0,P|207:172|225:176,1,41.9999987182618,2|0,3:2|3:2,0:2:0:0:
277,112,85320,1,8,0:2:0:0:
285,115,85403,1,8,0:2:0:0:
292,121,85486,2,0,P|303:143|309:160,1,41.9999987182618,2|0,3:2|3:2,0:2:0:0:
283,246,85653,1,12,0:2:0:0:
162,350,85820,5,10,0:2:0:0:
158,343,85903,1,8,0:2:0:0:
155,336,85986,2,0,L|158:293,1,41.9999987182618,2|0,3:2|3:2,0:2:0:0:
82,234,86153,2,0,L|79:191,1,41.9999987182618,8|8,0:2|0:2,0:0:0:0:
155,121,86320,5,14,0:2:0:0:
298,96,86486,1,2,3:2:0:0:
248,232,86653,1,2,3:2:0:0:
219,67,86820,5,14,0:2:0:0:
313,178,86986,1,2,3:2:0:0:
170,204,87153,1,2,3:2:0:0:
298,96,87320,5,14,0:2:0:0:
256,192,87403,12,0,88986,0:2:0:0:
