osu file format v14

[General]
AudioFilename: audio.mp3
AudioLeadIn: 0
PreviewTime: 63903
Countdown: 0
SampleSet: Soft
StackLeniency: 0.7
Mode: 0
LetterboxInBreaks: 0
WidescreenStoryboard: 1

[Editor]
DistanceSpacing: 1.4
BeatDivisor: 4
GridSize: 8
TimelineZoom: 2

[Metadata]
Title:Ai no Scenario (TV Size)
TitleUnicode:アイのシナリオ (TV Size)
Artist:CHiCO with HoneyWorks
ArtistUnicode:CHiCO with HoneyWorks
Creator:sanairrt
Version:Chihara's Hard
Source:まじっく快斗1412
Tags:japanese jpop pop j-pop rock j-rock jrock anime op opening 2 a-1 pictures inc kuroba magic kaito 1412 黒羽快斗 Not DT Farmer Mocaotic arronchu1207 eclipselotus Time Capsule Chihara Minori kittyadventure gokugohan12468
BeatmapID:2656657
BeatmapSetID:1278201

[Difficulty]
HPDrainRate:5
CircleSize:3.8
OverallDifficulty:6
ApproachRate:7.5
SliderMultiplier:1.4
SliderTickRate:1

[Events]
//Background and Video events
0,0,"75836710_p0.jpg",0,0
Video,0,"Video (3).mp4"
//Break Periods
2,11853,13495
//Storyboard Layer 0 (Background)
//Storyboard Layer 1 (Fail)
//Storyboard Layer 2 (Pass)
//Storyboard Layer 3 (Foreground)
//Storyboard Layer 4 (Overlay)
//Storyboard Sound Samples

[TimingPoints]
987,333.333333333333,4,2,2,60,1,0
987,-125,4,2,2,50,0,0
8986,-125,4,2,2,70,0,0
11653,-142.857142857143,4,2,1,40,0,0
16320,-142.857142857143,4,2,2,60,0,0
16986,-100,4,2,2,70,0,0
22320,-125,4,2,2,50,0,0
32320,-125,4,2,2,60,0,0
32986,-100,4,2,2,60,0,0
43653,-125,4,2,2,50,0,0
52986,-125,4,2,2,60,0,0
54320,-125,4,2,2,60,0,0
59653,-142.857142857143,4,2,2,60,0,0
64986,-100,4,2,2,80,0,1
86320,-100,4,2,2,70,0,0
87320,-142.857142857143,4,2,2,60,0,0
88986,-166.666666666667,4,2,2,5,0,0

[Colours]
Combo1 : 172,172,255
Combo2 : 128,128,128
Combo3 : 77,77,255
Combo4 : 255,128,128

[HitObjects]
55,239,986,6,0,P|2:281|0:349,2,140,6|0|2,3:2|3:2|3:2,0:2:0:0:
103,176,1820,2,0,P|130:183|156:191,1,56,2|0,0:2|3:2,0:2:0:0:
230,163,2153,2,0,P|243:216|253:283,1,112,2|2,0:2|0:2,0:0:0:0:
262,350,2653,1,0,3:2:0:0:
262,350,2820,2,0,L|371:327,1,112,2|2,0:2|0:2,0:0:0:0:
447,345,3320,1,0,3:2:0:0:
466,189,3653,6,0,P|474:133|488:79,2,112,2|0|2,3:2|3:2|3:2,0:2:0:0:
402,234,4486,2,0,P|374:241|348:249,1,56,2|0,0:2|3:2,0:2:0:0:
292,305,4820,2,0,B|262:300|236:314|236:314|210:331|180:323,1,112,2|2,0:2|0:2,0:0:0:0:
106,332,5320,1,0,3:2:0:0:
106,332,5486,2,0,L|83:222,1,112,2|14,0:2|0:2,0:0:0:0:
22,172,5986,1,0,3:2:0:0:
70,110,6153,1,14,0:2:0:0:
56,21,6320,6,0,B|86:16|111:30|111:30|138:47|168:39,1,112,6|2,3:2|3:2,0:2:0:0:
236,71,6820,1,0,0:0:0:0:
236,71,6986,2,0,P|243:97|251:124,1,56,2|2,3:2|0:2,0:0:0:0:
328,139,7320,2,0,P|335:111|343:85,1,56,0|2,3:2|0:2,0:0:0:0:
419,65,7653,2,0,P|432:119|441:174,1,112,0|2,3:2|3:2,0:2:0:0:
480,242,8153,5,0,0:2:0:0:
480,242,8320,2,0,P|452:249|426:257,1,56,2|2,3:2|0:2,0:0:0:0:
383,323,8653,2,0,P|356:315|329:307,1,56,0|2,0:2|0:2,0:0:0:0:
255,239,8986,2,0,P|187:237|149:274,1,112,14|0,0:2|3:2,0:0:0:0:
80,304,9486,2,0,P|72:331|64:358,2,56,14|0|2,0:2|3:2|3:2,0:0:0:0:
36,231,9986,1,14,0:2:0:0:
256,192,10153,12,2,11653,0:2:0:0:
102,118,14320,5,2,3:2:0:0:
102,118,14486,2,0,P|151:120|200:124,1,97.9999970092774,2|2,0:2|0:2,0:2:0:0:
252,65,14986,2,0,P|300:61|349:58,1,97.9999970092774,2|10,0:0|0:2,0:0:0:0:
418,96,15486,5,2,0:2:0:0:
418,96,15653,2,0,P|423:119|426:144,1,48.9999985046387,0|2,3:2|0:2,0:0:0:0:
487,192,15986,2,0,P|481:215|478:240,1,48.9999985046387,10|0,0:2|0:2,0:2:0:0:
445,311,16320,1,10,0:2:0:0:
381,257,16486,1,2,3:2:0:0:
381,257,16570,1,0,3:2:0:0:
381,257,16653,2,0,P|353:253|314:264,1,48.9999985046387,14|2,0:2|0:2,0:0:0:0:
293,353,16986,6,0,B|251:352|220:365|220:365|184:348|146:345,1,140,6|8,3:2|0:2,0:2:0:0:
79,367,17486,1,0,0:2:0:0:
79,367,17653,2,0,P|75:332|71:297,1,70,2|2,3:2|0:2,0:0:0:0:
7,242,17986,1,10,0:2:0:0:
49,169,18153,6,0,P|92:209|180:184,1,140,2|0,0:2|0:2,0:0:0:0:
244,149,18653,2,0,P|247:114|251:79,1,70,10|0,0:2|0:2,0:2:0:0:
316,26,18986,2,0,L|385:33,1,70,2|0,3:2|0:2,0:0:0:0:
459,74,19320,1,10,0:2:0:0:
414,144,19486,1,0,0:2:0:0:
476,200,19653,6,0,P|459:267|450:337,1,140,2|8,3:2|0:2,0:2:0:0:
372,369,20153,1,0,0:2:0:0:
372,369,20320,2,0,P|368:334|364:299,1,70,2|2,3:2|0:2,0:0:0:0:
330,222,20653,1,8,0:2:0:0:
249,197,20820,6,0,B|201:188|175:207|175:207|143:231|91:209,1,140,2|0,0:2|0:2,0:0:0:0:
30,224,21320,2,0,P|25:258|22:293,1,70,10|0,0:2|0:2,0:0:0:0:
64,362,21653,1,2,3:2:0:0:
131,312,21820,1,0,3:2:0:0:
131,312,21903,1,8,0:2:0:0:
131,312,21986,2,0,L|200:319,1,70,10|8,0:2|0:2,0:0:0:0:
270,376,22320,6,0,P|324:362|379:354,1,112,6|2,3:2|3:2,0:2:0:0:
453,326,22820,1,0,0:2:0:0:
453,326,22986,2,0,P|446:299|438:273,1,56,2|2,3:2|0:2,0:0:0:0:
488,211,23320,2,0,P|495:184|503:158,1,56,2|2,3:2|0:2,0:0:0:0:
460,91,23653,2,0,P|415:122|360:115,1,112,2|0,3:2|3:2,0:0:0:0:
283,129,24153,2,0,P|238:97|183:104,1,112,2|0,0:2|0:2,0:0:0:0:
109,129,24653,1,0,3:2:0:0:
30,48,24986,6,0,P|16:102|8:157,1,112,2|2,3:2|3:2,0:2:0:0:
70,204,25486,1,0,0:2:0:0:
70,204,25653,2,0,P|78:230|85:257,1,56,2|0,3:2|0:2,0:2:0:0:
50,328,25986,2,0,P|77:335|103:343,1,56,2|0,3:2|0:2,0:2:0:0:
181,324,26320,2,0,B|211:319|237:333|237:333|263:350|293:342,1,112,2|0,3:2|3:2,0:2:0:0:
362,370,26820,1,0,0:0:0:0:
425,324,26986,2,0,P|432:296|440:270,1,56,2|2,3:2|0:2,0:0:0:0:
489,208,27320,1,0,3:2:0:0:
475,51,27653,6,0,P|447:57|421:65,1,56,2|2,3:2|0:2,0:0:0:0:
364,120,27986,1,2,3:2:0:0:
288,99,28153,1,2,0:2:0:0:
288,99,28320,2,0,P|281:71|273:45,1,56,2|2,3:2|0:2,0:0:0:0:
198,21,28653,2,0,P|171:28|145:36,1,56,2|2,3:2|0:2,0:2:0:0:
74,73,28986,6,0,P|88:127|96:182,1,112,2|2,3:2|3:2,0:2:0:0:
33,229,29486,2,0,P|78:261|133:254,1,112,2|0,0:2|0:2,0:0:0:0:
185,312,29986,1,0,3:2:0:0:
245,261,30153,1,2,0:2:0:0:
245,261,30320,2,0,P|272:268|298:276,1,56,2|2,3:2|0:2,0:0:0:0:
377,275,30653,2,0,P|385:301|392:328,1,56,2|2,3:2|0:2,0:0:0:0:
466,353,30986,2,0,P|474:297|488:243,1,112,2|0,3:2|3:2,0:0:0:0:
444,178,31486,1,10,0:2:0:0:
430,165,32320,6,0,L|396:169,2,28,14|8|10,0:2|0:2|0:2,0:0:0:0:
485,100,32653,2,0,L|512:103,2,28,10|8|10,0:2|0:2|0:2,0:0:0:0:
424,23,32986,6,0,B|376:14|350:33|350:33|318:57|266:35,1,140,6|10,3:2|0:2,0:0:0:0:
238,110,33486,1,2,0:2:0:0:
156,89,33653,2,0,P|153:54|147:19,1,70,2|2,3:2|0:2,0:0:0:0:
64,29,33986,2,0,L|57:98,1,70,10|2,0:2|0:2,0:2:0:0:
0,162,34320,6,0,L|7:231,1,70,2|2,3:2|0:2,0:2:0:0:
47,305,34653,1,10,0:2:0:0:
47,305,34820,2,0,P|112:290|165:332,1,140,2|0,0:2|0:2,0:0:0:0:
237,376,35320,2,0,P|271:378|306:384,1,70,8|0,0:2|0:2,0:0:0:0:
390,381,35653,6,0,P|398:311|416:243,1,140,2|10,3:2|0:2,0:2:0:0:
439,163,36153,1,0,0:2:0:0:
439,163,36320,2,0,P|404:165|369:171,1,70,2|0,3:2|0:2,0:2:0:0:
326,98,36653,2,0,P|291:95|256:89,1,70,10|0,0:2|0:2,0:2:0:0:
211,160,36986,6,0,B|170:160|144:182|144:182|105:163|58:174,1,140,2|8,3:2|0:2,0:0:0:0:
16,113,37486,1,0,0:2:0:0:
16,113,37653,2,0,P|13:78|7:43,1,70,2|2,3:2|0:2,0:0:0:0:
80,1,37986,1,8,0:2:0:0:
143,55,38153,1,0,0:2:0:0:
213,9,38320,6,0,L|282:16,1,70,2|2,3:2|0:2,0:0:0:0:
365,6,38653,2,0,P|359:40|356:75,1,70,10|2,0:2|0:2,0:0:0:0:
285,121,38986,2,0,P|328:161|416:136,1,140,2|10,3:2|0:2,0:0:0:0:
466,93,39486,1,2,0:2:0:0:
486,174,39653,6,0,P|503:241|511:311,1,140,2|10,3:2|0:2,0:2:0:0:
440,356,40153,2,0,B|392:347|366:366|366:366|334:390|282:368,1,140,2|0,0:2|0:2,0:0:0:0:
240,323,40653,1,8,0:2:0:0:
175,377,40820,1,2,0:2:0:0:
105,329,40986,6,0,P|102:294|96:259,1,70,2|2,3:2|0:2,0:0:0:0:
158,202,41320,2,0,P|160:167|166:132,1,70,10|2,0:2|0:2,0:0:0:0:
115,67,41653,2,0,L|46:74,2,70,2|10|8,3:2|0:3|0:3,0:0:0:0:
205,13,42153,2,0,P|248:53|336:28,1,140,6|0,3:2|3:2,0:2:0:0:
406,24,42653,2,0,L|413:93,1,70,12|8,0:2|0:2,0:2:0:0:
442,171,42986,2,0,L|511:178,2,70,2|10|10,3:2|0:3|0:3,0:0:0:0:
408,248,43486,1,8,0:3:0:0:
329,184,43653,6,0,P|261:182|223:219,1,112,6|2,3:2|0:2,0:0:0:0:
150,209,44153,1,0,3:2:0:0:
150,209,44320,2,0,P|163:262|173:329,1,112,10|0,0:2|0:0,0:0:0:0:
325,349,44986,2,0,P|351:340|378:333,1,56,0|8,3:2|0:2,0:0:0:0:
457,334,45320,2,0,P|464:306|472:280,1,56,2|0,0:2|3:2,0:0:0:0:
416,225,45653,2,0,P|407:169|394:115,1,112,10|0,0:2|0:2,0:2:0:0:
252,46,46320,6,0,B|222:41|196:55|196:55|170:72|140:64,1,112,6|0,3:2|0:0,0:2:0:0:
69,40,46820,1,0,3:2:0:0:
69,40,46986,2,0,L|46:149,1,112,8|2,0:2|0:2,0:2:0:0:
10,302,47653,2,0,P|36:293|63:286,1,56,0|8,3:2|0:3,0:0:0:0:
123,236,47986,2,0,P|149:244|176:251,1,56,0|0,0:2|3:2,0:0:0:0:
220,316,48320,2,0,B|250:311|276:325|276:325|302:342|332:334,1,112,10|8,0:2|0:3,0:0:0:0:
475,283,48986,6,0,L|498:174,1,112,6|2,3:2|0:2,0:0:0:0:
461,103,49486,1,2,3:2:0:0:
461,103,49653,2,0,P|406:109|361:78,1,112,8|2,0:2|0:2,0:0:0:0:
207,51,50320,1,2,3:2:0:0:
207,51,50486,2,0,P|197:77|190:104,1,56,10|2,0:2|0:2,0:2:0:0:
206,181,50820,1,0,3:2:0:0:
148,233,50986,2,0,B|118:228|92:242|92:242|66:259|36:251,1,112,10|2,0:2|0:2,0:2:0:0:
148,366,51653,6,0,P|193:335|247:341,1,112,6|0,3:2|0:2,0:2:0:0:
304,287,52153,1,0,3:2:0:0:
304,287,52320,2,0,P|349:317|403:311,1,112,8|2,0:2|0:2,0:2:0:0:
471,271,52820,1,2,0:2:0:0:
420,211,52986,2,0,L|385:216,2,28,8|8|0,0:2|0:3|3:2,0:0:0:0:
449,137,53320,2,0,P|444:84|438:67,1,56,12|2,0:2|3:2,0:0:0:0:
367,59,53653,1,10,0:2:0:0:
298,98,53820,1,10,0:2:0:0:
298,98,53903,1,8,0:2:0:0:
298,98,53986,2,0,P|270:102|226:100,1,56,10|10,0:2|0:2,0:0:0:0:
173,44,54320,6,0,P|164:70|157:97,1,56,6|2,3:2|0:2,0:0:0:0:
84,129,54653,2,0,P|93:155|100:182,1,56,10|2,0:2|3:2,0:0:0:0:
90,265,54986,2,0,B|120:260|146:274|146:274|172:291|202:283,1,112,0|8,3:2|0:2,0:0:0:0:
251,348,55486,1,0,3:2:0:0:
251,348,55653,6,0,P|277:338|304:331,1,56,2|0,3:2|3:2,0:0:0:0:
355,268,55986,1,10,0:2:0:0:
410,323,56153,1,2,3:2:0:0:
474,278,56320,2,0,P|465:222|452:168,1,112,0|8,3:2|0:2,0:0:0:0:
446,11,56986,6,0,P|401:41|347:35,1,112,2|10,3:2|0:2,0:0:0:0:
284,83,57486,1,0,3:2:0:0:
284,83,57653,2,0,P|257:73|230:66,1,56,2|2,3:2|0:2,0:0:0:0:
158,36,57986,1,8,0:2:0:0:
89,74,58153,1,2,3:2:0:0:
74,151,58320,6,0,P|83:177|90:204,1,56,14|10,0:2|0:2,0:0:0:0:
165,227,58653,2,0,P|155:253|148:280,1,56,2|8,3:2|0:2,0:0:0:0:
174,360,58986,2,0,P|146:366|120:376,1,56,10|8,0:2|0:3,0:0:0:0:
53,324,59320,2,0,P|26:314|-1:307,2,56,6|4|6,0:3|0:3|3:2,0:0:0:0:
67,337,61653,6,0,B|111:336|111:336|156:356,1,73.4999977569581,10|8,0:3|0:3,0:0:0:0:
238,326,62153,1,8,0:3:0:0:
238,326,62320,2,0,B|284:349|284:349|332:340,2,97.9999970092774,6|2|14,3:2|0:2|0:2,0:0:0:0:
180,261,63153,2,0,L|176:212,1,48.9999985046387,8|2,0:2|3:2,0:0:0:0:
231,150,63486,1,14,0:2:0:0:
246,164,63986,6,0,P|269:159|294:156,1,48.9999985046387,2|0,0:2|0:0,0:2:0:0:
346,96,64320,2,0,P|365:108|385:124,1,48.9999985046387,2|0,0:2|0:0,0:2:0:0:
464,118,64653,2,0,P|469:141|472:166,1,48.9999985046387,2|0,0:2|0:0,0:2:0:0:
477,284,64986,6,0,B|429:275|403:294|403:294|371:318|319:296,1,140,6|8,3:2|0:2,0:2:0:0:
268,342,65486,1,0,0:2:0:0:
214,277,65653,2,0,L|221:208,2,70,2|2|8,3:2|0:2|0:2,0:0:0:0:
168,347,66153,6,0,P|133:350|98:356,1,70,2|0,0:2|3:2,0:2:0:0:
26,311,66486,2,0,L|19:242,1,70,2|8,0:2|0:2,0:0:0:0:
8,157,66820,2,0,P|51:197|139:172,1,140,2|2,0:2|0:2,0:2:0:0:
205,156,67320,2,0,P|202:121|196:86,1,70,8|0,0:2|0:2,0:0:0:0:
246,10,67653,6,0,B|294:1|320:20|320:20|352:44|404:22,1,140,2|8,3:2|0:2,0:2:0:0:
442,87,68153,1,0,0:0:0:0:
384,148,68320,2,0,P|349:151|314:157,2,70,2|2|8,3:2|0:2|0:2,0:0:0:0:
453,194,68820,6,0,P|447:228|444:263,1,70,2|0,0:2|3:2,0:2:0:0:
465,344,69153,2,0,P|430:338|395:335,1,70,2|8,0:2|0:2,0:0:0:0:
318,367,69486,2,0,P|293:342|262:325,1,70,2|0,0:2|3:2,0:0:0:0:
189,283,69820,2,0,P|158:300|133:324,1,70,2|8,0:2|0:2,0:2:0:0:
72,384,70153,1,2,0:2:0:0:
6,294,70320,6,0,P|14:224|32:156,1,140,6|10,3:2|0:2,0:0:0:0:
18,73,70820,1,0,0:0:0:0:
18,73,70986,2,0,P|52:67|87:64,1,70,2|2,3:2|0:2,0:0:0:0:
168,39,71320,2,0,P|174:73|177:108,1,70,8|2,0:2|0:2,0:0:0:0:
167,191,71653,6,0,P|220:234|286:219,1,140,0|10,3:2|0:2,0:2:0:0:
368,233,72153,1,0,0:0:0:0:
368,233,72320,2,0,P|370:198|377:163,1,70,2|2,3:2|0:2,0:0:0:0:
460,151,72653,2,0,P|457:116|450:81,1,70,8|2,0:2|0:2,0:0:0:0:
394,19,72986,6,0,B|346:10|320:29|320:29|288:53|236:31,1,140,2|8,3:2|0:2,0:2:0:0:
177,20,73486,1,0,0:2:0:0:
177,20,73653,2,0,P|170:54|167:89,1,70,2|2,3:2|0:2,0:2:0:0:
107,148,73986,1,10,0:2:0:0:
156,216,74153,1,2,0:2:0:0:
120,292,74320,6,0,P|190:300|258:318,1,140,6|8,3:2|3:2,0:2:0:0:
334,256,74820,2,0,P|326:235|317:210,2,35,10|8|0,0:2|0:2|3:2,0:0:0:0:
377,343,75153,2,0,P|370:359|364:375,2,35,10|8|12,0:2|0:2|0:2,0:0:0:0:
470,302,75486,1,8,0:3:0:0:
470,302,75570,1,8,0:3:0:0:
470,302,75653,6,0,P|462:232|444:164,1,140,6|8,3:2|0:2,0:2:0:0:
396,95,76153,1,0,0:2:0:0:
442,24,76320,2,0,L|511:31,2,70,2|2|8,3:2|0:2|0:2,0:0:0:0:
358,18,76820,6,0,P|323:21|288:27,1,70,2|0,0:2|3:2,0:2:0:0:
204,28,77153,2,0,L|197:97,1,70,2|8,0:2|0:2,0:0:0:0:
120,131,77486,2,0,B|111:179|130:205|130:205|154:237|132:289,1,140,2|2,0:2|0:2,0:2:0:0:
104,341,77986,2,0,L|173:348,1,70,8|0,0:2|0:2,0:0:0:0:
262,324,78320,6,0,B|310:315|336:334|336:334|368:358|420:336,1,140,2|8,3:2|0:2,0:2:0:0:
461,290,78820,1,0,0:0:0:0:
406,225,78986,2,0,P|371:228|336:234,2,70,2|2|8,3:2|0:2|0:2,0:0:0:0:
473,175,79486,6,0,P|467:141|464:106,1,70,2|0,0:2|3:2,0:2:0:0:
473,22,79820,2,0,P|438:18|403:13,1,70,2|8,0:2|0:2,0:0:0:0:
336,64,80153,2,0,P|311:88|280:105,1,70,2|0,0:2|3:2,0:0:0:0:
198,123,80486,2,0,P|167:105|142:81,1,70,2|8,0:2|0:2,0:2:0:0:
72,30,80820,1,2,0:2:0:0:
26,131,80986,6,0,P|8:198|0:268,1,140,6|10,3:2|0:2,0:2:0:0:
18,350,81486,1,0,0:0:0:0:
18,350,81653,2,0,P|52:344|87:341,1,70,2|2,3:2|0:2,0:0:0:0:
145,279,81986,2,0,P|179:281|214:288,1,70,8|2,0:2|0:2,0:0:0:0:
298,299,82320,6,0,P|312:232|269:180,1,140,0|10,3:2|0:2,0:2:0:0:
192,145,82820,1,0,0:0:0:0:
192,145,82986,2,0,P|186:111|183:76,1,70,2|2,3:2|0:2,0:0:0:0:
246,20,83320,2,0,P|280:22|315:29,1,70,8|2,0:2|0:2,0:0:0:0:
403,57,83653,6,0,P|420:124|428:194,1,140,2|8,3:2|0:2,0:2:0:0:
432,279,84153,2,0,B|384:270|358:289|358:289|326:313|274:291,1,140,2|2,0:2|0:2,0:2:0:0:
231,350,84653,1,14,0:2:0:0:
77,281,84986,6,0,L|42:282,2,35,10|8|2,0:2|0:2|3:2,0:0:0:0:
141,225,85320,2,0,L|175:226,2,35,8|8|2,0:2|0:2|3:2,0:0:0:0:
78,169,85653,2,0,P|80:134|87:99,1,70,12|10,0:2|0:2,0:0:0:0:
140,34,85986,1,2,3:2:0:0:
205,86,86153,1,8,0:2:0:0:
287,71,86320,6,0,P|284:36|278:1,2,70,14|2|2,0:2|3:2|3:2,0:0:0:0:
351,135,86820,2,0,P|345:169|342:204,2,70,14|2|2,0:2|3:2|3:2,0:0:0:0:
418,69,87320,1,14,0:2:0:0:
256,192,87403,12,0,88986,0:2:0:0:
