osu file format v14

[General]
AudioFilename: audio.mp3
AudioLeadIn: 0
PreviewTime: 63493
Countdown: 0
SampleSet: Soft
StackLeniency: 0.7
Mode: 2
LetterboxInBreaks: 0
WidescreenStoryboard: 0

[Editor]
Bookmarks: 11243,16576,21910,30910,32576,43243
DistanceSpacing: 1.4
BeatDivisor: 8
GridSize: 4
TimelineZoom: 2.2

[Metadata]
Title:Ai no Scenario (TV Size)
TitleUnicode:アイのシナリオ (TV Size)
Artist:CHiCO with HoneyWorks
ArtistUnicode:CHiCO with HoneyWorks
Creator:rew0825
Version:Rain
Source:まじっく快斗1412
Tags:opening Magic Kaito A-1 Pictures Inc IDu5t IDust Du5t Dust
BeatmapID:2089724
BeatmapSetID:999185

[Difficulty]
HPDrainRate:6
CircleSize:4
OverallDifficulty:9
ApproachRate:9
SliderMultiplier:1.8
SliderTickRate:2

[Events]
//Background and Video events
0,0,"BG.png",0,0
//Break Periods
//Storyboard Layer 0 (Background)
//Storyboard Layer 1 (Fail)
//Storyboard Layer 2 (Pass)
//Storyboard Layer 3 (Foreground)
//Storyboard Layer 4 (Overlay)
//Storyboard Sound Samples

[TimingPoints]
577,333.333333333333,4,2,1,70,1,0
11243,-100,4,2,1,50,0,0
15910,-100,4,2,1,70,0,0
16576,-100,4,2,1,80,0,0
43243,-100,4,2,1,70,0,0
53910,-100,4,2,1,80,0,0
59910,-100,4,2,1,50,0,0
61243,-78.125,4,2,1,80,0,0
61910,-100,4,2,1,80,0,0
64576,-100,4,2,1,90,0,1
75160,-100,4,2,1,90,0,0
75243,-100,4,2,1,90,0,1
85910,-100,4,2,1,70,0,0

[Colours]
Combo1 : 55,55,255
Combo2 : 255,43,43

[HitObjects]
184,268,577,6,0,P|100:260|72:176,1,180,0|2,1:0|0:0,0:0:0:0:
340,180,1243,1,0,1:0:0:0:
432,180,1410,1,2,0:0:0:0:
328,180,1576,1,0,0:0:0:0:
172,180,1743,6,0,P|88:172|60:88,1,180,2|2,0:0|0:0,0:0:0:0:
160,92,2243,1,0,0:0:0:0:
316,92,2410,2,0,P|400:100|428:184,1,180,2|2,0:0|0:0,0:0:0:0:
340,180,2910,1,0,0:0:0:0:
440,180,3076,1,2,0:0:0:0:
284,180,3243,6,0,P|376:172|440:116,1,180,0|2,1:0|0:0,0:0:0:0:
172,180,3910,1,0,1:0:0:0:
80,180,4076,1,2,0:0:0:0:
184,180,4243,1,0,0:0:0:0:
340,180,4410,6,0,P|424:188|452:272,1,180,2|2,0:0|0:0,0:0:0:0:
352,268,4910,1,0,0:0:0:0:
192,268,5076,2,0,L|100:268,1,90,2|0,0:0|0:0,0:0:0:0:
332,272,5410,2,0,L|336:180,1,90,12|0,0:0|0:0,0:0:0:0:
112,184,5743,1,12,0:0:0:0:
247,184,5910,6,0,P|180:116|100:88,1,180,0|2,1:0|0:0,0:0:0:0:
372,84,6576,2,0,L|464:84,2,90,0|2|0,1:0|0:0|0:0,0:0:0:0:
216,84,7076,6,0,L|400:84,1,180,2|0,0:0|0:0,0:0:0:0:
240,84,7576,2,0,L|331:84,1,90,2|0,0:0|0:0,0:0:0:0:
172,84,7910,2,0,L|168:176,1,90,0|0,1:0|0:0,0:0:0:0:
324,176,8243,2,0,L|328:268,1,90,2|0,0:0|0:0,0:0:0:0:
104,188,8576,5,12,0:0:0:0:
204,188,8743,1,0,1:0:0:0:
104,188,8910,1,0,1:0:0:0:
328,188,9076,1,12,0:0:0:0:
428,188,9243,1,0,1:0:0:0:
328,188,9410,1,0,1:0:0:0:
80,188,9576,1,12,0:0:0:0:
256,192,9743,12,2,10743,0:0:0:0:
384,104,11243,6,0,L|388:196,1,90,0|2,1:0|0:0,0:0:0:0:
284,192,11576,1,0,0:0:0:0:
388,192,11743,1,0,1:0:0:0:
228,192,11910,1,2,0:0:0:0:
124,192,12076,1,0,0:0:0:0:
228,192,12243,1,0,1:0:0:0:
80,194,12410,6,0,L|76:102,1,90,2|0,0:0|0:0,0:0:0:0:
176,104,12743,1,0,1:0:0:0:
334,104,12910,2,0,L|338:196,1,90,2|0,0:0|0:0,0:0:0:0:
178,196,13243,2,0,L|86:196,1,90,0|2,1:0|0:0,0:0:0:0:
244,196,13576,2,0,L|336:196,1,90,0|2,1:0|0:0,0:0:0:0:
108,104,13910,6,0,L|104:200,1,90,0|2,1:0|0:0,0:0:0:0:
204,192,14243,1,0,0:0:0:0:
104,193,14410,1,0,1:0:0:0:
252,192,14576,1,2,0:0:0:0:
152,192,14743,1,0,0:0:0:0:
252,192,14910,1,0,1:0:0:0:
400,192,15076,1,2,0:0:0:0:
252,192,15243,2,0,L|268:104,1,90,0|0,0:0|1:0,0:0:0:0:
420,100,15576,2,0,L|436:188,1,90,2|0,0:0|0:0,0:0:0:0:
208,184,15910,6,0,L|212:232,1,45,2|0,0:0|0:0,0:0:0:0:
312,228,16076,2,0,L|316:272,1,45,0|0,1:0|0:0,0:0:0:0:
136,272,16243,1,8,0:0:0:0:
80,244,16326,1,0,0:0:0:0:
92,180,16410,1,2,0:0:0:0:
152,168,16493,1,0,0:0:0:0:
332,168,16576,6,0,P|392:220|328:264,1,180,4|8,0:0|0:0,0:0:0:0:
172,264,17076,1,2,0:0:0:0:
328,264,17243,2,0,L|332:164,1,90,0|0,1:0|0:0,0:0:0:0:
176,172,17576,2,0,L|172:264,1,90,8|2,0:0|0:0,0:0:0:0:
400,264,17910,6,0,L|404:168,1,90,0|0,1:0|0:0,0:0:0:0:
248,172,18243,2,0,L|156:172,1,90,8|2,0:0|0:0,0:0:0:0:
316,172,18576,2,0,L|320:80,1,90,0|0,1:0|0:0,0:0:0:0:
160,80,18910,2,0,L|64:80,1,90,8|2,0:0|0:0,0:0:0:0:
296,80,19243,6,0,P|356:132|292:176,1,180,0|8,1:0|0:0,0:0:0:0:
136,176,19743,1,2,0:0:0:0:
292,176,19910,2,0,L|296:76,1,90,0|0,1:0|0:0,0:0:0:0:
140,84,20243,2,0,L|136:176,1,90,8|2,0:0|0:0,0:0:0:0:
360,176,20576,6,0,L|364:272,1,90,0|0,1:0|0:0,0:0:0:0:
196,268,20910,2,0,L|100:268,1,90,8|2,0:0|0:0,0:0:0:0:
332,268,21243,2,0,P|380:252|384:216,1,90,0|0,1:0|0:0,0:0:0:0:
328,184,21493,1,0,0:0:0:0:
148,184,21576,1,8,0:0:0:0:
92,148,21660,1,0,0:0:0:0:
112,84,21743,1,2,0:0:0:0:
176,76,21826,1,0,0:0:0:0:
400,76,21910,6,0,P|460:116|396:168,1,180,4|0,0:0|1:0,0:0:0:0:
296,168,22410,1,0,0:0:0:0:
136,256,22576,2,0,L|132:156,1,90,0|2,1:0|0:0,0:0:0:0:
292,256,22910,2,0,L|296:160,1,90,0|2,1:0|0:0,0:0:0:0:
72,168,23243,5,0,1:0:0:0:
216,168,23410,2,0,L|312:168,1,90,2|0,0:0|1:0,0:0:0:0:
300,76,23743,1,2,0:0:0:0:
140,168,23910,2,0,L|136:76,1,90,0|0,1:0|0:0,0:0:0:0:
292,76,24243,2,0,L|384:76,1,90,0|0,1:0|0:0,0:0:0:0:
156,276,24576,6,0,P|136:220|228:176,1,180,0|2,1:0|0:0,0:0:0:0:
124,176,25076,1,0,0:0:0:0:
292,276,25243,2,0,P|312:220|220:176,1,180,0|2,1:0|0:0,0:0:0:0:
320,176,25743,1,0,0:0:0:0:
88,180,25910,6,0,P|28:136|92:84,1,180,0|2,1:0|0:0,0:0:0:0:
192,84,26410,1,0,0:0:0:0:
348,84,26576,2,0,L|352:184,1,90,0|2,1:0|0:0,0:0:0:0:
196,176,26910,2,0,L|192:268,1,90,0|0,1:0|0:0,0:0:0:0:
456,268,27243,6,0,L|460:176,1,90,0|2,1:0|0:0,0:0:0:0:
300,176,27576,2,0,L|200:176,1,90,0|2,1:0|0:0,0:0:0:0:
52,176,27910,2,0,L|48:80,1,90,0|2,1:0|0:0,0:0:0:0:
208,88,28243,2,0,L|304:88,1,90,0|2,1:0|0:0,0:0:0:0:
72,88,28576,6,0,P|28:156|100:184,1,180,0|0,1:0|1:0,0:0:0:0:
256,184,29076,1,2,0:0:0:0:
416,184,29243,2,0,L|324:184,2,90,0|0|0,1:0|0:0|1:0,0:0:0:0:
192,184,29743,6,0,L|188:92,1,90,2|0,0:0|1:0,0:0:0:0:
344,92,30076,1,2,0:0:0:0:
456,92,30243,1,0,1:0:0:0:
344,92,30410,1,2,0:0:0:0:
164,92,30576,1,0,1:0:0:0:
52,92,30743,2,0,L|56:0,1,90,2|0,0:0|1:0,0:0:0:0:
372,92,31076,1,4,0:0:0:0:
140,92,31910,5,8,0:0:0:0:
84,116,31993,1,0,0:0:0:0:
88,176,32076,1,0,1:0:0:0:
144,192,32160,1,0,0:0:0:0:
324,192,32243,1,8,0:0:0:0:
336,248,32326,1,0,0:0:0:0:
181,248,32410,1,8,0:0:0:0:
168,304,32493,1,0,0:0:0:0:
372,304,32576,6,0,L|468:304,2,90,0|2|8,1:0|0:0|0:0,0:0:0:0:
212,304,33076,1,2,0:0:0:0:
372,304,33243,2,0,L|376:208,1,90,0|2,1:0|0:0,0:0:0:0:
216,212,33576,2,0,L|212:308,1,90,8|2,0:0|0:0,0:0:0:0:
440,304,33910,6,0,L|348:304,2,90,0|2|8,1:0|0:0|0:0,0:0:0:0:
212,304,34410,2,0,P|152:264|216:212,1,180,2|0,0:0|0:0,0:0:0:0:
376,212,34910,2,0,L|380:116,1,90,8|0,0:0|0:0,0:0:0:0:
152,212,35243,6,0,P|92:160|156:116,1,180,0|8,1:0|0:0,0:0:0:0:
256,116,35743,1,0,0:0:0:0:
412,116,35910,2,0,L|416:212,1,90,0|0,1:0|0:0,0:0:0:0:
260,208,36243,2,0,L|164:208,1,90,8|0,0:0|0:0,0:0:0:0:
396,208,36576,6,0,P|456:160|392:116,1,180,0|8,1:0|0:0,0:0:0:0:
292,116,37076,1,0,0:0:0:0:
140,208,37243,2,0,L|232:208,1,90,0|2,1:0|0:0,0:0:0:0:
388,208,37576,2,0,L|392:112,1,90,8|0,0:0|0:0,0:0:0:0:
164,120,37910,6,0,L|160:212,1,90,0|2,1:0|0:0,0:0:0:0:
316,212,38243,2,0,L|220:212,1,90,8|2,0:0|0:0,0:0:0:0:
384,212,38576,2,0,L|388:304,1,90,0|2,1:0|0:0,0:0:0:0:
232,304,38910,2,0,L|328:304,1,90,8|2,0:0|0:0,0:0:0:0:
96,304,39243,6,0,L|92:212,1,90,0|0,1:0|0:0,0:0:0:0:
252,212,39576,1,8,0:0:0:0:
408,212,39743,2,0,L|412:120,1,90,2|0,0:0|0:0,0:0:0:0:
312,120,40076,1,0,0:0:0:0:
152,120,40243,2,0,L|150:28,1,90,8|2,0:0|0:0,0:0:0:0:
376,120,40576,6,0,L|380:212,1,90,0|2,1:0|0:0,0:0:0:0:
220,212,40910,2,0,L|216:304,1,90,8|2,0:0|0:0,0:0:0:0:
376,304,41243,2,0,L|476:304,1,90,0|2,1:0|0:0,0:0:0:0:
308,304,41576,1,8,0:0:0:0:
60,244,41743,6,0,P|136:304|216:304,1,180,4|0,0:0|0:0,0:0:0:0:
372,304,42243,2,0,L|376:204,1,90,8|2,0:0|0:0,0:0:0:0:
296,208,42493,1,2,0:0:0:0:
216,200,42576,2,0,L|212:104,1,90,0|0,1:0|1:0,0:0:0:0:
372,108,42910,2,0,L|472:108,1,90,8|0,0:0|1:0,0:0:0:0:
216,108,43243,6,0,P|124:108|72:172,1,180,4|2,0:0|0:0,0:0:0:0:
176,172,43743,1,0,0:0:0:0:
332,172,43910,1,0,1:0:0:0:
176,172,44076,2,0,P|116:204|176:264,1,180,2|0,0:0|1:0,0:0:0:0:
401,168,44576,6,0,L|405:76,1,90,2|8,0:0|0:0,0:0:0:0:
244,76,44910,2,0,L|144:76,1,90,2|0,0:0|1:0,0:0:0:0:
312,76,45243,1,0,1:0:0:0:
400,76,45410,1,2,0:0:0:0:
388,164,45576,1,0,0:0:0:0:
300,164,45743,1,2,0:0:0:0:
52,164,45910,6,0,P|16:228|152:300,1,270,4|0,0:0|1:0,0:0:0:0:
312,300,46576,2,0,P|304:240|200:216,1,180,8|2,0:0|0:0,0:0:0:0:
304,216,47076,1,2,0:0:0:0:
80,216,47243,5,0,1:0:0:0:
28,168,47410,1,8,3:0:0:0:
52,100,47576,1,0,0:0:0:0:
128,88,47743,1,0,1:0:0:0:
352,88,47910,2,0,L|348:184,1,90,2|0,0:0|0:0,0:0:0:0:
188,176,48243,2,0,L|184:272,1,90,0|2,0:0|0:0,0:0:0:0:
408,268,48576,6,0,P|464:228|400:168,1,180,4|2,0:0|0:0,0:0:0:0:
244,168,49076,1,0,1:0:0:0:
144,168,49243,2,0,L|140:76,1,90,8|0,0:0|0:0,0:0:0:0:
300,80,49576,2,0,L|304:172,1,90,0|0,1:0|0:0,0:0:0:0:
76,168,49910,5,2,0:0:0:0:
212,172,50076,2,0,P|156:232|64:264,1,180,8|0,0:0|1:0,0:0:0:0:
220,264,50576,2,0,L|224:172,1,90,8|0,0:0|0:0,0:0:0:0:
64,176,50910,2,0,L|60:84,1,90,2|0,0:0|0:0,0:0:0:0:
328,84,51243,6,0,P|408:152|300:212,1,270,4|2,0:0|0:0,0:0:0:0:
140,212,51910,2,0,P|80:272|140:312,1,180,8|2,0:0|0:0,0:0:0:0:
240,312,52410,1,0,0:0:0:0:
464,312,52576,5,8,0:0:0:0:
500,264,52660,1,0,0:0:0:0:
464,216,52743,1,0,0:0:0:0:
408,216,52826,1,0,0:0:0:0:
184,216,52910,2,0,L|88:216,1,90,12|2,0:0|0:0,0:0:0:0:
320,216,53243,5,8,0:0:0:0:
376,196,53326,1,0,0:0:0:0:
372,128,53410,1,0,1:0:0:0:
312,108,53493,1,0,0:0:0:0:
132,216,53576,1,8,0:0:0:0:
88,196,53660,1,0,0:0:0:0:
268,108,53743,1,0,1:0:0:0:
316,128,53826,1,0,0:0:0:0:
148,108,53910,6,0,L|56:108,2,90,4|2|8,0:0|0:0|0:0,0:0:0:0:
308,108,54410,1,2,0:0:0:0:
340,156,54493,1,0,0:0:0:0:
308,204,54576,1,0,1:0:0:0:
80,204,54743,2,0,L|76:104,1,90,2|8,0:0|0:0,0:0:0:0:
180,112,55076,1,2,0:0:0:0:
428,204,55243,6,0,L|432:112,1,90,0|0,1:0|0:0,0:0:0:0:
340,112,55576,1,8,0:0:0:0:
180,112,55743,1,2,0:0:0:0:
148,160,55826,1,0,0:0:0:0:
180,208,55910,1,0,1:0:0:0:
408,208,56076,2,0,L|412:108,1,90,2|8,0:0|0:0,0:0:0:0:
308,116,56410,1,2,0:0:0:0:
52,208,56576,6,0,L|144:208,1,90,0|0,1:0|0:0,0:0:0:0:
300,204,56910,2,0,L|296:296,1,90,8|0,0:0|0:0,0:0:0:0:
140,296,57243,2,0,L|136:200,1,90,0|2,1:0|0:0,0:0:0:0:
292,204,57576,2,0,L|200:204,1,90,8|2,0:0|0:0,0:0:0:0:
452,204,57910,6,0,L|456:108,1,90,4|0,0:0|1:0,0:0:0:0:
300,112,58243,2,0,L|200:112,1,90,0|0,1:0|1:0,0:0:0:0:
436,112,58576,1,2,0:0:0:0:
279,112,58743,1,0,1:0:0:0:
52,112,58910,1,2,0:0:0:0:
209,112,59076,1,0,1:0:0:0:
456,112,59243,5,4,0:0:0:0:
212,112,59910,2,0,L|220:292,1,180,2|0,0:0|0:0,0:0:0:0:
56,112,60576,6,0,L|52:296,1,180,2|0,0:0|0:0,0:0:0:0:
156,292,61076,1,0,0:0:0:0:
380,292,61243,2,0,L|208:292,2,172.8,8|8|8,0:0|0:0|0:0,0:0:0:0:
108,292,61910,6,0,P|48:240|112:196,1,180,4|0,0:0|0:0,0:0:0:0:
336,196,62576,1,8,0:0:0:0:
200,196,62743,1,0,1:0:0:0:
196,152,62826,1,0,1:0:0:0:
192,104,62910,1,0,1:0:0:0:
416,104,63076,1,2,0:0:0:0:
144,104,63576,5,0,0:0:0:0:
414,104,63910,1,0,0:0:0:0:
120,104,64243,2,0,P|76:128|120:176,1,135
328,188,64576,6,0,P|416:212|420:288,1,180,4|8,0:0|0:0,0:0:0:0:
316,288,65076,1,0,0:0:0:0:
88,288,65243,2,0,L|180:288,2,90,0|2|8,1:0|0:0|0:0,0:0:0:0:
316,288,65743,6,0,L|320:196,1,90,2|0,0:0|1:0,0:0:0:0:
162,200,66076,2,0,L|158:104,1,90,2|8,0:0|0:0,0:0:0:0:
384,112,66410,1,2,0:0:0:0:
380,164,66493,1,0,0:0:0:0:
376,216,66576,1,0,1:0:0:0:
220,216,66743,2,0,L|120:216,2,90,2|8|0,0:0|0:0|0:0,0:0:0:0:
444,216,67243,6,0,P|444:172|336:120,1,180,0|8,1:0|0:0,0:0:0:0:
436,120,67743,1,0,0:0:0:0:
212,120,67910,2,0,L|304:120,2,90,0|2|8,1:0|0:0|0:0,0:0:0:0:
436,120,68410,6,0,L|440:212,1,90,2|0,0:0|1:0,0:0:0:0:
284,208,68743,2,0,L|192:208,1,90,2|8,0:0|0:0,0:0:0:0:
352,208,69076,1,2,0:0:0:0:
396,164,69160,1,0,0:0:0:0:
352,116,69243,1,0,1:0:0:0:
124,116,69410,2,0,L|228:116,2,90,2|8|2,0:0|0:0|0:0,0:0:0:0:
400,116,69910,6,0,L|404:216,1,90,4|0,0:0|0:0,0:0:0:0:
176,204,70243,2,0,L|172:296,1,90,8|0,0:0|0:0,0:0:0:0:
252,296,70493,1,0,0:0:0:0:
332,296,70576,2,0,L|336:200,1,90,0|2,1:0|0:0,0:0:0:0:
180,204,70910,1,8,0:0:0:0:
124,184,70993,1,0,0:0:0:0:
128,124,71076,1,2,0:0:0:0:
184,108,71160,1,0,0:0:0:0:
364,108,71243,6,0,L|368:200,1,90,0|0,1:0|0:0,0:0:0:0:
144,196,71576,2,0,L|140:292,1,90,8|0,0:0|0:0,0:0:0:0:
296,288,71910,1,0,1:0:0:0:
456,288,72076,2,0,L|360:288,1,90,2|8,0:0|0:0,0:0:0:0:
208,288,72410,1,2,0:0:0:0:
432,288,72576,6,0,P|488:236|424:184,1,180,0|8,1:0|0:0,0:0:0:0:
268,184,73076,1,0,0:0:0:0:
424,184,73243,2,0,L|436:140,1,45,0|0,1:0|0:0,0:0:0:0:
280,136,73410,2,0,L|268:92,1,45,2|0,0:0|0:0,0:0:0:0:
424,184,73576,2,0,L|428:276,1,90,8|0,0:0|0:0,0:0:0:0:
200,276,73910,5,4,0:0:0:0:
40,276,74076,2,0,L|148:276,1,90,2|8,0:0|0:0,0:0:0:0:
356,276,74410,2,0,L|400:276,2,45,2|0|0,0:0|0:0|1:0,0:0:0:0:
132,276,74743,2,0,L|88:276,2,45,2|0|8,0:0|0:0|0:0,0:0:0:0:
288,256,75076,2,0,L|332:256,1,45,0|0,0:0|0:0,0:0:0:0:
152,256,75243,6,0,L|56:256,2,90,4|0|8,0:0|1:0|0:0,0:0:0:0:
252,256,75743,1,0,0:0:0:0:
476,256,75910,1,0,1:0:0:0:
320,256,76076,2,0,L|316:164,1,90,2|8,0:0|0:0,0:0:0:0:
88,164,76410,6,0,L|92:68,1,90,2|0,0:0|1:0,0:0:0:0:
320,76,76743,2,0,L|324:168,1,90,0|8,1:0|0:0,0:0:0:0:
100,168,77076,2,0,L|52:168,2,45,2|0|0,0:0|0:0|1:0,0:0:0:0:
325,168,77410,1,2,0:0:0:0:
168,168,77576,2,0,L|164:260,1,90,8|0,0:0|0:0,0:0:0:0:
392,260,77910,6,0,P|444:224|380:160,1,180,0|8,1:0|0:0,0:0:0:0:
280,160,78410,1,0,0:0:0:0:
120,160,78576,1,0,1:0:0:0:
280,160,78743,2,0,L|376:160,1,90,2|8,0:0|0:0,0:0:0:0:
144,160,79076,6,0,L|140:256,1,90,2|0,0:0|1:0,0:0:0:0:
296,252,79410,2,0,L|200:252,1,90,0|8,1:0|0:0,0:0:0:0:
432,252,79743,2,0,L|436:152,1,90,2|0,0:0|1:0,0:0:0:0:
208,160,80076,2,0,L|308:160,2,90,2|8|2,0:0|0:0|0:0,0:0:0:0:
476,160,80576,6,0,L|480:260,1,90,4|0,0:0|1:0,0:0:0:0:
252,252,80910,2,0,L|248:156,1,90,8|0,0:0|0:0,0:0:0:0:
328,160,81160,1,0,0:0:0:0:
408,160,81243,2,0,L|412:64,1,90,0|2,1:0|0:0,0:0:0:0:
176,68,81576,1,8,0:0:0:0:
120,104,81660,1,0,0:0:0:0:
124,168,81743,1,2,0:0:0:0:
188,188,81826,1,0,0:0:0:0:
368,188,81910,6,0,L|372:280,1,90,0|0,1:0|1:0,0:0:0:0:
144,280,82243,2,0,L|140:188,1,90,8|0,0:0|0:0,0:0:0:0:
308,188,82576,1,0,1:0:0:0:
140,188,82743,2,0,L|232:188,1,90,2|8,0:0|0:0,0:0:0:0:
388,188,83076,1,2,0:0:0:0:
140,188,83243,6,0,L|136:288,1,90,0|0,1:0|1:0,0:0:0:0:
296,280,83576,1,8,0:0:0:0:
456,280,83743,2,0,L|460:188,1,90,2|0,0:0|1:0,0:0:0:0:
404,188,83993,1,0,0:0:0:0:
256,188,84076,1,2,0:0:0:0:
208,176,84160,1,0,0:0:0:0:
388,176,84243,2,0,L|392:84,1,90,8|0,0:0|0:0,0:0:0:0:
120,84,84576,5,0,1:0:0:0:
64,104,84660,1,0,0:0:0:0:
60,164,84743,1,2,0:0:0:0:
120,188,84826,1,0,0:0:0:0:
300,188,84910,1,8,0:0:0:0:
356,208,84993,1,0,0:0:0:0:
360,268,85076,1,2,0:0:0:0:
300,292,85160,1,0,0:0:0:0:
120,292,85243,5,0,1:0:0:0:
30,292,85410,2,0,L|96:292,1,45,2|0,0:0|0:0,0:0:0:0:
256,292,85576,2,0,L|316:292,1,45,8|0,0:0|0:0,0:0:0:0:
120,292,85743,2,0,L|117:248,1,45,2|0,0:0|0:0,0:0:0:0:
364,244,85910,6,0,L|460:244,2,90,12|0|0,0:0|1:0|1:0,0:0:0:0:
116,244,86410,2,0,L|24:244,2,90,12|0|0,0:0|1:0|1:0,0:0:0:0:
412,244,86910,1,12,0:0:0:0:
256,192,87076,12,2,88576,0:0:0:0:
