osu file format v14

[General]
AudioFilename: audio.mp3
AudioLeadIn: 0
PreviewTime: 63577
Countdown: 0
SampleSet: Soft
StackLeniency: 0.7
Mode: 0
LetterboxInBreaks: 0
WidescreenStoryboard: 0

[Editor]
Bookmarks: 21911,32577
DistanceSpacing: 1.2
BeatDivisor: 4
GridSize: 4
TimelineZoom: 2.4

[Metadata]
Title:Ai no Scenario
TitleUnicode:アイのシナリオ
Artist:CHiCO with HoneyWorks
ArtistUnicode:CHiCO with HoneyWorks
Creator:ProEzreal
Version:NeoSL's Insane
Source:まじっく快斗1412
Tags:magic kaito Neoskylove Karia MugiwaraSekai Hazu- Irohas
BeatmapID:1054056
BeatmapSetID:493133

[Difficulty]
HPDrainRate:6
CircleSize:4
OverallDifficulty:7
ApproachRate:9
SliderMultiplier:1.6
SliderTickRate:1

[Events]
//Background and Video events
0,0,"bg16.jpg",0,0
//Break Periods
//Storyboard Layer 0 (Background)
//Storyboard Layer 1 (Fail)
//Storyboard Layer 2 (Pass)
//Storyboard Layer 3 (Foreground)
//Storyboard Sound Samples

[TimingPoints]
578,333.333333333333,4,2,1,60,1,0
11244,-133.333333333333,4,2,1,60,0,0
15911,-100,4,2,1,60,0,0
21911,-111.111111111111,4,2,1,60,0,0
32577,-100,4,2,1,60,0,0
43244,-125,4,2,1,60,0,0
52577,-100,4,2,1,60,0,0
63577,-100,4,2,1,60,0,0
64577,-100,4,2,1,80,0,1
74744,-100,4,2,1,80,0,0
75244,-100,4,2,1,80,0,1
85911,-100,4,2,1,60,0,0

[Colours]
Combo1 : 91,91,91
Combo2 : 115,2,253
Combo3 : 210,27,237
Combo4 : 255,36,41
Combo5 : 204,206,213

[HitObjects]
293,197,578,6,0,P|214:191|135:203,2,160,12|8|8,0:0|0:0|0:0,0:0:0:0:
373,144,1411,2,0,L|376:58,1,80,0|8,0:0|0:0,0:0:0:0:
293,197,1744,6,0,L|287:356,1,160
192,377,2244,1,8,0:0:0:0:
84,320,2411,2,0,P|139:266|214:283,1,160,0|0,0:0|0:0,0:0:0:0:
419,315,2911,1,8,0:0:0:0:
287,356,3077,1,0,0:0:0:0:
384,223,3244,6,0,L|379:383,2,160,8|8|0,0:0|0:0|0:0,0:0:0:0:
321,151,4077,2,0,P|282:161|242:162,1,80,0|8,0:0|0:0,0:0:0:0:
104,127,4411,38,0,P|181:114|242:162,1,160
284,248,4911,1,8,0:0:0:0:
160,367,5077,2,0,L|158:208,1,160,0|8,0:0|0:0,0:0:0:0:
321,151,5577,1,8,0:0:0:0:
284,248,5744,1,8,0:0:0:0:
374,214,5911,6,0,L|348:56,2,160,12|8|0,0:0|0:0|0:0,0:0:0:0:
283,248,6744,2,0,P|245:256|205:249,1,80,0|8,0:0|0:0,0:0:0:0:
132,186,7077,1,0,0:0:0:0:
45,143,7244,6,0,P|105:93|182:103,1,160,8|8,0:0|0:0,0:0:0:0:
266,149,7744,1,0,0:0:0:0:
125,265,7911,2,0,L|132:186,1,80,0|0,0:0|0:0,0:0:0:0:
217,231,8244,1,8,0:0:0:0:
217,231,8327,1,0,0:0:0:0:
217,231,8411,1,0,0:0:0:0:
342,91,8577,38,0,L|421:79,1,80,12|0,0:0|0:0,0:0:0:0:
266,149,8911,1,0,0:0:0:0:
400,167,9077,2,0,L|479:155,1,80,4|0,0:0|0:0,0:0:0:0:
324,225,9411,1,0,0:0:0:0:
342,91,9577,5,4,0:0:0:0:
342,91,10744,1,2,0:0:0:0:
322,87,10827,1,0,0:0:0:0:
302,84,10910,1,2,0:0:0:0:
302,84,11244,21,2,0:0:0:0:
162,61,11411,1,0,0:0:0:0:
303,111,11744,5,0,0:0:0:0:
163,88,11911,1,2,0:0:0:0:
304,138,12244,53,8,0:0:0:0:
164,115,12411,1,0,0:0:0:0:
305,165,12744,5,0,0:0:0:0:
165,142,12911,1,8,0:0:0:0:
306,192,13244,54,0,L|365:195,1,60.0000022888184,2|2,0:0|0:0,0:0:0:0:
463,266,13577,2,0,L|404:270,1,60.0000022888184,8|0,0:0|0:0,0:0:0:0:
365,376,13911,5,2,0:0:0:0:
326,301,14077,2,0,L|266:296,1,60.0000022888184,0|8,0:0|0:0,0:0:0:0:
404,270,14411,53,0,0:0:0:0:
365,195,14577,2,0,L|305:190,1,60.0000022888184,2|0,0:0|0:0,0:0:0:0:
227,222,14911,5,8,0:0:0:0:
188,147,15077,2,0,L|128:142,1,60.0000022888184,0|2,0:0|0:0,0:0:0:0:
266,116,15411,53,0,0:0:0:0:
227,41,15577,2,0,L|167:36,1,60.0000022888184,8|0,0:0|0:0,0:0:0:0:
128,142,15911,6,0,L|114:179,3,40,2|0|2|0,0:0|0:0|0:0|0:0,0:0:0:0:
65,242,16244,2,0,L|78:279,3,40,8|0|2|0,0:0|0:0|0:0|0:0,0:0:0:0:
141,328,16577,6,0,L|315:326,1,160,4|8,0:0|0:0,0:0:0:0:
383,277,17077,1,2,0:0:0:0:
257,240,17244,1,0,0:0:0:0:
325,95,17411,2,0,P|332:134|327:174,1,80,2|8,0:0|0:0,0:0:0:0:
257,240,17744,6,0,L|97:241,1,160,2|2,0:0|0:0,0:0:0:0:
81,146,18244,2,0,L|75:66,1,80,8|2,0:0|0:0,0:0:0:0:
180,47,18577,2,0,L|175:127,1,80,0|2,0:0|0:0,0:0:0:0:
279,145,18911,2,0,L|274:66,1,80,8|2,0:0|0:0,0:0:0:0:
257,240,19244,6,0,L|436:234,1,160,0|8,0:0|0:0,0:0:0:0:
476,159,19744,1,2,0:0:0:0:
361,136,19911,1,0,0:0:0:0:
425,268,20077,2,0,L|345:270,1,80,2|8,0:0|0:0,0:0:0:0:
272,334,20411,38,0,P|195:346|136:295,1,160,2|2,0:0|0:0,0:0:0:0:
192,217,20911,1,8,0:0:0:0:
68,202,21077,1,2,0:0:0:0:
192,217,21244,1,0,0:0:0:0:
166,124,21411,5,2,0:0:0:0:
182,112,21494,1,0,0:0:0:0:
200,103,21577,1,8,0:0:0:0:
219,98,21660,1,0,0:0:0:0:
239,97,21744,1,2,0:0:0:0:
259,98,21827,1,0,0:0:0:0:
278,104,21911,38,0,L|278:176,1,71.9999978027344,4|0,0:0|0:0,0:0:0:0:
362,127,22244,2,0,L|362:270,1,143.999995605469,8|0,0:0|0:0,0:0:0:0:
352,356,22744,1,0,0:0:0:0:
283,304,22911,1,8,0:0:0:0:
197,293,23077,1,0,0:0:0:0:
117,326,23244,53,0,0:0:0:0:
65,256,23411,2,0,L|64:179,1,71.9999978027344,0|8,0:0|0:0,0:0:0:0:
118,115,23744,2,0,P|184:92|251:117,1,143.999995605469,0|0,0:0|0:0,0:0:0:0:
329,154,24244,2,0,L|401:154,1,71.9999978027344,8|0,0:0|0:0,0:0:0:0:
440,231,24577,6,0,B|366:231|366:231|310:273,1,143.999995605469,0|8,0:0|0:0,0:0:0:0:
256,341,25077,1,0,0:0:0:0:
201,273,25244,2,0,B|146:231|146:231|72:231,1,143.999995605469,0|8,0:0|0:0,0:0:0:0:
36,152,25744,1,0,0:0:0:0:
92,85,25911,54,0,P|156:58|222:81,1,143.999995605469,0|8,0:0|0:0,0:0:0:0:
290,135,26411,1,0,0:0:0:0:
373,112,26577,2,0,L|389:41,1,71.9999978027344,0|0,0:0|0:0,0:0:0:0:
290,135,26911,2,0,L|273:205,1,71.9999978027344,8|0,0:0|0:0,0:0:0:0:
278,291,27244,5,0,0:0:0:0:
194,312,27411,1,2,0:0:0:0:
110,334,27577,1,8,0:0:0:0:
26,356,27744,1,2,0:0:0:0:
49,272,27911,2,0,L|52:200,1,71.9999978027344,0|2,0:0|0:0,0:0:0:0:
127,80,28244,2,0,L|124:152,1,71.9999978027344,8|2,0:0|0:0,0:0:0:0:
193,203,28577,54,0,L|335:185,1,143.999995605469,0|8,0:0|0:0,0:0:0:0:
376,264,29077,2,0,L|233:281,1,143.999995605469,0|0,0:0|0:0,0:0:0:0:
156,323,29577,1,8,0:0:0:0:
156,323,29744,6,0,P|93:294|80:226,1,143.999995605469,0|0,0:0|0:0,0:0:0:0:
127,80,30244,2,0,L|124:152,1,71.9999978027344,8|0,0:0|0:0,0:0:0:0:
233,281,30577,2,0,L|236:209,1,71.9999978027344,0|0,0:0|0:0,0:0:0:0:
207,126,30911,1,8,0:0:0:0:
156,323,31077,53,4,0:0:0:0:
156,323,31911,6,0,L|200:323,3,35.9999989013672,0|0|2|0,0:0|0:0|0:0|0:0,0:0:0:0:
236,266,32244,2,0,L|280:266,3,35.9999989013672,8|0|2|0,0:0|0:0|0:0|0:0,0:0:0:0:
328,322,32577,6,0,P|367:326|406:318,1,80,4|2,0:0|0:0,0:0:0:0:
481,217,32911,2,0,P|441:212|403:221,1,80,8|2,0:0|0:0,0:0:0:0:
313,185,33244,2,0,P|317:145|309:106,1,80,0|2,0:0|0:0,0:0:0:0:
203,47,33577,2,0,P|198:86|206:125,1,80,8|2,0:0|0:0,0:0:0:0:
313,185,33911,5,0,0:0:0:0:
208,251,34077,1,2,0:0:0:0:
313,185,34244,1,8,0:0:0:0:
208,251,34410,1,2,0:0:0:0:
206,125,34577,2,0,P|166:118|126:121,1,80,0|2,0:0|0:0,0:0:0:0:
313,185,34911,2,0,P|352:178|392:181,1,80,8|2,0:0|0:0,0:0:0:0:
208,251,35244,6,0,P|132:272|62:238,1,160,0|8,0:0|0:0,0:0:0:0:
33,147,35744,1,2,0:0:0:0:
125,120,35911,2,0,P|129:80|125:41,1,80,0|2,0:0|0:0,0:0:0:0:
207,171,36244,2,0,P|202:210|207:250,1,80,8|2,0:0|0:0,0:0:0:0:
445,303,36577,38,0,L|286:305,1,160,0|8,0:0|0:0,0:0:0:0:
207,250,37077,1,2,0:0:0:0:
296,133,37244,2,0,P|300:93|296:53,1,80,0|2,0:0|0:0,0:0:0:0:
207,250,37577,2,0,P|202:210|207:171,1,80,8|2,0:0|0:0,0:0:0:0:
296,133,37911,6,0,L|375:132,1,80,0|2,0:0|0:0,0:0:0:0:
287,249,38244,2,0,L|207:249,1,80,8|2,0:0|0:0,0:0:0:0:
111,191,38577,1,0,0:0:0:0:
128,312,38744,1,2,0:0:0:0:
111,191,38911,1,8,0:0:0:0:
128,312,39078,1,2,0:0:0:0:
31,136,39244,6,0,P|96:94|171:115,1,160,0|8,0:0|0:0,0:0:0:0:
247,174,39744,1,2,0:0:0:0:
393,119,39911,1,0,0:0:0:0:
300,93,40077,1,2,0:0:0:0:
397,216,40244,1,8,0:0:0:0:
300,93,40411,1,2,0:0:0:0:
241,253,40577,38,0,L|247:174,1,80,0|2,0:0|0:0,0:0:0:0:
155,365,40911,2,0,L|150:286,1,80,8|2,0:0|0:0,0:0:0:0:
100,203,41244,1,0,0:0:0:0:
247,174,41411,1,2,0:0:0:0:
100,203,41577,1,8,0:0:0:0:
172,140,41744,6,0,L|331:140,1,160,6|2,0:0|0:0,0:0:0:0:
445,230,42244,2,0,L|366:230,1,80,8|2,0:0|0:0,0:0:0:0:
358,248,42494,1,0,0:0:0:0:
350,266,42577,1,0,0:0:0:0:
331,140,42744,1,2,0:0:0:0:
207,256,42911,1,8,0:0:0:0:
350,266,43077,1,2,0:0:0:0:
168,289,43244,38,0,P|171:225|165:161,1,128,4|0,0:0|0:0,0:0:0:0:
123,97,43744,1,2,0:0:0:0:
178,43,43911,2,0,L|260:42,1,64,8|0,0:0|0:0,0:0:0:0:
303,88,44244,1,0,0:0:0:0:
343,22,44411,54,0,P|377:73|364:134,1,128,0|8,0:0|0:0,0:0:0:0:
303,181,44911,2,0,L|239:181,1,64,0|0,0:0|0:0,0:0:0:0:
165,161,45244,1,8,0:0:0:0:
112,217,45411,2,0,B|127:258|127:258|211:262,1,128,2|0,0:0|0:0,0:0:0:0:
302,308,45911,6,0,P|296:244|302:180,1,128,4|0,0:0|0:0,0:0:0:0:
366,137,46411,1,2,0:0:0:0:
366,137,46577,2,0,P|302:142|238:136,1,128,8|0,0:0|0:0,0:0:0:0:
175,92,47077,1,0,0:0:0:0:
122,148,47244,54,0,L|123:211,1,64,2|8,0:0|0:0,0:0:0:0:
187,315,47577,2,0,L|189:252,1,64,0|2,0:0|0:0,0:0:0:0:
250,205,47911,2,0,L|345:208,2,96,8|0|2,0:0|0:0|0:0,0:0:0:0:
265,130,48577,6,0,L|392:135,1,128,4|0,0:0|0:0,0:0:0:0:
406,59,49077,2,0,L|278:53,1,128,2|0,0:0|0:0,0:0:0:0:
201,67,49577,2,0,P|172:79|140:81,1,64,2|0,0:0|0:0,0:0:0:0:
66,60,49911,53,8,0:0:0:0:
47,134,50077,2,0,L|57:279,1,128,2|2,0:0|0:0,0:0:0:0:
107,317,50577,2,0,P|135:303|166:299,1,64,8|0,0:0|0:0,0:0:0:0:
292,278,50911,2,0,P|264:263|233:260,1,64,2|0,0:0|0:0,0:0:0:0:
174,208,51244,6,0,P|177:145|173:81,1,128,4|0,0:0|0:0,0:0:0:0:
228,28,51744,1,2,0:0:0:0:
299,56,51911,2,0,P|295:119|299:183,1,128,8|0,0:0|0:0,0:0:0:0:
333,252,52411,1,2,0:0:0:0:
424,129,52577,5,0,0:0:0:0:
404,129,52660,1,0,0:0:0:0:
384,129,52743,1,2,0:0:0:0:
455,254,52911,1,8,0:0:0:0:
384,129,53077,1,0,0:0:0:0:
349,278,53244,1,2,0:0:0:0:
276,170,53411,1,2,0:0:0:0:
252,156,53494,1,0,0:0:0:0:
227,149,53577,1,8,0:0:0:0:
200,148,53661,1,0,0:0:0:0:
174,154,53744,1,2,0:0:0:0:
150,165,53827,1,0,0:0:0:0:
130,183,53911,6,0,L|130:263,1,80,4|2,0:0|0:0,0:0:0:0:
204,324,54244,1,8,0:0:0:0:
276,261,54411,2,0,L|275:101,1,160,2|2,0:0|0:0,0:0:0:0:
343,32,54911,1,8,0:0:0:0:
422,85,55077,1,2,0:0:0:0:
275,101,55244,6,0,P|235:104|195:104,1,80,0|2,0:0|0:0,0:0:0:0:
104,70,55577,1,8,0:0:0:0:
28,129,55744,2,0,L|39:294,1,160,2|2,0:0|0:0,0:0:0:0:
182,302,56244,1,8,0:0:0:0:
102,356,56411,1,2,0:0:0:0:
182,301,56577,38,0,L|341:300,2,160,0|8|0,0:0|0:0|0:0,0:0:0:0:
114,232,57411,2,0,P|114:192|111:152,1,80,2|8,0:0|0:0,0:0:0:0:
76,62,57744,1,2,0:0:0:0:
195,61,57911,6,0,P|234:63|274:55,1,80,4|2,0:0|0:0,0:0:0:0:
253,183,58244,2,0,P|288:165|318:139,1,80,8|2,0:0|0:0,0:0:0:0:
364,259,58577,2,0,P|386:225|399:188,1,80,0|2,0:0|0:0,0:0:0:0:
499,269,58911,2,0,P|501:229|493:189,1,80,8|2,0:0|0:0,0:0:0:0:
422,49,59244,21,6,0:0:0:0:
382,45,59911,1,2,0:0:0:0:
342,42,60577,5,2,0:0:0:0:
299,230,60911,1,0,0:0:0:0:
158,98,61244,2,0,L|21:96,2,120,0|0|0,0:0|0:0|0:0,0:0:0:0:
238,44,61911,5,4,0:0:0:0:
238,44,62577,1,8,0:0:0:0:
302,115,62744,1,0,0:0:0:0:
321,115,62827,1,0,0:0:0:0:
341,116,62910,1,0,0:0:0:0:
269,247,63077,1,8,0:0:0:0:
269,247,63577,37,0,0:0:0:0:
229,253,63911,1,0,0:0:0:0:
190,259,64244,1,0,0:0:0:0:
292,98,64577,38,0,L|451:99,2,160,4|8|0,0:0|0:0|0:0,0:0:0:0:
233,175,65411,2,0,P|223:213|229:252,1,80,2|8,0:0|0:0,0:0:0:0:
310,304,65744,6,0,L|389:298,1,80,2|0,0:0|0:0,0:0:0:0:
229,252,66077,2,0,L|149:246,1,80,2|8,0:0|0:0,0:0:0:0:
310,200,66411,2,0,L|389:194,1,80,2|0,0:0|0:0,0:0:0:0:
229,148,66744,2,0,L|149:142,1,80,2|8,0:0|0:0,0:0:0:0:
77,78,67077,1,2,0:0:0:0:
273,62,67244,38,0,P|322:123|310:200,1,160,0|8,0:0|0:0,0:0:0:0:
229,252,67744,1,2,0:0:0:0:
73,204,67911,2,0,P|111:192|151:194,1,80,0|2,0:0|0:0,0:0:0:0:
229,252,68244,1,8,0:0:0:0:
310,199,68411,6,0,L|389:196,1,80,2|0,0:0|0:0,0:0:0:0:
305,102,68744,2,0,L|302:22,1,80,2|8,0:0|0:0,0:0:0:0:
208,107,69077,2,0,L|128:109,1,80,2|0,0:0|0:0,0:0:0:0:
213,204,69411,2,0,L|215:283,1,80,2|8,0:0|0:0,0:0:0:0:
301,328,69744,1,2,0:0:0:0:
389,196,69911,6,0,L|310:199,1,80,4|2,0:0|0:0,0:0:0:0:
135,286,70244,2,0,L|214:283,1,80,8|2,0:0|0:0,0:0:0:0:
296,94,70577,2,0,L|216:96,1,80,0|2,0:0|0:0,0:0:0:0:
119,179,70911,1,8,0:0:0:0:
119,179,71077,1,2,0:0:0:0:
197,238,71244,38,0,P|198:277|197:317,1,80,0|2,0:0|0:0,0:0:0:0:
320,174,71577,2,0,P|318:213|319:253,1,80,8|2,0:0|0:0,0:0:0:0:
120,100,71911,2,0,P|121:139|120:179,1,80,0|2,0:0|0:0,0:0:0:0:
242,35,72244,1,8,0:0:0:0:
242,35,72411,1,2,0:0:0:0:
320,174,72577,6,0,L|488:165,1,160,0|8,0:0|0:0,0:0:0:0:
501,259,73077,1,2,0:0:0:0:
425,318,73244,2,0,L|345:322,1,80,0|2,0:0|0:0,0:0:0:0:
193,263,73577,2,0,L|273:259,1,80,8|2,0:0|0:0,0:0:0:0:
320,174,73911,5,4,0:0:0:0:
367,18,74077,2,0,P|378:56|376:96,1,80,2|8,0:0|0:0,0:0:0:0:
320,174,74411,1,2,0:0:0:0:
248,109,74577,1,0,0:0:0:0:
221,94,74660,1,0,0:0:0:0:
192,87,74743,1,2,0:0:0:0:
162,89,74826,1,0,0:0:0:0:
135,100,74910,1,8,0:0:0:0:
111,118,74993,1,0,0:0:0:0:
93,143,75076,1,2,0:0:0:0:
84,171,75160,1,0,0:0:0:0:
83,201,75244,38,0,L|95:376,2,160,4|8|0,0:0|0:0|0:0,0:0:0:0:
175,172,76077,2,0,P|212:184|252:183,1,80,2|8,0:0|0:0,0:0:0:0:
403,108,76411,6,0,P|365:120|326:120,1,80,2|0,0:0|0:0,0:0:0:0:
229,281,76744,2,0,P|266:268|306:269,1,80,2|8,0:0|0:0,0:0:0:0:
458,344,77078,2,0,P|420:331|380:332,1,80,2|0,0:0|0:0,0:0:0:0:
290,368,77411,2,0,L|210:368,1,80,2|8,0:0|0:0,0:0:0:0:
135,306,77744,1,2,0:0:0:0:
211,92,77911,6,0,P|215:172|214:252,1,160,0|8,0:0|0:0,0:0:0:0:
135,306,78411,1,2,0:0:0:0:
31,210,78577,2,0,L|111:213,1,80,0|2,0:0|0:0,0:0:0:0:
135,306,78911,1,8,0:0:0:0:
214,251,79077,38,0,L|293:249,1,80,2|0,0:0|0:0,0:0:0:0:
455,199,79411,2,0,L|376:198,1,80,2|8,0:0|0:0,0:0:0:0:
214,148,79744,2,0,L|293:146,1,80,2|0,0:0|0:0,0:0:0:0:
456,96,80077,2,0,L|376:94,1,80,2|8,0:0|0:0,0:0:0:0:
294,42,80411,1,2,0:0:0:0:
213,147,80577,6,0,P|136:131|63:159,2,160,4|8|0,0:0|0:0|0:0,0:0:0:0:
254,235,81411,2,0,L|254:332,1,80,2|8,0:0|0:0,0:0:0:0:
335,365,81744,1,2,0:0:0:0:
409,303,81911,6,0,L|409:143,2,160,0|8|0,0:0|0:0|0:0,0:0:0:0:
335,365,82744,1,2,0:0:0:0:
254,315,82911,2,0,P|214:309|175:316,1,80,8|2,0:0|0:0,0:0:0:0:
134,148,83244,38,0,P|173:154|213:147,1,80,2|2,0:0|0:0,0:0:0:0:
377,186,83577,2,0,P|338:180|299:188,1,80,8|2,0:0|0:0,0:0:0:0:
229,56,83911,2,0,P|268:61|307:54,1,80,0|2,0:0|0:0,0:0:0:0:
473,93,84244,2,0,P|433:87|394:94,1,80,8|2,0:0|0:0,0:0:0:0:
299,188,84577,5,0,0:0:0:0:
286,214,84660,1,0,0:0:0:0:
286,244,84743,1,2,0:0:0:0:
300,270,84826,1,0,0:0:0:0:
324,288,84911,2,0,L|364:288,3,40,8|0|2|0,0:0|0:0|0:0|0:0,0:0:0:0:
385,366,85244,5,0,0:0:0:0:
355,365,85327,1,0,0:0:0:0:
325,365,85410,1,2,0:0:0:0:
295,364,85493,1,0,0:0:0:0:
265,364,85577,2,0,L|225:364,3,40,8|0|2|0,0:0|0:0|0:0|0:0,0:0:0:0:
148,335,85911,6,0,L|144:243,1,80,6|0,0:0|0:0,0:0:0:0:
139,159,86244,1,8,0:0:0:0:
263,278,86411,6,0,L|259:186,1,80,6|0,0:0|0:0,0:0:0:0:
254,102,86744,1,8,0:0:0:0:
378,221,86911,53,4,0:0:0:0:
256,192,87077,12,0,88744,0:0:0:0:
