osu file format v14

[General]
AudioFilename: audio.mp3
AudioLeadIn: 0
PreviewTime: 63577
Countdown: 0
SampleSet: Soft
StackLeniency: 0.4
Mode: 0
LetterboxInBreaks: 0
WidescreenStoryboard: 0

[Editor]
Bookmarks: 5911
DistanceSpacing: 1.5
BeatDivisor: 4
GridSize: 16
TimelineZoom: 1.7

[Metadata]
Title:Ai no Scenario
TitleUnicode:アイのシナリオ
Artist:CHiCO with HoneyWorks
ArtistUnicode:CHiCO with HoneyWorks
Creator:ProEzreal
Version:Irohas' Hard
Source:まじっく快斗1412
Tags:magic kaito Neoskylove Karia MugiwaraSekai Hazu- Irohas
BeatmapID:1076874
BeatmapSetID:493133

[Difficulty]
HPDrainRate:5
CircleSize:4
OverallDifficulty:6
ApproachRate:8
SliderMultiplier:1.4
SliderTickRate:1

[Events]
//Background and Video events
0,0,"bg16.jpg",0,0
//Break Periods
//Storyboard Layer 0 (Background)
//Storyboard Layer 1 (Fail)
//Storyboard Layer 2 (Pass)
//Storyboard Layer 3 (Foreground)
//Storyboard Sound Samples

[TimingPoints]
578,333.333333333333,4,2,13,70,1,0
11244,-100,4,2,13,60,0,0
16577,-100,4,2,13,80,0,0
21911,-100,4,2,13,60,0,0
32577,-100,4,2,13,70,0,0
43244,-133.333333333333,4,2,13,60,0,0
52577,-117.647058823529,4,2,13,60,0,0
53911,-100,4,2,13,70,0,0
59244,-100,4,2,13,60,0,0
61244,-125,4,2,13,60,0,0
63577,-125,4,2,13,50,0,0
64577,-100,4,2,13,80,0,1
74911,-100,4,2,13,80,0,0
75244,-100,4,2,13,80,0,1
85911,-100,4,2,13,70,0,0
88744,-100,4,2,13,5,0,0

[Colours]
Combo1 : 91,91,91
Combo2 : 115,2,253
Combo3 : 210,27,237
Combo4 : 255,36,41
Combo5 : 204,206,213

[HitObjects]
55,96,578,6,0,P|107:98|141:105,1,70,4|0,0:0|0:0,0:0:0:0:
150,176,911,2,0,P|152:125|224:79,1,140,2|2,0:0|0:0,0:0:0:0:
308,52,1411,1,0,0:0:0:0:
308,52,1577,2,0,P|351:56|400:62,1,70,2|0,0:0|0:0,0:0:0:0:
506,106,1911,6,0,P|463:110|414:116,1,70,2|0,0:0|0:0,0:0:0:0:
356,156,2244,2,0,P|345:230|341:316,1,140,2|2,0:0|0:3,0:0:0:0:
262,341,2744,1,0,0:0:0:0:
262,341,2911,2,0,P|260:298|262:255,1,70,2|0,0:3|0:0,0:0:0:0:
204,200,3244,6,0,P|155:182|136:183,1,70,2|0,0:0|0:0,0:0:0:0:
53,148,3577,2,0,P|58:110|64:70,1,70,2|0,0:0|0:0,0:0:0:0:
127,13,3911,1,2,0:0:0:0:
173,91,4077,2,0,P|222:109|241:108,1,70,2|2,0:0|0:0,0:0:0:0:
356,24,4411,38,0,B|326:56|311:84|311:84|324:126|305:161,1,140
332,236,4911,1,2,0:0:0:0:
272,304,5077,2,0,P|230:308|200:299,1,70,0|2,0:0|0:0,0:0:0:0:
156,379,5411,2,0,P|125:349|116:318,1,70,4|2,0:0|0:0,0:0:0:0:
18,245,5744,1,2,0:0:0:0:
18,245,5911,6,0,B|44:212|53:186|53:186|91:169|149:200,1,140,6|2,0:0|0:0,0:0:0:0:
204,226,6411,1,0,0:0:0:0:
280,177,6577,2,0,P|315:161|359:162,1,70,2|0,0:0|0:0,0:0:0:0:
430,194,6911,2,0,P|426:233|424:281,1,70,2|0,0:0|0:0,0:0:0:0:
476,364,7244,6,0,P|437:311|368:305,1,140,4|2,0:0|0:0,0:0:0:0:
279,279,7744,1,0,0:0:0:0:
218,347,7911,2,0,P|181:343|142:339,1,70,2|2,0:0|0:0,0:0:0:0:
76,283,8244,2,0,P|72:241|82:205,1,70,6|2,0:0|0:0,0:0:0:0:
26,107,8577,38,0,P|72:111|118:121,1,70,4|0,0:0|0:0,0:0:0:0:
175,70,8911,1,0,0:0:0:0:
248,144,9077,6,0,P|294:148|340:158,1,70,4|0,0:0|0:0,0:0:0:0:
399,111,9411,1,0,0:0:0:0:
488,188,9577,5,4,0:0:0:0:
44,324,10744,38,0,L|38:369,2,35,0|0|4,0:0|0:0|0:0,0:0:0:0:
64,241,11244,37,2,0:3:0:0:
131,302,11411,2,0,P|179:310|213:319,1,70,2|0,0:3|0:0,0:0:0:0:
278,269,11744,1,2,0:3:0:0:
285,359,11911,2,0,P|299:317|397:284,1,140,2|2,0:3|0:3,0:0:0:0:
462,240,12411,6,0,B|457:201|445:158,1,70,2|0,0:3|0:0,0:0:0:0:
481,86,12744,1,2,0:3:0:0:
396,51,12911,2,0,P|352:46|308:60,1,70,2|0,0:3|0:0,0:0:0:0:
237,66,13244,1,2,0:3:0:0:
229,156,13411,1,2,0:3:0:0:
156,210,13577,2,0,P|162:250|164:300,1,70,2|2,0:3|0:3,0:0:0:0:
90,334,13911,53,2,0:3:0:0:
163,279,14077,2,0,B|210:286|210:286|246:281,1,70,2|0,0:3|0:0,0:0:0:0:
311,328,14411,1,2,0:3:0:0:
375,264,14577,2,0,P|367:194|357:110,1,140,2|2,0:3|0:3,0:0:0:0:
417,54,15077,6,0,P|370:81|287:55,1,140,2|2,0:3|0:3,0:0:0:0:
184,13,15577,2,0,P|190:51|194:92,1,70,2|2,0:3|0:3,0:3:0:0:
123,142,15911,2,2,L|115:187,3,35,6|2|2|2,0:0|0:0|0:0|0:0,0:0:0:0:
96,217,16244,2,2,L|104:262,3,35
101,297,16577,6,0,P|159:262|232:277,1,140,4|8,0:0|0:0,0:0:0:0:
316,256,17077,1,2,0:0:0:0:
372,327,17244,2,0,P|412:321|452:318,1,70,2|2,0:0|0:0,0:0:0:0:
452,227,17577,1,8,0:0:0:0:
316,256,17744,6,0,P|311:176|300:94,1,140,2|2,0:0|0:0,0:0:0:0:
298,25,18244,2,0,P|256:35|229:54,1,70,10|0,0:0|0:0,0:0:0:0:
155,3,18577,2,0,P|135:41|132:74,1,70,2|0,0:0|0:0,0:0:0:0:
59,124,18911,2,0,P|91:152|130:158,1,70,10|0,0:0|0:0,0:0:0:0:
234,130,19244,6,0,B|233:180|200:203|200:203|189:238|206:280,1,140,4|8,0:0|0:0,0:0:0:0:
188,349,19744,1,2,0:0:0:0:
278,341,19911,2,0,P|318:344|373:350,2,70,2|2|10,0:0|0:0|0:0,0:0:0:0:
277,240,20411,38,0,P|346:244|436:250,1,140,2|2,0:0|0:0,0:0:0:0:
479,182,20911,2,0,P|452:163|410:154,1,70,10|0,0:0|0:0,0:0:0:0:
332,119,21244,2,0,P|337:97|353:37,1,70,2|8,0:0|0:0,0:0:0:0:
348,51,21494,1,0,0:0:0:0:
348,51,21577,1,8,0:0:0:0:
228,79,21744,37,8,0:0:0:0:
228,79,21827,1,0,0:0:0:0:
228,79,21911,2,0,P|148:86|72:104,1,140,4|2,0:0|0:0,0:0:0:0:
40,175,22411,1,0,0:0:0:0:
130,167,22577,2,0,P|170:157|225:155,1,70,2|0,0:0|0:0,0:0:0:0:
278,199,22911,2,0,P|271:253|269:284,1,70,2|0,0:0|0:0,0:0:0:0:
224,347,23244,6,0,P|256:307|354:309,1,140,2|2,0:0|0:0,0:0:0:0:
383,380,23744,2,0,P|386:318|398:232,1,140
372,152,24244,2,0,P|340:125|312:118,1,70,2|0,0:3|0:0,0:0:0:0:
220,40,24577,54,0,P|217:87|214:198,2,140,2|2|2,0:0|0:0|0:0,0:0:0:0:
128,48,25411,1,0,0:0:0:0:
67,115,25577,2,0,P|20:124|-21:113,1,70,2|0,0:0|0:0,0:0:0:0:
136,152,25911,6,0,P|150:197|145:243,1,70,2|0,0:0|0:0,0:0:0:0:
83,282,26244,2,0,P|127:246|219:275,1,140,2|2,0:0|0:3,0:0:0:0:
280,309,26744,1,0,0:0:0:0:
280,309,26911,2,0,P|334:319|361:316,1,70,2|0,0:3|0:0,0:0:0:0:
274,224,27244,54,0,P|268:176|263:136,1,70,2|0,0:0|0:0,0:0:0:0:
351,125,27577,2,0,P|357:77|362:37,1,70,2|0,0:0|0:0,0:0:0:0:
443,92,27911,1,0,0:0:0:0:
425,180,28077,1,0,0:0:0:0:
342,226,28244,2,0,P|295:230|254:210,1,70,2|0,0:0|0:0,0:0:0:0:
136,136,28577,6,0,B|177:141|203:175|203:175|224:143|265:139,1,140,2|2,0:0|0:0,0:0:0:0:
341,116,29077,1,0,0:0:0:0:
272,55,29244,2,0,P|233:62|193:77,1,70,2|0,0:3|0:0,0:0:0:0:
123,30,29577,2,0,P|113:68|109:112,1,70,2|0,0:3|0:0,0:0:0:0:
32,227,29911,54,0,B|41:192|58:171|58:171|96:202|151:177,1,140,2|2,0:0|0:0,0:0:0:0:
218,156,30411,1,0,0:0:0:0:
258,237,30577,2,0,P|253:268|247:321,2,70,0|2|2,0:0|0:0|0:0,0:0:0:0:
218,156,31077,5,12,0:0:0:0:
115,61,31911,2,8,L|162:67,3,35
188,48,32244,2,8,L|231:41,3,35
263,37,32577,6,0,B|315:46|357:19|357:19|362:47|394:68,1,140,4|8,0:0|0:0,0:0:0:0:
399,139,33077,1,0,0:0:0:0:
318,182,33244,2,0,P|309:215|307:250,1,70,2|2,0:0|0:0,0:0:0:0:
219,166,33577,2,0,P|217:131|209:98,1,70,8|0,0:0|0:0,0:0:0:0:
83,61,33911,6,0,P|108:127|112:196,1,140,0|8,0:0|0:0,0:0:0:0:
55,268,34411,2,0,P|94:234|195:238,1,140,0|2,0:0|0:0,0:0:0:0:
252,284,34911,2,0,B|290:298|290:298|340:292,1,70,10|2,0:0|0:0,0:0:0:0:
377,364,35244,6,0,P|357:314|387:218,2,140,2|8|2,0:0|0:0|0:0,0:0:0:0:
443,301,36077,1,0,0:0:0:0:
504,233,36244,2,0,P|500:190|495:153,1,70,8|0,0:0|0:0,0:0:0:0:
484,73,36577,38,0,P|455:48|356:57,1,140,2|8,0:3|0:0,0:0:0:0:
268,68,37077,1,0,0:0:0:0:
221,147,37244,2,0,P|176:145|129:147,1,70,2|2,0:0|0:3,0:0:0:0:
101,222,37577,1,10,0:0:0:0:
151,145,37744,1,2,0:3:0:0:
28,71,37911,6,0,P|32:114|37:144,1,70,2|0,0:0|0:0,0:0:0:0:
101,222,38244,2,0,P|97:265|92:295,1,70,8|0,0:0|0:0,0:0:0:0:
145,366,38577,2,0,P|174:341|214:331,1,70,2|0,0:0|0:0,0:0:0:0:
295,328,38911,2,0,P|349:336|380:336,1,70,8|0,0:0|0:0,0:0:0:0:
464,258,39244,6,0,P|423:219|338:225,1,140,2|8,0:0|0:0,0:0:0:0:
262,181,39744,2,0,L|252:37,1,140,0|2,0:0|0:0,0:0:0:0:
162,57,40244,2,0,L|169:134,1,70,10|2,0:0|0:0,0:0:0:0:
180,218,40577,38,0,P|145:202|107:202,2,70,2|0|8,0:0|0:0|0:0,0:0:0:0:
125,291,41077,1,0,0:0:0:0:
45,247,41244,2,0,B|30:212|30:212|38:171,1,70,2|0,0:0|0:0,0:0:0:0:
45,89,41577,1,8,0:0:0:0:
177,58,41744,6,0,B|247:79|253:17|331:61,1,140,4|0,0:0|0:0,0:0:0:0:
372,121,42244,2,0,B|377:161|377:161|369:196,1,70,12|0,0:0|0:0,0:0:0:0:
326,270,42577,2,8,P|341:278|385:283,2,35
254,212,42911,1,8,0:0:0:0:
188,275,43077,1,0,0:0:0:0:
125,335,43244,22,0,P|111:270|89:179,1,157.500006008148,4|0,0:0|0:0,0:0:0:0:
110,107,43911,2,0,L|168:116,1,52.5000020027161,8|0,0:0|0:0,0:0:0:0:
236,89,44244,1,0,0:0:0:0:
308,119,44411,6,0,P|348:158|409:159,1,105.000004005432,0|8,0:0|0:0,0:0:0:0:
382,84,44911,1,0,0:0:0:0:
472,213,45244,1,8,0:0:0:0:
437,289,45411,2,0,P|397:252|336:249,1,105.000004005432
282,288,45911,54,0,B|210:323|181:260|123:303,1,157.500006008148,4|0,0:0|0:0,0:0:0:0:
95,227,46577,2,0,L|88:163,1,52.5000020027161,8|0,0:0|0:0,0:0:0:0:
125,104,46911,1,0,0:0:0:0:
192,143,47077,6,0,L|257:147,1,52.5000020027161,0|2,0:0|0:0,0:0:0:0:
322,133,47411,2,0,P|326:174|318:195,2,52.5000020027161,2|0|0,0:0|0:0|0:0,0:0:0:0:
371,71,47911,2,0,B|403:107|403:107|452:109,2,78.7500030040742,8|0|0,0:0|0:0|0:0,0:0:0:0:
306,27,48577,54,0,B|236:21|236:21|206:50|184:61|152:60,1,157.500006008148,4|0,0:0|0:0,0:0:0:0:
101,112,49244,2,0,L|109:165,1,52.5000020027161,8|0,0:0|0:0,0:0:0:0:
132,239,49577,2,0,L|124:292,1,52.5000020027161,2|0,0:0|0:0,0:0:0:0:
180,347,49911,6,0,L|242:357,1,52.5000020027161,0|8,0:0|0:0,0:0:0:0:
383,311,50411,1,0,0:0:0:0:
338,240,50577,2,0,P|310:217|237:225,1,105.000004005432,8|0,0:0|0:0,0:0:0:0:
178,272,51077,1,0,0:0:0:0:
183,179,51244,54,0,B|219:132|300:137|300:137|277:115|280:92,1,157.500006008148,4|0,0:0|0:0,0:0:0:0:
219,68,51911,2,0,P|184:83|160:96,1,52.5000020027161,8|0,0:0|0:0,0:0:0:0:
107,136,52244,2,0,P|72:126|42:125,1,52.5000020027161,2|0,0:0|0:0,0:0:0:0:
183,179,52577,6,0,P|196:217|205:248,1,59.5000011348725,4|0,0:0|0:0,0:0:0:0:
256,298,52911,2,0,P|288:278|330:271,1,59.5000011348725,8|0,0:0|0:0,0:0:0:0:
391,262,53244,2,8,P|390:221|387:207,3,29.7500005674362
372,188,53577,2,8,P|373:147|376:133,3,29.7500005674362
388,112,53911,6,0,P|303:128|226:142,1,140,4|8,0:0|0:0,0:0:0:0:
160,123,54411,2,0,L|87:114,1,70,2|0,0:0|0:0,0:0:0:0:
37,188,54744,2,0,P|48:235|48:276,1,70,0|8,0:0|0:0,0:0:0:0:
82,343,55077,1,8,0:0:0:0:
82,343,55161,1,8,0:0:0:0:
82,343,55244,6,0,P|105:299|203:283,1,140,0|8,0:0|0:0,0:0:0:0:
272,311,55744,2,0,P|314:313|355:297,1,70,0|2,0:0|0:0,0:0:0:0:
425,272,56077,2,0,P|422:306|418:341,1,70,0|8,0:0|0:0,0:0:0:0:
356,210,56411,1,8,0:0:0:0:
356,210,56494,1,8,0:0:0:0:
356,210,56577,6,0,B|351:150|345:123|345:123|313:97|304:66,1,140,2|8,0:0|0:0,0:0:0:0:
392,41,57077,1,0,0:0:0:0:
448,118,57244,2,0,P|453:169|456:213,1,70,2|0,0:0|0:0,0:0:0:0:
443,281,57577,2,0,P|403:269|361:267,1,70,8|0,0:0|0:0,0:0:0:0:
278,308,57911,38,2,P|237:320|195:322,2,70,6|2|8,0:0|0:0|0:0,0:0:0:0:
361,271,58411,1,2,0:0:0:0:
308,197,58577,2,2,P|304:143|309:114,1,70,8|2,0:0|0:0,0:0:0:0:
267,44,58911,1,8,0:0:0:0:
178,61,59077,1,2,0:0:0:0:
114,125,59244,37,4,0:0:0:0:
97,231,59911,1,0,2:0:0:0:
138,326,60577,5,0,2:0:0:0:
183,170,60911,1,0,2:0:0:0:
299,290,61244,54,0,L|402:302,2,84,12|2|2,0:0|0:0|0:0,0:0:0:0:
220,319,61911,1,4,0:0:0:0:
287,165,62244,1,0,0:0:0:0:
147,257,62577,6,0,L|76:267,2,56,12|0|2,0:0|0:0|0:0,0:0:0:0:
220,319,63077,1,8,0:0:0:0:
220,319,63577,54,0,P|276:305|345:316,1,112
402,159,64244,1,0,0:0:0:0:
402,159,64577,22,0,P|373:122|269:110,1,140,4|8,0:0|0:0,0:0:0:0:
194,105,65077,1,0,0:0:0:0:
136,175,65244,2,0,P|143:227|149:261,1,70,2|0,0:0|0:0,0:0:0:0:
101,324,65577,1,8,0:0:0:0:
208,369,65744,6,0,P|237:338|333:331,1,140,2|2,0:0|0:0,0:0:0:0:
399,270,66244,1,8,0:0:0:0:
399,270,66411,2,0,P|366:250|324:244,1,70,2|2,0:0|0:0,0:0:0:0:
245,224,66744,1,2,0:0:0:0:
281,138,66911,2,0,P|284:96|287:58,1,70,8|2,0:0|0:0,0:0:0:0:
409,39,67244,6,0,P|381:68|274:59,1,140,4|8,0:0|0:0,0:0:0:0:
200,39,67744,1,0,0:0:0:0:
147,113,67911,2,0,P|149:147|152:182,1,70,2|0,0:0|0:0,0:0:0:0:
113,265,68244,1,8,0:0:0:0:
208,328,68411,38,0,P|247:328|282:308,1,70,2|2,0:0|0:0,0:0:0:0:
361,340,68744,2,0,P|364:290|351:256,1,70,2|8,0:0|0:0,0:0:0:0:
412,197,69077,2,0,P|371:182|337:183,1,70,2|2,0:0|0:0,0:0:0:0:
256,206,69411,1,2,0:0:0:0:
207,129,69577,2,0,P|213:90|222:47,1,70,8|2,0:0|0:0,0:0:0:0:
369,44,69911,6,0,P|353:115|343:207,1,140,4|8,0:0|0:0,0:0:0:0:
373,267,70411,1,0,0:0:0:0:
292,302,70577,2,0,P|253:293|219:299,1,70,2|2,0:0|0:0,0:0:0:0:
148,353,70911,2,0,P|109:345|73:341,1,70,10|2,0:0|0:0,0:0:0:0:
105,239,71244,6,0,B|110:182|110:182|127:132|115:103|115:103|120:70,1,140,2|8,0:0|0:0,0:0:0:0:
30,135,71744,1,0,0:0:0:0:
55,47,71911,2,0,P|94:26|131:25,1,70,2|2,0:0|0:0,0:0:0:0:
208,43,72244,2,0,P|247:43|288:46,1,70,10|2,0:0|0:0,0:0:0:0:
328,123,72577,38,0,P|254:117|168:117,1,140,2|8,0:0|0:0,0:0:0:0:
113,168,73077,1,0,0:0:0:0:
201,188,73244,2,0,P|261:190|303:195,1,70,2|2,0:0|0:0,0:0:0:0:
355,224,73577,2,0,P|376:261|383:294,1,70,10|2,0:0|0:0,0:0:0:0:
434,362,73911,6,0,P|406:336|303:339,1,140,4|8,0:0|0:0,0:0:0:0:
267,254,74411,2,8,L|274:204,2,35
221,332,74744,2,8,L|225:366,2,35
147,258,75077,1,8,0:0:0:0:
147,258,75161,1,8,0:0:0:0:
147,258,75244,6,0,P|141:189|138:101,1,140,4|8,0:0|0:0,0:0:0:0:
201,53,75744,1,0,0:0:0:0:
284,89,75911,2,0,P|331:92|358:95,1,70,2|2,0:0|0:0,0:0:0:0:
442,75,76244,1,8,0:0:0:0:
365,170,76411,38,0,P|370:237|375:312,1,140,2|2,0:0|0:0,0:0:0:0:
452,357,76911,1,8,0:0:0:0:
452,357,77077,2,0,P|455:314|458:281,1,70,2|2,0:0|0:0,0:0:0:0:
454,195,77411,1,2,0:0:0:0:
365,170,77577,2,0,P|325:165|287:168,1,70,8|2,0:0|0:0,0:0:0:0:
127,283,77911,6,0,P|170:305|247:258,1,140,4|8,0:0|0:0,0:0:0:0:
284,182,78411,1,0,0:0:0:0:
297,90,78577,2,0,B|294:47|294:47|281:16,1,70,2|2,0:0|0:0,0:0:0:0:
206,71,78911,1,8,0:0:0:0:
116,168,79077,6,0,P|76:173|40:165,1,70,2|2,0:0|0:0,0:0:0:0:
49,75,79411,2,0,P|89:70|125:78,1,70,2|8,0:0|0:0,0:0:0:0:
203,166,79744,2,0,P|217:234|203:309,1,140,2|2,0:0|0:0,0:0:0:0:
268,368,80244,2,0,P|302:360|341:361,1,70,8|2,0:0|0:0,0:0:0:0:
414,284,80577,38,0,P|400:216|414:141,1,140,4|8,0:0|0:0,0:0:0:0:
380,61,81077,1,0,0:0:0:0:
292,86,81244,2,0,P|253:95|202:81,1,70,2|2,0:0|0:0,0:0:0:0:
145,42,81578,2,0,P|109:39|73:43,1,70,10|2,0:0|0:0,0:0:0:0:
105,149,81911,6,0,B|110:206|110:206|127:256|115:285|115:285|120:318,1,140,2|8,0:0|0:0,0:0:0:0:
30,253,82411,1,0,0:0:0:0:
55,341,82578,2,0,P|94:362|131:363,1,70,2|2,0:0|0:0,0:0:0:0:
207,342,82911,2,0,P|251:337|309:335,1,70,10|2,0:0|0:0,0:0:0:0:
413,288,83244,6,0,P|373:283|328:281,1,70,2|0,0:3|0:0,0:0:0:0:
268,233,83577,1,8,0:0:0:0:
317,156,83744,2,0,P|324:98|328:69,1,70,2|2,0:3|0:0,0:0:0:0:
256,26,84077,1,0,0:0:0:0:
181,78,84244,2,0,L|102:84,1,70,10|2,0:0|0:0,0:0:0:0:
62,8,84577,38,0,P|71:100|77:161,1,140,2|8,0:0|0:0,0:0:0:0:
141,210,85077,2,0,B|148:254|148:254|144:296,1,70,2|2,0:0|0:0,0:0:0:0:
84,347,85411,2,0,P|127:316|212:330,1,140,2|0,0:0|0:0,0:0:0:0:
298,309,85911,6,0,P|351:314|388:318,1,70,4|0,0:0|0:0,0:0:0:0:
454,291,86244,1,2,0:0:0:0:
395,221,86411,2,0,B|390:178|390:178|392:133,1,70,4|0,0:0|0:0,0:0:0:0:
453,84,86744,1,0,0:0:0:0:
345,29,86911,1,4,0:0:0:0:
256,192,86994,12,0,88744,0:0:0:0:
