osu file format v14

[General]
AudioFilename: audio.mp3
AudioLeadIn: 0
PreviewTime: 63577
Countdown: 0
SampleSet: Soft
StackLeniency: 0.7
Mode: 0
LetterboxInBreaks: 0
WidescreenStoryboard: 0

[Editor]
DistanceSpacing: 1.1
BeatDivisor: 4
GridSize: 4
TimelineZoom: 1.7

[Metadata]
Title:Ai no Scenario
TitleUnicode:アイのシナリオ
Artist:CHiCO with HoneyWorks
ArtistUnicode:CHiCO with HoneyWorks
Creator:ProEzreal
Version:Hazu's Normal
Source:まじっく快斗1412
Tags:magic kaito Neoskylove Karia MugiwaraSekai Hazu- Irohas
BeatmapID:1074792
BeatmapSetID:493133

[Difficulty]
HPDrainRate:3
CircleSize:3.5
OverallDifficulty:4
ApproachRate:5
SliderMultiplier:1
SliderTickRate:1

[Events]
//Background and Video events
0,0,"bg16.jpg",0,0
//Break Periods
//Storyboard Layer 0 (Background)
//Storyboard Layer 1 (Fail)
//Storyboard Layer 2 (Pass)
//Storyboard Layer 3 (Foreground)
//Storyboard Sound Samples

[TimingPoints]
578,333.333333333333,4,2,13,70,1,0
11244,-100,4,2,13,60,0,0
16577,-100,4,2,13,80,0,0
21911,-100,4,2,13,60,0,0
32577,-100,4,2,13,70,0,0
43244,-100,4,2,13,60,0,0
53911,-100,4,2,13,70,0,0
59244,-100,4,2,13,60,0,0
64577,-100,4,2,13,80,0,1
74911,-100,4,2,13,80,0,0
75244,-100,4,2,13,80,0,1
85911,-100,4,2,13,70,0,0
88744,-100,4,2,13,5,0,0

[Colours]
Combo1 : 91,91,91
Combo2 : 115,2,253
Combo3 : 210,27,237
Combo4 : 255,36,41
Combo5 : 204,206,213

[HitObjects]
100,216,578,6,0,P|56:276|156:288,1,200,4|0,0:0|0:0,0:0:0:0:
228,228,1577,1,0,0:0:0:0:
332,260,1911,2,0,L|448:252,1,100
484,156,2577,2,0,L|372:144,1,100
276,144,3244,6,0,P|292:68|284:28,2,100,2|0|0,0:0|0:0|0:0,0:0:0:0:
212,232,4244,1,0,0:0:0:0:
116,180,4577,2,0,L|16:168,1,100
44,60,5244,1,0,0:0:0:0:
44,60,5411,2,0,L|144:72,1,100,6|2,0:0|0:0,0:0:0:0:
188,104,5911,6,0,L|288:92,1,100,4|0,0:0|0:0,0:0:0:0:
396,64,6577,2,0,P|396:124|404:164,1,100
448,264,7244,2,0,L|336:256,1,100
248,216,7911,1,0,0:0:0:0:
156,276,8244,1,0,0:0:0:0:
72,204,8577,38,0,P|60:152|72:92,1,100,2|0,0:0|0:0,0:0:0:0:
96,60,9077,2,0,L|216:44,1,100,2|0,0:0|0:0,0:0:0:0:
248,36,9577,1,6,0:0:0:0:
480,344,10744,2,0,L|416:336,1,50,0|2,0:0|0:3,0:0:0:0:
324,360,11244,37,0,0:0:0:0:
324,360,11411,2,0,L|316:248,1,100
332,208,11911,2,0,L|228:224,1,100
180,236,12411,2,0,P|188:188|168:132,1,100
148,92,12911,1,0,0:0:0:0:
56,156,13244,2,0,P|48:204|68:260,1,100
152,320,13911,5,0,0:0:0:0:
152,320,14077,2,0,L|256:332,1,100
304,348,14577,2,0,P|300:300|320:248,1,100
348,208,15077,2,0,L|452:196,1,100
500,188,15578,1,0,0:0:0:0:
436,100,15911,2,0,L|332:88,1,100
232,52,16577,6,0,P|208:100|216:160,1,100,6|8,0:0|0:0,0:0:0:0:
264,240,17244,2,0,P|308:236|332:240,2,50,2|2|8,0:0|0:0|0:0,0:0:0:0:
220,272,17744,2,0,P|160:260|116:252,1,100,2|0,0:0|0:0,0:0:0:0:
68,240,18244,1,10,0:0:0:0:
112,140,18577,2,0,P|176:140|228:136,1,100,2|10,0:0|0:0,0:0:0:0:
316,100,19244,6,0,L|324:220,1,100,2|8,0:0|0:0,0:0:0:0:
348,308,19911,2,0,P|292:312|276:316,2,50,2|2|8,0:0|0:0|0:0,0:0:0:0:
404,308,20411,2,0,P|428:272|452:208,1,100,2|0,0:0|0:0,0:0:0:0:
468,168,20911,1,10,0:0:0:0:
412,72,21244,1,2,0:0:0:0:
312,120,21577,1,10,0:0:0:0:
224,52,21911,22,0,L|124:63,1,100,4|0,0:0|0:0,0:0:0:0:
16,84,22577,2,0,P|36:140|40:196,1,100
20,288,23244,2,0,L|132:280,1,100
164,312,23744,2,0,P|148:244|164:200,1,100
188,172,24244,1,0,0:0:0:0:
260,256,24577,6,0,L|368:248,1,100
392,144,25244,2,0,L|284:136,1,100
188,172,25911,2,0,P|216:116|136:16,1,200
52,76,26910,1,0,0:0:0:0:
20,180,27244,54,0,P|12:252|32:288,1,100
120,224,27910,2,0,L|240:236,1,100
312,292,28577,2,0,B|408:276|408:276|464:300,2,150
224,356,29911,5,0,0:0:0:0:
128,300,30244,2,0,P|116:252|136:184,1,100
196,116,30911,2,0,L|260:112,1,50,0|2,0:0|0:3,0:0:0:0:
440,304,31911,2,0,L|372:300,1,50,10|10,0:0|0:0,0:0:0:0:
340,280,32244,2,0,L|272:276,1,50,10|10,0:0|0:0,0:0:0:0:
240,256,32577,6,0,P|252:296|228:356,1,100,4|8,0:0|0:0,0:0:0:0:
124,372,33244,2,0,L|16:364,1,100,0|8,0:0|0:0,0:0:0:0:
4,256,33911,2,0,L|112:248,1,100,0|8,0:0|0:0,0:0:0:0:
156,268,34411,2,0,P|148:216|148:152,1,100
148,112,34911,1,8,0:0:0:0:
252,152,35244,6,0,L|360:144,1,100,0|8,0:0|0:0,0:0:0:0:
372,36,35911,2,0,L|264:28,1,100,0|8,0:0|0:0,0:0:0:0:
164,44,36577,2,0,P|140:100|152:156,1,100,0|8,0:0|0:0,0:0:0:0:
208,228,37244,2,0,L|324:236,1,100,0|8,0:0|0:0,0:0:0:0:
416,224,37911,6,0,L|428:340,2,100,0|8|0,0:0|0:0|0:0,0:0:0:0:
380,120,38911,1,8,0:0:0:0:
276,160,39244,2,0,P|212:160|160:152,1,100,0|8,0:0|0:0,0:0:0:0:
128,132,39744,2,0,L|140:252,1,100
132,288,40244,1,8,0:0:0:0:
224,348,40577,37,0,0:0:0:0:
288,260,40911,1,8,0:0:0:0:
364,336,41244,2,0,L|468:344,1,100,0|8,0:0|0:0,0:0:0:0:
512,372,41744,2,0,P|504:308|500:264,1,100,12|0,0:0|0:0,0:0:0:0:
496,216,42244,1,12,0:0:0:0:
416,140,42578,1,0,0:0:0:0:
308,124,42911,1,0,0:0:0:0:
212,176,43244,38,0,P|228:256|224:292,1,100,4|0,0:0|0:0,0:0:0:0:
184,376,43911,2,0,L|304:372,1,100,8|0,0:0|0:0,0:0:0:0:
392,376,44577,1,0,0:0:0:0:
392,376,44744,2,0,L|396:260,1,100,8|0,0:0|0:0,0:0:0:0:
408,220,45244,1,8,0:0:0:0:
324,148,45577,1,0,0:0:0:0:
232,212,45911,6,0,P|164:216|116:216,1,100,4|0,0:0|0:0,0:0:0:0:
112,108,46577,2,0,P|180:104|228:104,1,100,8|0,0:0|0:0,0:0:0:0:
317,98,47244,2,0,L|325:158,1,50,0|8,0:0|0:3,0:0:0:0:
468,232,47911,2,0,L|476:180,2,50,2|2|2,0:0|0:0|0:0,0:0:0:0:
428,332,48577,54,0,L|324:328,1,100,4|0,0:0|0:0,0:0:0:0:
272,336,49077,1,2,0:0:0:0:
272,336,49244,2,0,P|276:292|268:224,1,100,8|0,0:0|0:0,0:0:0:0:
220,140,49911,1,0,0:0:0:0:
220,140,50077,2,0,L|112:148,1,100,8|0,0:0|0:0,0:0:0:0:
64,156,50577,1,8,0:0:0:0:
0,248,50911,1,0,0:0:0:0:
100,292,51244,6,0,P|164:276|216:260,1,100,4|0,0:0|0:0,0:0:0:0:
296,220,51911,2,0,L|304:328,1,100,8|0,0:0|0:0,0:0:0:0:
396,380,52577,2,0,L|452:372,1,50,8|8,0:0|0:0,0:0:0:0:
500,376,52911,2,0,P|488:328|488:264,1,100,8|8,0:0|0:0,0:0:0:0:
504,168,53577,1,8,0:0:0:0:
396,196,53911,6,0,P|324:196|280:184,1,100,6|8,0:0|0:0,0:0:0:0:
248,164,54411,2,0,L|256:272,1,100
256,320,54911,1,8,0:0:0:0:
152,360,55244,2,0,P|80:368|40:348,1,100,2|8,0:0|0:0,0:0:0:0:
24,312,55744,2,0,L|28:204,1,100
32,156,56244,1,8,0:0:0:0:
136,196,56577,6,0,P|192:196|248:188,1,100,0|8,0:0|0:0,0:0:0:0:
340,152,57244,2,0,L|348:264,1,100,0|8,0:0|0:0,0:0:0:0:
332,360,57911,2,0,L|444:352,2,100,8|8|8,0:0|0:0|0:0,0:0:0:0:
232,312,58911,1,8,0:0:0:0:
132,356,59244,21,6,0:0:0:0:
36,156,59911,1,2,0:0:0:0:
240,76,60577,1,2,0:0:0:0:
328,276,61244,2,0,P|372:272|416:284,2,75,8|8|8,0:0|0:0|0:0,0:0:0:0:
276,296,61911,6,0,L|168:272,1,100,6|0,0:0|0:0,0:0:0:0:
92,204,62577,2,0,L|80:268,2,50,8|8|8,0:0|0:0|0:0,0:0:0:0:
104,148,63077,1,2,0:0:0:0:
104,148,64577,6,0,L|116:252,1,100,6|8,0:0|0:0,0:0:0:0:
132,356,65244,2,0,P|200:344|244:356,1,100,2|8,0:0|0:0,0:0:0:0:
280,368,65744,2,0,P|268:296|284:260,1,100,2|2,0:0|0:0,0:0:0:0:
296,220,66244,1,8,0:0:0:0:
340,120,66578,2,0,L|224:108,1,100,0|8,0:0|0:0,0:0:0:0:
164,32,67244,6,0,P|132:76|132:124,1,100,2|8,0:0|0:0,0:0:0:0:
200,208,67911,2,0,P|232:252|232:300,1,100,2|8,0:0|0:0,0:0:0:0:
220,348,68411,2,0,L|332:336,1,100,2|2,0:0|0:0,0:0:0:0:
372,356,68910,1,8,0:0:0:0:
464,292,69244,2,0,P|476:236|460:184,1,100,0|8,0:0|0:0,0:0:0:0:
388,116,69911,6,0,L|276:132,1,100,4|8,0:0|0:0,0:0:0:0:
192,76,70577,2,0,L|80:60,1,100,0|8,0:0|0:0,0:0:0:0:
40,52,71077,1,0,0:0:0:0:
40,52,71244,2,0,P|40:104|36:168,1,100,0|8,0:0|0:0,0:0:0:0:
24,260,71911,2,0,L|136:256,1,100,0|8,0:0|0:0,0:0:0:0:
232,256,72577,38,0,L|220:360,2,100,2|8|0,0:0|0:0|0:0,0:0:0:0:
300,168,73578,1,8,0:0:0:0:
372,252,73911,2,0,P|424:268|476:256,1,100,4|8,0:0|0:0,0:0:0:0:
508,156,74577,2,0,L|496:52,1,100,8|8,0:0|0:0,0:0:0:0:
392,28,75244,6,0,L|380:132,1,100,6|8,0:0|0:0,0:0:0:0:
376,236,75911,2,0,L|268:220,1,100,2|8,0:0|0:0,0:0:0:0:
228,200,76411,2,0,P|240:252|232:312,1,100,2|2,0:0|0:0,0:0:0:0:
224,352,76911,1,8,0:0:0:0:
116,332,77244,2,0,P|104:280|112:220,1,100,0|8,0:0|0:0,0:0:0:0:
152,132,77911,6,0,L|48:124,2,100,2|8|0,0:0|0:0|0:0,0:0:0:0:
252,180,78911,1,8,0:0:0:0:
352,224,79244,2,0,L|460:212,1,100,0|8,0:0|0:0,0:0:0:0:
496,112,79911,2,0,L|392:104,1,100,0|8,0:0|0:0,0:0:0:0:
287,92,80577,38,0,P|255:132|255:192,1,100,4|8,0:0|0:0,0:0:0:0:
320,264,81244,2,0,P|352:304|352:364,1,100,2|8,0:0|0:0,0:0:0:0:
308,376,81744,2,0,L|188:364,1,100,2|0,0:0|0:0,0:0:0:0:
156,356,82244,1,8,0:0:0:0:
80,276,82577,2,0,P|76:216|76:164,1,100,0|8,0:0|0:0,0:0:0:0:
72,68,83244,6,0,L|192:76,1,100,2|8,0:0|0:0,0:0:0:0:
212,112,83744,2,0,L|332:104,1,100,2|0,0:0|0:0,0:0:0:0:
368,100,84244,1,14,0:0:0:0:
452,172,84577,2,0,P|464:216|460:276,1,100,8|8,0:0|0:0,0:0:0:0:
376,336,85244,2,0,L|260:328,1,100,8|8,0:0|0:0,0:0:0:0:
180,280,85911,6,0,L|28:300,2,150,4|4|4,0:0|0:0|0:0,0:0:0:0:
256,192,87077,12,0,88744,0:0:0:0:
