osu file format v14

[General]
AudioFilename: audio.mp3
AudioLeadIn: 0
PreviewTime: 63577
Countdown: 0
SampleSet: Soft
StackLeniency: 0.7
Mode: 0
LetterboxInBreaks: 0
WidescreenStoryboard: 0

[Editor]
DistanceSpacing: 1.8
BeatDivisor: 4
GridSize: 4
TimelineZoom: 2.4

[Metadata]
Title:Ai no Scenario
TitleUnicode:アイのシナリオ
Artist:CHiCO with HoneyWorks
ArtistUnicode:CHiCO with HoneyWorks
Creator:ProEzreal
Version:Extra
Source:まじっく快斗1412
Tags:magic kaito Neoskylove Karia MugiwaraSekai Hazu- Irohas
BeatmapID:1050357
BeatmapSetID:493133

[Difficulty]
HPDrainRate:6
CircleSize:4.2
OverallDifficulty:8
ApproachRate:9.2
SliderMultiplier:1.7
SliderTickRate:1

[Events]
//Background and Video events
0,0,"bg16.jpg",0,0
//Break Periods
//Storyboard Layer 0 (Background)
//Storyboard Layer 1 (Fail)
//Storyboard Layer 2 (Pass)
//Storyboard Layer 3 (Foreground)
//Storyboard Sound Samples

[TimingPoints]
578,333.333333333333,4,2,2,60,1,0
5411,-100,4,2,1,60,0,0
5577,-100,4,2,2,60,0,0
5744,-100,4,2,1,60,0,0
5911,-100,4,2,2,60,0,0
9577,-200,4,2,1,40,0,0
11244,-125,4,2,1,50,0,0
14411,-111.111111111111,4,2,1,50,0,0
14911,-100,4,2,1,50,0,0
15411,-90.9090909090909,4,2,1,50,0,0
15911,-83.3333333333333,4,2,1,70,0,0
16577,-100,4,2,3,60,0,0
21911,-111.111111111111,4,2,2,60,0,0
31911,-111.111111111111,4,2,3,60,0,0
32577,-99.9999999999999,4,2,3,60,0,0
43244,-125,4,2,1,60,0,0
52577,-125,4,2,3,60,0,0
53911,-111.111111111111,4,2,3,60,0,0
59244,-111.111111111111,4,2,1,40,0,0
64577,-90.9090909090908,4,2,3,80,0,1
85911,-100,4,2,1,60,0,0
86911,-200,4,2,1,50,0,1
87077,-200,4,2,1,50,0,0
88577,-200,4,2,1,10,0,0

[Colours]
Combo1 : 91,91,91
Combo2 : 115,2,253
Combo3 : 210,27,237
Combo4 : 255,36,41
Combo5 : 204,206,213

[HitObjects]
312,288,578,6,0,B|439:300|439:300|475:270,2,170,12|8|0,0:0|0:0|0:0,0:0:0:0:
237,218,1411,1,0,0:0:0:0:
274,123,1578,1,8,0:0:0:0:
372,96,1744,6,0,L|467:104,1,85,0|8,0:0|0:0,0:0:0:0:
274,123,2078,2,0,L|179:115,1,85,0|8,0:0|0:0,0:0:0:0:
342,195,2411,2,0,L|437:203,1,85,0|0,0:0|0:0,0:0:0:0:
237,219,2744,1,0,0:0:0:0:
165,292,2911,2,0,P|157:336|167:377,1,85,8|0,0:0|0:0,0:0:0:0:
237,219,3244,6,0,B|108:211|108:211|64:249,2,170,8|8|0,0:0|0:0|0:0,0:0:0:0:
312,150,4077,1,0,0:0:0:0:
271,56,4244,1,8,0:0:0:0:
172,27,4411,38,0,L|75:35,1,85,0|8,0:0|0:0,0:0:0:0:
271,56,4744,2,0,L|368:48,1,85,0|8,0:0|0:0,0:0:0:0:
187,123,5077,2,0,L|90:131,1,85,0|0,0:0|0:0,0:0:0:0:
40,267,5411,1,8,0:0:0:0:
215,328,5577,1,8,0:0:0:0:
36,282,5744,1,8,0:0:0:0:
218,312,5911,6,0,L|322:300,1,85,12|0,0:0|0:0,0:0:0:0:
396,228,6244,1,8,0:0:0:0:
452,312,6411,1,0,0:0:0:0:
448,324,6494,1,0,0:0:0:0:
444,336,6577,1,8,0:0:0:0:
396,228,6744,1,0,0:0:0:0:
444,140,6911,2,0,P|456:80|444:52,1,85,8|0,0:0|0:0,0:0:0:0:
276,76,7244,5,8,0:0:0:0:
376,96,7411,1,0,0:0:0:0:
212,28,7577,2,0,P|196:72|208:120,1,85,8|0,0:0|0:0,0:0:0:0:
224,140,7827,1,0,0:0:0:0:
224,140,7911,1,0,0:0:0:0:
312,188,8077,2,0,L|376:180,2,42.5,0|0|8,0:0|0:0|0:0,0:0:0:0:
224,240,8411,1,0,0:0:0:0:
96,72,8578,37,12,0:0:0:0:
56,240,8744,1,0,0:0:0:0:
194,344,8911,1,0,0:0:0:0:
80,92,9078,5,4,0:0:0:0:
212,204,9244,1,0,0:0:0:0:
372,152,9411,1,0,0:0:0:0:
64,112,9577,6,0,B|32:176|76:240|76:240|128:200|192:252|164:308|140:324,1,297.5,4|2,0:0|0:0,0:0:0:0:
124,336,10828,1,0,0:0:0:0:
124,336,10911,1,2,0:0:0:0:
264,264,11244,6,0,L|336:272,1,68,2|0,0:0|0:0,0:0:0:0:
384,336,11578,1,8,0:0:0:0:
288,176,11744,6,0,L|216:184,1,68,0|2,0:0|0:0,0:0:0:0:
168,248,12078,1,0,0:0:0:0:
264,92,12244,54,0,L|336:100,1,68,8|0,0:0|0:0,0:0:0:0:
384,164,12578,1,2,0:0:0:0:
288,8,12744,6,0,L|216:16,1,68,0|8,0:0|0:0,0:0:0:0:
168,80,13078,1,0,0:0:0:0:
254,180,13244,53,2,0:0:0:0:
264,92,13411,1,2,0:0:0:0:
183,269,13577,5,8,0:0:0:0:
169,181,13744,1,0,0:0:0:0:
76,296,13911,54,0,P|92:264|89:221,1,68,2|0,0:0|0:0,0:0:0:0:
14,247,14244,1,8,0:0:0:0:
254,180,14411,6,0,P|248:144|212:104,1,76.4999976654053,0|2,0:0|0:0,0:0:0:0:
169,181,14744,1,0,0:0:0:0:
374,343,14911,6,0,P|395:314|404:256,1,85,8|0,0:0|0:0,0:0:0:0:
287,262,15244,1,2,0:0:0:0:
451,93,15411,6,0,P|428:52|384:20,1,93.5000028533936,0|8,0:0|0:0,0:0:0:0:
323,147,15744,1,0,0:0:0:0:
413,243,15911,6,0,L|402:181,1,50.9999984436036,2|0,0:0|0:0,0:0:0:0:
304,68,16078,1,2,0:0:0:0:
260,93,16161,1,0,0:0:0:0:
240,139,16244,1,8,0:0:0:0:
250,188,16328,1,0,0:0:0:0:
287,222,16411,1,2,0:0:0:0:
337,228,16494,1,0,0:0:0:0:
404,192,16577,38,0,P|448:176|508:188,1,85,4|2,0:0|0:0,0:0:0:0:
328,308,16911,1,8,0:0:0:0:
240,139,17077,1,2,0:0:0:0:
240,139,17161,1,0,0:0:0:0:
240,139,17244,2,0,L|248:44,1,85,0|2,0:0|0:0,0:0:0:0:
400,168,17577,2,0,L|392:263,1,85,8|2,0:0|0:0,0:0:0:0:
244,306,17911,6,0,P|288:314|340:302,1,85,0|2,0:0|0:0,0:0:0:0:
183,200,18244,1,8,0:0:0:0:
130,309,18411,1,2,0:0:0:0:
268,212,18577,2,0,P|261:164|237:132,1,85,0|2,0:0|0:0,0:0:0:0:
109,226,18911,2,0,L|133:318,1,85,8|2,0:0|0:0,0:0:0:0:
137,124,19244,6,0,P|81:120|47:142,1,85,0|2,0:0|0:0,0:0:0:0:
268,212,19577,1,8,0:0:0:0:
386,53,19744,1,2,0:0:0:0:
386,53,19827,1,0,0:0:0:0:
386,53,19911,2,0,P|398:118|379:155,1,85,0|2,0:0|0:0,0:0:0:0:
250,98,20244,2,0,P|238:33|257:-4,1,85,8|2,0:0|0:0,0:0:0:0:
393,135,20577,37,0,0:0:0:0:
184,204,20744,1,2,0:0:0:0:
364,280,20911,2,0,L|456:268,1,85,8|2,0:0|0:0,0:0:0:0:
484,264,21161,1,0,0:0:0:0:
484,264,21244,1,0,0:0:0:0:
280,152,21411,5,2,0:0:0:0:
272,160,21494,1,0,0:0:0:0:
264,168,21577,2,0,L|260:212,1,42.5,8|0,0:0|0:0,0:0:0:0:
236,356,21744,2,0,L|232:304,1,42.5,2|0,0:0|0:0,0:0:0:0:
179,127,21911,22,0,L|185:233,1,76.4999976654053,4|0,0:0|0:0,0:0:0:0:
80,296,22244,2,0,L|84:217,1,76.4999976654053,8|0,0:0|0:0,0:0:0:0:
33,91,22577,1,0,0:0:0:0:
175,110,22744,1,0,0:0:0:0:
69,21,22911,1,8,0:0:0:0:
91,156,23077,1,0,0:0:0:0:
69,21,23244,5,0,0:0:0:0:
175,110,23411,2,0,L|267:106,1,76.4999976654053,0|8,0:0|0:0,0:0:0:0:
381,154,23744,1,0,0:0:0:0:
448,32,23911,2,0,L|356:28,1,76.4999976654053,0|0,0:0|0:0,0:0:0:0:
400,164,24244,2,0,L|492:168,1,76.4999976654053,8|0,0:0|0:0,0:0:0:0:
320,232,24577,54,0,L|152:248,1,152.999995330811,0|8,0:0|0:0,0:0:0:0:
68,152,25077,1,0,0:0:0:0:
172,60,25244,2,0,L|92:68,1,76.4999976654053,0|0,0:0|0:0,0:0:0:0:
184,176,25577,2,0,L|264:168,1,76.4999976654053,8|0,0:0|0:0,0:0:0:0:
405,80,25911,6,0,L|252:94,2,152.999995330811,0|8|0,0:0|0:0|0:0,0:0:0:0:
495,185,26744,1,0,0:0:0:0:
385,270,26911,1,8,0:0:0:0:
501,195,27077,1,0,0:0:0:0:
378,259,27244,53,0,0:0:0:0:
202,204,27411,1,2,0:0:0:0:
340,76,27577,1,8,0:0:0:0:
202,204,27744,1,2,0:0:0:0:
424,168,27911,5,0,0:0:0:0:
212,92,28077,1,2,0:0:0:0:
272,288,28244,1,8,0:0:0:0:
340,76,28411,1,2,0:0:0:0:
272,288,28577,54,0,L|451:269,1,152.999995330811,0|8,0:0|0:0,0:0:0:0:
201,204,29077,2,0,L|19:188,1,152.999995330811,0|0,0:0|0:0,0:0:0:0:
228,112,29577,1,8,0:0:0:0:
344,184,29744,1,0,0:0:0:0:
352,192,29827,1,0,0:0:0:0:
360,200,29911,6,0,L|352:296,1,76.4999976654053,0|0,0:0|0:0,0:0:0:0:
192,212,30244,2,0,L|200:300,1,76.4999976654053,8|0,0:0|0:0,0:0:0:0:
316,56,30577,1,0,0:0:0:0:
132,128,30744,1,0,0:0:0:0:
344,184,30911,1,8,0:0:0:0:
88,24,31077,1,4,0:0:0:0:
80,32,31911,5,0,0:0:0:0:
63,57,31994,1,0,0:0:0:0:
56,87,32077,1,2,0:0:0:0:
59,117,32160,1,0,0:0:0:0:
71,145,32244,1,8,0:0:0:0:
87,171,32327,1,0,0:0:0:0:
95,200,32410,1,2,0:0:0:0:
94,231,32493,1,0,0:0:0:0:
84,260,32577,6,0,L|-8:264,1,85,4|2,0:0|0:0,0:0:0:0:
170,192,32911,1,8,0:0:0:0:
136,340,33077,1,2,0:0:0:0:
258,247,33244,2,0,L|378:239,1,85,0|2,0:0|0:0,0:0:0:0:
439,162,33577,1,8,0:0:0:0:
464,313,33744,1,2,0:0:0:0:
512,167,33911,5,0,0:0:0:0:
399,270,34077,2,0,L|315:266,1,85,2|8,0:0|0:0,0:0:0:0:
177,194,34411,1,2,0:0:0:0:
136,340,34577,2,0,L|228:343,1,85,0|2,0:0|0:0,0:0:0:0:
156,202,34911,2,0,L|64:199,1,85,8|2,0:0|0:0,0:0:0:0:
244,233,35244,38,0,L|336:236,1,85,0|2,0:0|0:0,0:0:0:0:
422,114,35577,2,0,P|406:165|424:217,1,85,8|2,0:0|0:0,0:0:0:0:
502,69,35911,1,0,0:0:0:0:
354,26,36077,1,2,0:0:0:0:
236,124,36244,2,0,L|328:127,1,85,8|2,0:0|0:0,0:0:0:0:
181,65,36577,6,0,P|158:111|172:171,1,85,0|2,0:0|0:0,0:0:0:0:
234,277,36911,1,8,0:0:0:0:
88,230,37077,1,2,0:0:0:0:
88,230,37161,1,0,0:0:0:0:
88,230,37244,1,0,0:0:0:0:
234,277,37411,2,0,L|345:266,1,85,2|8,0:0|0:0,0:0:0:0:
150,349,37744,1,2,0:0:0:0:
267,180,37911,5,0,0:0:0:0:
382,347,38077,1,2,0:0:0:0:
476,169,38244,1,8,0:0:0:0:
280,304,38411,1,2,0:0:0:0:
352,96,38577,37,0,0:0:0:0:
280,304,38744,1,2,0:0:0:0:
216,70,38911,1,8,0:0:0:0:
384,216,39077,1,2,0:0:0:0:
216,70,39244,6,0,L|104:78,1,85,0|2,0:0|0:0,0:0:0:0:
36,197,39577,1,8,0:0:0:0:
172,268,39744,1,2,0:0:0:0:
180,256,39827,1,0,0:0:0:0:
188,244,39911,1,0,0:0:0:0:
56,320,40077,1,2,0:0:0:0:
200,372,40244,2,0,L|304:364,1,85,8|2,0:0|0:0,0:0:0:0:
360,232,40577,5,0,0:0:0:0:
440,360,40744,1,2,0:0:0:0:
488,180,40911,1,8,0:0:0:0:
268,208,41077,1,2,0:0:0:0:
272,216,41161,1,0,0:0:0:0:
276,224,41244,2,0,L|372:232,1,85,0|2,0:0|0:0,0:0:0:0:
268,104,41577,1,8,0:0:0:0:
152,292,41744,38,0,L|352:308,1,170,6|2,0:0|0:0,0:0:0:0:
452,224,42244,1,8,0:0:0:0:
320,156,42411,2,0,P|352:156|376:164,1,42.5,2|0,0:0|0:0,0:0:0:0:
460,232,42577,1,0,0:0:0:0:
328,316,42744,1,2,0:0:0:0:
204,284,42911,1,8,0:0:0:0:
104,352,43077,1,2,0:0:0:0:
72,236,43244,38,0,L|84:392,2,136,4|0|8,0:0|0:0|0:0,0:0:0:0:
33,164,44077,2,0,P|24:126|29:96,1,68,0|0,0:0|0:0,0:0:0:0:
78,33,44411,1,0,0:0:0:0:
176,79,44577,6,0,L|171:155,1,68,2|8,0:0|0:0,0:0:0:0:
252,48,44911,1,0,0:0:0:0:
327,191,45244,2,0,L|322:267,1,68,8|2,0:0|0:0,0:0:0:0:
402,154,45578,1,0,0:0:0:0:
335,107,45744,1,0,0:0:0:0:
258,136,45911,54,0,L|246:293,2,136,4|0|8,0:0|0:0|0:0,0:0:0:0:
113,59,46911,2,0,L|30:68,1,68,0|0,0:0|0:0,0:0:0:0:
14,142,47244,1,2,0:0:0:0:
27,222,47411,1,8,0:0:0:0:
91,271,47577,2,0,L|170:281,1,68,0|2,0:0|0:0,0:0:0:0:
215,338,47911,6,0,L|346:326,1,102,8|0,0:0|0:0,0:0:0:0:
349,304,48244,2,0,L|427:315,1,68,0|2,0:0|0:0,0:0:0:0:
492,280,48577,54,0,P|511:211|485:143,1,136,4|0,0:0|0:0,0:0:0:0:
420,108,49077,2,0,P|386:124|334:124,1,68,2|8,0:0|0:0,0:0:0:0:
200,68,49577,2,0,P|183:124|201:176,1,102,2|0,0:0|0:0,0:0:0:0:
213,200,49911,6,0,P|227:249|216:280,1,68,8|2,0:0|0:0,0:0:0:0:
169,325,50244,1,0,0:0:0:0:
38,230,50577,2,0,L|34:67,1,136,8|2,0:0|0:0,0:0:0:0:
211,51,51244,54,0,P|298:36|394:112,1,204,4|2,0:0|0:0,0:0:0:0:
430,170,51911,1,8,0:0:0:0:
399,330,52244,2,0,L|326:337,1,68,0|2,0:0|0:0,0:0:0:0:
257,300,52577,21,0,0:0:0:0:
252,312,52661,1,0,0:0:0:0:
248,324,52744,1,2,0:0:0:0:
128,344,52911,2,0,L|32:352,1,68,8|2,0:0|0:0,0:0:0:0:
88,228,53244,1,0,0:0:0:0:
267,164,53411,1,2,0:0:0:0:
264,197,53494,1,0,0:0:0:0:
261,231,53577,1,8,0:0:0:0:
259,265,53661,1,0,0:0:0:0:
256,300,53744,2,0,L|202:306,1,34,2|0,0:0|0:0,0:0:0:0:
80,216,53911,5,4,0:0:0:0:
267,164,54077,2,0,L|360:176,1,76.4999976654053,2|8,0:0|0:0,0:0:0:0:
96,88,54411,1,2,0:0:0:0:
96,88,54494,1,0,0:0:0:0:
96,88,54577,2,0,L|3:100,1,76.4999976654053,0|2,0:0|0:0,0:0:0:0:
256,172,54911,1,8,0:0:0:0:
424,8,55077,1,2,0:0:0:0:
424,8,55161,1,0,0:0:0:0:
424,8,55244,5,0,0:0:0:0:
376,252,55411,1,2,0:0:0:0:
504,132,55577,1,8,0:0:0:0:
256,172,55744,1,2,0:0:0:0:
256,172,55827,1,0,0:0:0:0:
256,172,55911,2,0,P|216:160|160:164,1,76.4999976654053,0|2,0:0|0:0,0:0:0:0:
36,280,56244,1,8,0:0:0:0:
100,56,56411,1,2,0:0:0:0:
100,56,56494,1,0,0:0:0:0:
100,56,56577,38,0,L|208:48,1,76.4999976654053,0|2,0:0|0:0,0:0:0:0:
400,160,56911,1,8,0:0:0:0:
176,276,57077,1,2,0:0:0:0:
176,276,57161,1,0,0:0:0:0:
176,276,57244,1,0,0:0:0:0:
304,60,57411,1,2,0:0:0:0:
384,280,57577,1,8,0:0:0:0:
288,56,57744,1,2,0:0:0:0:
340,356,57911,6,0,P|380:364|432:356,1,76.4999976654053,4|2,0:0|0:0,0:0:0:0:
96,180,58244,2,0,P|56:172|4:180,1,76.4999976654053,8|2,0:0|0:0,0:0:0:0:
40,364,58577,5,0,0:0:0:0:
96,180,58744,1,2,0:0:0:0:
224,336,58911,1,8,0:0:0:0:
292,92,59077,1,2,0:0:0:0:
400,332,59244,6,0,L|416:180,1,152.999995330811,6|0,0:0|0:0,0:0:0:0:
96,180,59911,2,0,L|112:332,1,152.999995330811,2|0,0:0|0:0,0:0:0:0:
256,160,60577,2,0,L|256:-16,1,152.999995330811,2|0,0:0|0:0,0:0:0:0:
140,196,61244,5,2,0:0:0:0:
256,316,61494,1,0,0:0:0:0:
372,196,61744,1,0,0:0:0:0:
256,120,61911,54,0,L|256:273,1,152.999995330811,4|0,0:0|0:0,0:0:0:0:
444,356,62577,2,0,L|452:264,1,76.4999976654053,8|0,0:0|0:0,0:0:0:0:
456,236,62827,1,0,0:0:0:0:
456,236,62911,1,0,0:0:0:0:
180,144,63077,1,8,0:0:0:0:
164,160,63577,6,0,P|152:240|180:312,2,152.999995330811,0|0|0,0:0|0:0|0:0,0:0:0:0:
264,76,64577,6,0,L|384:68,1,93.5000028533936,4|2,0:0|0:0,0:0:0:0:
493,192,64911,1,8,0:0:0:0:
328,260,65077,1,2,0:0:0:0:
328,260,65161,1,0,0:0:0:0:
328,260,65244,2,0,L|316:148,1,93.5000028533936,0|2,0:0|0:0,0:0:0:0:
471,283,65577,1,8,0:0:0:0:
276,344,65744,1,2,0:0:0:0:
260,352,65827,1,0,0:0:0:0:
244,360,65911,6,0,L|144:356,1,93.5000028533936,0|2,0:0|0:0,0:0:0:0:
0,264,66244,1,8,0:0:0:0:
152,176,66411,2,0,P|160:228|144:272,1,93.5000028533936,2|0,0:0|0:0,0:0:0:0:
19,139,66744,2,0,P|11:83|23:39,1,93.5000028533936,2|8,0:0|0:0,0:0:0:0:
152,176,67077,1,2,0:0:0:0:
222,36,67244,6,0,L|330:32,1,93.5000028533936,0|2,0:0|0:0,0:0:0:0:
480,72,67577,1,8,0:0:0:0:
329,138,67744,1,2,0:0:0:0:
329,138,67827,1,0,0:0:0:0:
329,138,67911,2,0,P|321:190|357:246,1,93.5000028533936,0|2,0:0|0:0,0:0:0:0:
447,336,68244,1,8,0:0:0:0:
232,304,68411,1,2,0:0:0:0:
236,312,68494,1,0,0:0:0:0:
240,320,68577,38,0,L|352:328,1,93.5000028533936,0|2,0:0|0:0,0:0:0:0:
169,189,68911,2,0,L|57:197,1,93.5000028533936,8|2,0:0|0:0,0:0:0:0:
147,358,69244,1,0,0:0:0:0:
296,212,69411,1,2,0:0:0:0:
304,188,69494,1,0,0:0:0:0:
312,164,69577,1,8,0:0:0:0:
108,44,69744,1,2,0:0:0:0:
116,72,69827,1,0,0:0:0:0:
124,100,69911,6,0,L|240:108,1,93.5000028533936,4|2,0:0|0:0,0:0:0:0:
376,36,70244,1,8,0:0:0:0:
420,208,70411,1,2,0:0:0:0:
420,208,70494,1,0,0:0:0:0:
420,208,70577,1,0,0:0:0:0:
391,33,70744,1,2,0:0:0:0:
404,208,70911,2,0,P|408:148|396:116,1,93.5000028533936,8|2,0:0|0:0,0:0:0:0:
208,248,71244,6,0,L|320:260,1,93.5000028533936,0|2,0:0|0:0,0:0:0:0:
212,116,71577,1,8,0:0:0:0:
70,209,71744,1,2,0:0:0:0:
70,209,71827,1,0,0:0:0:0:
70,209,71911,1,0,0:0:0:0:
202,104,72077,1,2,0:0:0:0:
82,221,72244,2,0,P|132:189|152:155,1,93.5000028533936,8|2,0:0|0:0,0:0:0:0:
12,88,72577,37,0,0:0:0:0:
0,256,72744,1,2,0:0:0:0:
152,332,72911,2,0,L|268:312,1,93.5000028533936,8|2,0:0|0:0,0:0:0:0:
412,239,73244,2,0,B|352:228,1,46.7500014266968,0|0,0:0|0:0,0:0:0:0:
256,212,73411,1,2,0:0:0:0:
460,315,73577,2,0,P|500:263|496:215,1,93.5000028533936,8|2,0:0|0:0,0:0:0:0:
444,148,73827,1,0,0:0:0:0:
428,128,73911,6,0,L|308:132,1,93.5000028533936,4|2,0:0|0:0,0:0:0:0:
300,136,74161,1,0,0:0:0:0:
300,136,74244,1,8,0:0:0:0:
128,264,74411,1,2,0:0:0:0:
128,264,74494,1,0,0:0:0:0:
128,264,74577,6,0,L|120:320,1,46.7500014266968,0|0,0:0|0:0,0:0:0:0:
52,140,74744,1,2,0:0:0:0:
87,110,74827,1,0,0:0:0:0:
133,104,74910,1,8,0:0:0:0:
175,122,74994,1,0,0:0:0:0:
212,150,75077,1,2,0:0:0:0:
258,155,75160,1,0,0:0:0:0:
300,136,75244,38,0,L|296:32,1,93.5000028533936,4|2,0:0|0:0,0:0:0:0:
133,104,75577,1,8,0:0:0:0:
244,250,75744,1,2,0:0:0:0:
256,262,75827,1,0,0:0:0:0:
268,274,75911,2,0,L|388:266,1,93.5000028533936,0|2,0:0|0:0,0:0:0:0:
455,113,76244,1,8,0:0:0:0:
288,48,76411,1,2,0:0:0:0:
288,48,76494,1,0,0:0:0:0:
288,48,76577,6,0,L|300:148,1,93.5000028533936,0|2,0:0|0:0,0:0:0:0:
184,268,76911,1,8,0:0:0:0:
48,172,77077,2,0,L|68:56,1,93.5000028533936,2|0,0:0|0:0,0:0:0:0:
176,256,77411,1,2,0:0:0:0:
16,316,77577,1,8,0:0:0:0:
138,179,77744,1,2,0:0:0:0:
208,364,77911,6,0,L|328:352,1,93.5000028533936,0|2,0:0|0:0,0:0:0:0:
443,240,78244,1,8,0:0:0:0:
292,140,78411,1,2,0:0:0:0:
188,276,78577,2,0,L|300:268,1,93.5000028533936,0|2,0:0|0:0,0:0:0:0:
409,144,78911,1,8,0:0:0:0:
256,52,79077,1,2,0:0:0:0:
256,52,79161,1,0,0:0:0:0:
256,52,79244,38,0,L|152:60,1,93.5000028533936,0|2,0:0|0:0,0:0:0:0:
32,204,79577,1,8,0:0:0:0:
216,160,79744,1,2,0:0:0:0:
40,92,79911,1,0,0:0:0:0:
144,252,80077,1,2,0:0:0:0:
40,92,80244,1,8,0:0:0:0:
8,292,80411,1,2,0:0:0:0:
16,308,80494,1,0,0:0:0:0:
24,324,80577,6,0,L|132:332,1,93.5000028533936,4|2,0:0|0:0,0:0:0:0:
242,229,80911,1,8,0:0:0:0:
387,352,81077,1,2,0:0:0:0:
387,352,81161,1,0,0:0:0:0:
387,352,81244,1,0,0:0:0:0:
352,156,81411,1,2,0:0:0:0:
272,312,81577,2,0,L|156:304,1,93.5000028533936,8|2,0:0|0:0,0:0:0:0:
52,192,81911,5,0,0:0:0:0:
184,65,82077,1,2,0:0:0:0:
292,220,82244,2,0,P|348:240|400:232,1,93.5000028533936,8|2,0:0|0:0,0:0:0:0:
420,224,82494,1,0,0:0:0:0:
420,224,82577,1,0,0:0:0:0:
360,56,82744,2,0,L|264:60,1,93.5000028533936,2|8,0:0|0:0,0:0:0:0:
165,200,83077,1,2,0:0:0:0:
40,56,83244,37,2,0:0:0:0:
84,264,83411,1,2,0:0:0:0:
84,264,83577,1,8,0:0:0:0:
244,132,83744,5,2,0:0:0:0:
44,60,83911,1,0,0:0:0:0:
44,60,84077,1,2,0:0:0:0:
224,254,84244,2,0,L|348:246,1,93.5000028533936,8|2,0:0|0:0,0:0:0:0:
440,72,84577,6,0,L|316:80,1,93.5000028533936,0|2,0:0|0:0,0:0:0:0:
304,84,84827,1,0,0:0:0:0:
304,84,84911,1,8,0:0:0:0:
132,156,85077,1,2,0:0:0:0:
132,156,85161,1,0,0:0:0:0:
132,156,85244,38,0,L|140:224,1,46.7500014266968,0|0,0:0|0:0,0:0:0:0:
236,352,85411,1,2,0:0:0:0:
256,348,85494,1,0,0:0:0:0:
272,336,85577,2,0,L|280:276,1,46.7500014266968,8|0,0:0|0:0,0:0:0:0:
380,116,85744,2,0,L|388:184,1,46.7500014266968,2|0,0:0|0:0,0:0:0:0:
408,328,85911,5,6,0:0:0:0:
144,272,86077,1,0,0:0:0:0:
384,160,86244,1,8,0:0:0:0:
92,88,86411,5,6,0:0:0:0:
304,220,86577,1,0,0:0:0:0:
40,280,86744,1,8,0:0:0:0:
252,108,86911,38,0,B|288:48|380:56|412:108|408:184|368:228|302:218|302:218|312:280|280:332,1,425,4|0,0:0|0:0,0:0:0:0:
256,316,88661,2,0,P|264:284|264:280,1,21.25,0|0,0:0|0:0,0:0:0:0:
