osu file format v14

[General]
AudioFilename: audio.mp3
AudioLeadIn: 0
PreviewTime: 63436
Countdown: 0
SampleSet: Soft
StackLeniency: 0.7
Mode: 0
LetterboxInBreaks: 0
WidescreenStoryboard: 0

[Editor]
DistanceSpacing: 0.5
BeatDivisor: 4
GridSize: 4
TimelineZoom: 1.8

[Metadata]
Title:Ai no Scenario
TitleUnicode:アイのシナリオ
Artist:CHiCO with HoneyWorks
ArtistUnicode:CHiCO with HoneyWorks
Creator:Moa
Version:Extra
Source:まじっく快斗1412
Tags:CHiCO with HoneyWorks nico douga magic kaito 1412 まじっく快斗1412
BeatmapID:929691
BeatmapSetID:430977

[Difficulty]
HPDrainRate:7
CircleSize:4.5
OverallDifficulty:8.2
ApproachRate:9.4
SliderMultiplier:1.6
SliderTickRate:1

[Events]
//Background and Video events
0,0,"bg.jpg",0,0
//Break Periods
//Storyboard Layer 0 (Background)
//Storyboard Layer 1 (Fail)
//Storyboard Layer 2 (Pass)
//Storyboard Layer 3 (Foreground)
//Storyboard Sound Samples

[TimingPoints]
520,333.333333333333,4,2,1,50,1,0
9519,-200,4,2,1,50,0,0
10853,-100,4,2,1,50,0,0
21853,-125,4,2,1,50,0,0
43186,-125,4,2,1,50,0,0
53853,-117.647058823529,4,2,1,50,0,0
59186,-125,4,2,1,50,0,0
61853,-125,4,2,1,50,0,0
64519,-100,4,2,1,50,0,1
85853,-100,4,2,1,50,0,0
86853,-200,4,2,1,50,0,0
88603,-100,4,2,1,5,0,0

[Colours]
Combo1 : 0,0,255
Combo2 : 255,0,0
Combo3 : 0,255,128
Combo4 : 255,255,0

[HitObjects]
68,152,520,6,0,P|148:124|220:161,1,160
288,254,1019,1,0,0:0:0:0:
380,69,1186,2,0,P|384:124|368:165,1,80
288,254,1519,1,0,0:0:0:0:
298,103,1686,6,0,P|230:91|174:115,1,120
111,158,2019,2,0,P|92:199|92:235,1,80
189,356,2353,1,0,0:0:0:0:
15,322,2519,1,0,0:0:0:0:
166,246,2686,2,0,P|189:166|277:165,1,160
228,299,3186,6,0,P|162:330|95:279,1,160
332,246,3686,1,0,0:0:0:0:
254,76,3853,2,0,P|249:130|260:162,1,80
332,246,4186,1,0,0:0:0:0:
197,266,4353,6,0,L|197:366,1,80
93,226,4686,2,0,L|93:139,1,80
111,298,5019,1,0,0:0:0:0:
46,93,5186,1,0,0:0:0:0:
99,319,5353,1,0,0:0:0:0:
155,118,5519,1,0,0:0:0:0:
97,346,5686,1,0,0:0:0:0:
235,205,5853,6,0,P|307:179|387:225,1,160
302,336,6353,1,0,0:0:0:0:
302,336,6435,1,0,0:0:0:0:
302,336,6519,2,0,P|298:294|305:257,1,80
371,108,6853,1,0,0:0:0:0:
185,60,7019,2,0,L|125:81,1,40
51,141,7186,6,0,L|146:156,1,80
262,226,7519,1,0,0:0:0:0:
65,294,7686,1,0,0:0:0:0:
100,312,7769,1,0,0:0:0:0:
137,325,7853,2,0,P|198:349|259:317,1,120
278,307,8186,2,0,P|338:291|400:324,1,120
423,334,8519,5,0,0:0:0:0:
336,84,8686,1,0,0:0:0:0:
336,84,8853,1,0,0:0:0:0:
178,223,9019,1,0,0:0:0:0:
435,141,9186,1,0,0:0:0:0:
435,141,9353,1,0,0:0:0:0:
270,24,9519,6,0,B|229:80|266:139|266:139|242:165|242:165|288:233|231:288,1,280
172,303,10770,1,0,0:0:0:0:
172,303,10853,2,0,P|129:292|86:307,1,80
18,333,11186,5,0,0:0:0:0:
222,146,11353,1,0,0:0:0:0:
18,333,11686,5,0,0:0:0:0:
143,163,11853,1,0,0:0:0:0:
18,333,12185,5,0,0:0:0:0:
77,203,12352,1,0,0:0:0:0:
18,333,12686,5,0,0:0:0:0:
25,259,12853,1,0,0:0:0:0:
299,337,13186,6,0,P|263:353|223:351,1,80
147,291,13519,2,0,P|194:273|236:282,1,80
299,337,13853,5,0,0:0:0:0:
503,150,14020,1,0,0:0:0:0:
299,337,14353,5,0,0:0:0:0:
424,167,14520,1,0,0:0:0:0:
299,337,14852,5,0,0:0:0:0:
358,207,15019,1,0,0:0:0:0:
299,337,15353,5,0,0:0:0:0:
306,263,15520,1,0,0:0:0:0:
220,193,15853,5,0,0:0:0:0:
144,324,16019,2,0,L|134:259,1,40
140,167,16186,2,0,L|120:226,1,40
64,298,16352,2,0,L|54:233,1,40
58,147,16519,6,0,P|100:92|199:107,1,160
326,130,17019,1,0,0:0:0:0:
140,167,17186,2,0,P|178:201|192:257,1,80
57,258,17519,1,0,0:0:0:0:
275,300,17686,6,0,P|269:187|330:127,1,200
275,300,18186,2,0,P|297:227|344:203,1,120
275,300,18519,2,0,P|311:262|384:294,1,120
466,327,18853,1,0,0:0:0:0:
481,178,19019,2,0,L|466:126,1,40
395,59,19186,6,0,L|368:144,1,80
332,224,19519,1,0,0:0:0:0:
245,103,19686,1,0,0:0:0:0:
245,103,19853,2,0,P|186:96|141:115,1,80
306,34,20186,1,0,0:0:0:0:
202,173,20353,6,0,P|190:232|311:250,1,200
265,203,20853,2,0,L|172:289,1,120
111,335,21186,1,0,0:0:0:0:
300,262,21353,1,0,0:0:0:0:
105,247,21519,1,0,0:0:0:0:
321,270,21686,1,0,0:0:0:0:
160,70,21853,6,0,P|154:149|168:199,1,128
235,293,22353,1,0,0:0:0:0:
395,217,22519,2,0,P|349:212|306:227,1,64
235,293,22853,2,0,P|266:298|297:294,1,64
439,284,23186,5,0,0:0:0:0:
252,216,23353,1,0,0:0:0:0:
379,359,23519,1,0,0:0:0:0:
442,179,23686,1,0,0:0:0:0:
310,269,23853,2,0,P|252:292|195:267,1,128
152,145,24353,1,0,0:0:0:0:
236,331,24519,6,0,P|266:280|245:208,1,128
152,145,25019,1,0,0:0:0:0:
328,180,25186,2,0,L|412:172,1,64
512,96,25519,2,0,L|448:102,1,64
486,307,25853,6,0,P|501:242|467:164,1,128
448,102,26353,1,0,0:0:0:0:
394,291,26519,2,0,P|361:284|317:298,1,64
193,346,26853,2,0,P|241:351|277:337,1,64
394,291,27186,5,0,0:0:0:0:
183,152,27353,1,0,0:0:0:0:
255,347,27519,1,0,0:0:0:0:
395,185,27686,1,0,0:0:0:0:
221,357,27853,1,0,0:0:0:0:
321,121,28019,1,0,0:0:0:0:
156,267,28186,1,0,0:0:0:0:
383,277,28353,1,0,0:0:0:0:
215,141,28519,6,0,P|155:152|80:135,1,128
0,76,29019,1,0,0:0:0:0:
11,195,29186,2,0,B|32:246|9:290|9:290|36:315,1,128
126,362,29686,1,0,0:0:0:0:
222,288,29853,6,0,L|314:288,1,64
425,223,30186,2,0,L|361:223,1,64
255,118,30519,2,0,P|249:165|263:202,1,64
286,288,30853,1,0,0:0:0:0:
369,139,31019,1,12,0:0:0:0:
112,226,31853,5,0,0:0:0:0:
103,195,31936,1,0,0:0:0:0:
92,165,32019,2,0,L|76:114,1,32
156,55,32186,1,0,0:0:0:0:
168,84,32269,1,0,0:0:0:0:
180,113,32353,2,0,L|203:165,1,32
225,212,32519,5,0,0:0:0:0:
391,106,32686,1,0,0:0:0:0:
359,299,32853,1,0,0:0:0:0:
308,101,33019,1,0,0:0:0:0:
329,323,33186,2,0,L|255:324,1,64
114,277,33519,2,0,L|191:277,1,64
88,278,33853,5,0,0:0:0:0:
261,223,34019,2,0,L|324:222,1,64
438,222,34353,1,0,0:0:0:0:
260,89,34519,2,0,P|253:138|268:164,1,64
327,283,34853,2,0,P|334:252|324:221,1,64
448,118,35186,6,0,P|386:103|325:123,1,128
219,211,35686,1,0,0:0:0:0:
96,43,35853,2,0,P|79:115|110:182,1,128
219,211,36353,1,0,0:0:0:0:
35,299,36519,6,0,P|75:294|119:311,1,64
244,362,36853,2,0,P|212:367|181:361,1,64
317,351,37186,1,0,0:0:0:0:
201,176,37353,1,0,0:0:0:0:
97,299,37519,1,0,0:0:0:0:
320,251,37686,1,0,0:0:0:0:
99,199,37853,5,0,0:0:0:0:
254,52,38019,1,0,0:0:0:0:
320,251,38186,1,0,0:0:0:0:
150,91,38353,1,0,0:0:0:0:
223,295,38519,1,0,0:0:0:0:
340,86,38686,1,0,0:0:0:0:
113,194,38853,1,0,0:0:0:0:
358,267,39019,1,0,0:0:0:0:
269,30,39186,6,0,P|248:92|284:158,1,128
160,43,39686,1,0,0:0:0:0:
92,220,39853,2,0,L|92:142,1,64
9,45,40186,2,0,L|9:130,1,64
149,270,40519,6,0,P|87:297|31:265,1,128
196,343,41019,1,0,0:0:0:0:
289,169,41186,2,0,P|296:215|281:259,1,64
196,343,41519,1,0,0:0:0:0:
232,119,41686,6,0,P|293:90|350:122,1,128
418,205,42186,1,0,0:0:0:0:
354,6,42353,1,0,0:0:0:0:
289,169,42519,2,0,L|290:233,1,64
204,347,42853,2,0,L|204:271,1,64
101,193,43186,6,0,P|156:173|232:209,1,128
321,273,43686,1,0,0:0:0:0:
160,315,43853,2,0,P|155:270|169:229,1,64
199,112,44186,1,0,0:0:0:0:
339,196,44353,6,0,P|283:177|205:206,1,128
353,108,44853,1,0,0:0:0:0:
279,259,45019,1,0,0:0:0:0:
199,112,45186,1,0,0:0:0:0:
426,243,45353,2,0,B|454:198|438:148|438:148|396:176,1,128
284,372,45853,6,0,P|256:318|283:255,1,128
336,317,46353,1,0,0:0:0:0:
336,317,46519,2,0,P|271:329|210:282,1,128
279,195,47019,1,0,0:0:0:0:
279,195,47186,6,0,P|283:235|269:276,2,64
207,121,47686,1,0,0:0:0:0:
410,87,47853,2,0,P|353:67|278:95,1,128
207,121,48353,1,0,0:0:0:0:
277,300,48519,6,0,P|296:235|274:175,1,128
207,121,49019,1,0,0:0:0:0:
149,240,49186,2,0,P|198:237|235:246,1,64
277,300,49519,1,0,0:0:0:0:
339,154,49686,1,0,0:0:0:0:
467,269,49853,6,0,P|427:264|390:274,1,64
277,347,50186,1,0,0:0:0:0:
410,192,50353,1,0,0:0:0:0:
350,319,50519,2,0,B|317:268|344:227|344:227|316:188,1,128
104,124,51186,6,0,P|164:104|228:138,1,128
326,202,51686,1,0,0:0:0:0:
326,202,51853,2,0,P|323:173|329:135,1,64
407,40,52186,2,0,P|412:81|402:128,1,64
489,209,52519,5,0,0:0:0:0:
489,209,52603,1,0,0:0:0:0:
489,209,52686,2,0,L|489:283,1,64
376,370,53019,2,0,L|376:289,1,64
287,232,53353,1,0,0:0:0:0:
257,227,53436,1,0,0:0:0:0:
227,223,53519,2,0,L|174:215,1,32
92,196,53686,2,0,L|140:170,1,32
191,146,53853,6,0,L|195:79,2,68.0000012969971
251,28,54353,2,0,P|191:0|133:36,1,136.000002593994
262,170,54853,2,0,L|265:102,1,68.0000012969971
463,182,55186,6,0,P|401:155|334:190,1,136.000002593994
399,296,55686,2,0,P|405:248|395:219,1,68.0000012969971
331,105,56019,1,0,0:0:0:0:
323,262,56186,1,0,0:0:0:0:
463,182,56353,1,0,0:0:0:0:
270,204,56519,6,0,P|247:267|279:330,1,136.000002593994
176,206,57019,1,0,0:0:0:0:
388,261,57186,2,0,P|347:254|308:271,1,68.0000012969971
136,296,57519,2,0,P|168:303|201:296,1,68.0000012969971
90,357,57853,5,0,0:0:0:0:
252,240,58019,1,0,0:0:0:0:
62,234,58186,1,0,0:0:0:0:
279,315,58353,1,0,0:0:0:0:
137,133,58519,1,0,0:0:0:0:
207,361,58686,1,0,0:0:0:0:
310,180,58853,1,0,0:0:0:0:
75,298,59019,1,0,0:0:0:0:
252,124,59186,6,0,P|231:190|277:256,1,128
360,356,59853,2,0,P|384:298|363:239,1,128
416,182,60519,6,0,B|364:145|319:177|319:177|281:163,1,128
444,113,61186,1,0,0:0:0:0:
363,239,61436,1,0,0:0:0:0:
301,54,61686,1,0,0:0:0:0:
233,228,61853,6,0,P|212:161|235:108,1,128
129,217,62353,1,0,0:0:0:0:
291,281,62519,2,0,P|231:307|166:271,1,128
129,217,63019,1,0,0:0:0:0:
376,76,63519,5,0,0:0:0:0:
369,87,63853,5,0,0:0:0:0:
363,98,64186,5,0,0:0:0:0:
292,125,64519,6,0,B|326:193|401:166|401:166|429:224,1,160
374,344,65019,1,0,0:0:0:0:
480,230,65186,2,0,P|442:265|389:261,1,80
287,342,65519,1,0,0:0:0:0:
198,185,65686,6,0,P|166:254|204:337,1,160
82,206,66186,1,0,0:0:0:0:
276,123,66353,2,0,P|202:95|118:129,1,160
319,193,66853,2,0,L|319:300,1,80
364,120,67186,2,0,B|330:60|371:10|371:10|396:50,1,160
489,206,67686,1,0,0:0:0:0:
489,206,67853,2,0,L|488:115,1,80
397,206,68186,1,0,0:0:0:0:
397,206,68353,6,0,L|397:379,1,160
498,169,68853,1,0,0:0:0:0:
332,247,69019,2,0,P|399:285|467:242,1,160
498,169,69436,1,0,0:0:0:0:
498,169,69519,2,0,L|479:101,1,40
386,73,69686,2,0,L|396:111,1,40
411,180,69853,6,0,P|328:140|247:166,1,160
153,41,70353,1,0,0:0:0:0:
153,41,70519,2,0,L|153:139,1,80
48,75,70853,1,0,0:0:0:0:
182,230,71019,1,0,0:0:0:0:
264,84,71186,6,0,P|305:74|354:95,1,80
505,157,71519,2,0,P|466:167|428:156,1,80
337,306,71853,2,0,P|311:234|350:147,1,160
257,314,72353,1,0,0:0:0:0:
175,89,72519,6,0,L|166:179,1,80
79,328,72853,2,0,L|86:248,1,80
5,162,73186,2,0,L|84:169,1,80
252,265,73519,2,0,L|172:257,1,80
192,24,73853,6,0,P|160:99|202:174,1,160
432,72,74353,2,0,P|393:63|354:71,1,80
395,143,74603,1,0,0:0:0:0:
395,143,74686,2,0,L|390:211,1,40
372,278,74853,2,0,L|343:242,1,40
280,170,75019,2,0,L|277:209,1,40
272,295,75186,6,0,B|214:250|158:291|158:291|125:263,1,160
211,350,75686,1,0,0:0:0:0:
64,233,75853,2,0,P|107:197|163:201,1,80
223,33,76186,1,0,0:0:0:0:
223,33,76353,6,0,B|192:92|245:109|213:163|213:163|260:197,1,160
148,124,76853,1,0,0:0:0:0:
324,150,77019,2,0,B|385:120|445:156|445:156|412:184,1,160
304,241,77519,2,0,P|315:284|298:335,1,80
99,175,77853,6,0,P|181:140|243:211,1,160
70,99,78353,1,0,0:0:0:0:
164,294,78519,2,0,P|156:243|174:203,1,80
253,96,78853,1,0,0:0:0:0:
445,178,79019,6,0,P|404:166|347:193,1,80
229,258,79353,2,0,P|267:267|305:255,1,80
270,91,79686,2,0,P|261:148|291:191,1,80
397,267,80019,1,0,0:0:0:0:
338,129,80186,1,0,0:0:0:0:
322,323,80353,1,0,0:0:0:0:
179,161,80519,6,0,P|100:132|10:189,1,160
165,67,81019,1,0,0:0:0:0:
103,292,81186,2,0,P|93:247|116:199,1,80
165,67,81519,1,0,0:0:0:0:
171,254,81686,1,0,0:0:0:0:
261,113,81853,6,0,P|303:105|361:129,1,80
480,192,82186,2,0,P|441:200|402:192,1,80
468,114,82519,1,0,0:0:0:0:
493,271,82686,1,0,0:0:0:0:
362,105,82853,1,0,0:0:0:0:
383,286,83019,1,0,0:0:0:0:
213,203,83186,6,0,P|257:193|298:208,1,80
169,142,83519,1,0,0:0:0:0:
351,251,83686,1,0,0:0:0:0:
350,45,83853,1,0,0:0:0:0:
392,257,84019,1,0,0:0:0:0:
493,44,84186,1,0,0:0:0:0:
425,228,84353,1,0,0:0:0:0:
305,53,84519,6,0,L|295:-4,1,40
376,196,84686,2,0,L|382:235,1,40
230,118,84853,6,0,L|193:131,1,40
417,127,85019,2,0,L|454:114,1,40
251,199,85186,6,0,L|244:274,1,40
124,79,85353,2,0,L|127:39,1,40
325,109,85519,6,0,L|364:106,1,40
130,211,85686,6,0,L|91:214,1,40
230,91,85853,5,0,0:0:0:0:
123,331,86019,1,0,0:0:0:0:
389,185,86186,1,0,0:0:0:0:
106,93,86353,1,0,0:0:0:0:
250,335,86519,1,0,0:0:0:0:
341,73,86686,1,0,0:0:0:0:
52,277,86853,6,0,B|120:207|199:273|199:273|248:235|248:235|325:315|401:229,1,400
321,185,88603,2,0,L|288:151,1,40
