osu file format v14

[General]
AudioFilename: Kaito.mp3
AudioLeadIn: 0
PreviewTime: 63665
Countdown: 0
SampleSet: Soft
StackLeniency: 0.7
Mode: 3
LetterboxInBreaks: 0
SpecialStyle: 0
WidescreenStoryboard: 0

[Editor]
DistanceSpacing: 0.8
BeatDivisor: 4
GridSize: 4
TimelineZoom: 2.3

[Metadata]
Title:Ai no Scenario
TitleUnicode:アイのシナリオ
Artist:CHiCO with HoneyWorks
ArtistUnicode:CHiCO with HoneyWorks
Creator:[Baim]
Version:7K NM
Source:まじっく快斗1412
Tags:Opening Anime Magic Kaito Draftnell Zevioz- ExKagii-
BeatmapID:710144
BeatmapSetID:310656

[Difficulty]
HPDrainRate:7.5
CircleSize:7
OverallDifficulty:7.5
ApproachRate:5
SliderMultiplier:1.4
SliderTickRate:1

[Events]
//Background and Video events
0,0,"BAMS.jpg",0,0
//Break Periods
//Storyboard Layer 0 (Background)
//Storyboard Layer 1 (Fail)
//Storyboard Layer 2 (Pass)
//Storyboard Layer 3 (Foreground)
//Storyboard Sound Samples

[TimingPoints]
666,333.333333333333,4,2,0,30,1,0
64665,-100,4,2,0,30,0,1
88665,-100,4,2,0,30,0,0

[HitObjects]
64,192,666,128,0,1999:0:0:0:45:soft-hitfinish.wav
192,192,666,1,0,0:0:0:0:
448,192,999,1,0,0:0:0:60:soft-hitwhistle.wav
192,192,1332,1,0,0:0:0:60:soft-hitwhistle.wav
402,192,1665,1,0,0:0:0:60:soft-hitwhistle.wav
109,192,1999,1,0,0:0:0:60:soft-hitwhistle.wav
475,192,1999,128,0,3332:0:0:0:0:
256,192,2332,1,0,0:0:0:60:soft-hitwhistle.wav
402,192,2665,1,0,0:0:0:60:soft-hitwhistle.wav
192,192,2999,1,0,0:0:0:60:soft-hitwhistle.wav
402,192,3332,1,0,0:0:0:60:soft-hitwhistle.wav
36,192,3332,128,0,4665:0:0:0:0:
192,192,3665,1,0,0:0:0:60:soft-hitwhistle.wav
256,192,3999,1,0,0:0:0:60:soft-hitwhistle.wav
475,192,4332,1,0,0:0:0:60:soft-hitwhistle.wav
256,192,4665,1,0,0:0:0:60:soft-hitwhistle.wav
475,192,4665,128,0,5999:0:0:0:0:
192,192,4999,1,0,0:0:0:60:soft-hitwhistle.wav
36,192,5332,1,0,0:0:0:60:soft-hitwhistle.wav
402,192,5499,1,0,0:0:0:45:soft-hitclap2.wav
36,192,5665,1,0,0:0:0:60:soft-hitwhistle.wav
182,192,5832,1,0,0:0:0:45:soft-hitclap2.wav
320,192,5999,128,0,7332:0:0:0:45:soft-hitfinish.wav
64,192,5999,1,0,0:0:0:0:
192,192,6332,1,0,0:0:0:60:soft-hitwhistle.wav
36,192,6665,1,0,0:0:0:60:soft-hitwhistle.wav
192,192,6999,1,0,0:0:0:60:soft-hitwhistle.wav
256,192,7332,1,0,0:0:0:60:soft-hitwhistle.wav
475,192,7332,128,0,8665:0:0:0:0:
109,192,7665,1,0,0:0:0:60:soft-hitwhistle.wav
320,192,7999,1,0,0:0:0:60:soft-hitwhistle.wav
64,192,8332,1,0,0:0:0:60:soft-hitwhistle.wav
402,192,8332,1,0,0:0:0:0:
192,192,8665,1,0,0:0:0:45:soft-hitfinish.wav
329,192,8665,1,0,0:0:0:0:
64,192,8832,1,0,0:0:0:0:
256,192,8999,1,0,0:0:0:0:
448,192,9165,1,0,0:0:0:45:soft-hitfinish.wav
402,192,9165,1,0,0:0:0:0:
64,192,9332,1,0,0:0:0:0:
182,192,9499,1,0,0:0:0:0:
448,192,9665,128,0,11165:0:0:0:45:soft-hitfinish.wav
256,192,9665,128,0,11165:0:0:0:0:
109,192,11332,1,0,0:0:0:0:
402,192,11499,1,0,0:0:0:0:
256,192,11832,1,0,0:0:0:0:
109,192,11999,1,0,0:0:0:0:
192,192,12332,1,0,0:0:0:0:
402,192,12499,1,0,0:0:0:0:
448,192,12832,1,0,0:0:0:0:
320,192,12999,1,0,0:0:0:0:
64,192,13332,1,0,0:0:0:0:
256,192,13499,1,0,0:0:0:0:
109,192,13665,1,0,0:0:0:0:
402,192,13832,1,0,0:0:0:0:
64,192,13999,1,0,0:0:0:0:
320,192,14165,1,0,0:0:0:0:
64,192,14499,1,0,0:0:0:0:
256,192,14665,1,0,0:0:0:0:
329,192,14999,1,0,0:0:0:0:
64,192,15165,1,0,0:0:0:0:
256,192,15499,1,0,0:0:0:0:
64,192,15665,1,0,0:0:0:0:
329,192,15999,1,0,0:0:0:0:
109,192,16165,1,0,0:0:0:0:
256,192,16332,1,0,0:0:0:0:
402,192,16332,1,0,0:0:0:0:
448,192,16665,1,0,0:0:0:45:soft-hitfinish.wav
182,192,16665,1,0,0:0:0:0:
64,192,16999,1,0,0:0:0:45:soft-hitclap2.wav
109,192,16999,1,0,0:0:0:0:
402,192,17332,1,0,0:0:0:60:soft-hitwhistle.wav
182,192,17665,1,0,0:0:0:45:soft-hitclap2.wav
109,192,17665,1,0,0:0:0:0:
256,192,17999,1,0,0:0:0:60:soft-hitwhistle.wav
448,192,18332,1,0,0:0:0:45:soft-hitclap2.wav
36,192,18332,1,0,0:0:0:0:
329,192,18665,1,0,0:0:0:60:soft-hitwhistle.wav
448,192,18999,1,0,0:0:0:45:soft-hitclap2.wav
256,192,18999,1,0,0:0:0:0:
329,192,19332,1,0,0:0:0:60:soft-hitwhistle.wav
64,192,19665,1,0,0:0:0:45:soft-hitclap2.wav
109,192,19665,1,0,0:0:0:0:
402,192,19999,1,0,0:0:0:60:soft-hitwhistle.wav
109,192,20332,1,0,0:0:0:45:soft-hitclap2.wav
182,192,20332,1,0,0:0:0:0:
256,192,20665,1,0,0:0:0:60:soft-hitwhistle.wav
109,192,20999,1,0,0:0:0:45:soft-hitclap2.wav
475,192,20999,1,0,0:0:0:0:
256,192,21332,1,0,0:0:0:60:soft-hitwhistle.wav
109,192,21665,1,0,0:0:0:45:soft-hitclap2.wav
402,192,21665,1,0,0:0:0:0:
64,192,21999,1,0,0:0:0:45:soft-hitfinish.wav
475,192,21999,1,0,0:0:0:0:
109,192,22332,1,0,0:0:0:60:soft-hitwhistle.wav
329,192,22665,1,0,0:0:0:60:soft-hitwhistle.wav
256,192,22999,1,0,0:0:0:60:soft-hitwhistle.wav
182,192,23332,1,0,0:0:0:60:soft-hitwhistle.wav
109,192,23665,1,0,0:0:0:60:soft-hitwhistle.wav
256,192,23999,1,0,0:0:0:60:soft-hitwhistle.wav
402,192,24332,1,0,0:0:0:60:soft-hitwhistle.wav
475,192,24665,1,0,0:0:0:60:soft-hitwhistle.wav
256,192,24999,1,0,0:0:0:60:soft-hitwhistle.wav
109,192,25332,1,0,0:0:0:60:soft-hitwhistle.wav
36,192,25665,1,0,0:0:0:60:soft-hitwhistle.wav
256,192,25999,1,0,0:0:0:60:soft-hitwhistle.wav
109,192,26332,1,0,0:0:0:60:soft-hitwhistle.wav
192,192,26665,1,0,0:0:0:60:soft-hitwhistle.wav
329,192,26999,1,0,0:0:0:60:soft-hitwhistle.wav
402,192,27332,1,0,0:0:0:60:soft-hitwhistle.wav
256,192,27665,1,0,0:0:0:60:soft-hitwhistle.wav
109,192,27999,1,0,0:0:0:60:soft-hitwhistle.wav
192,192,28332,1,0,0:0:0:60:soft-hitwhistle.wav
256,192,28665,1,0,0:0:0:60:soft-hitwhistle.wav
109,192,28999,1,0,0:0:0:60:soft-hitwhistle.wav
256,192,29332,1,0,0:0:0:60:soft-hitwhistle.wav
475,192,29665,1,0,0:0:0:60:soft-hitwhistle.wav
256,192,29999,1,0,0:0:0:60:soft-hitwhistle.wav
182,192,30332,1,0,0:0:0:60:soft-hitwhistle.wav
64,192,30665,1,0,0:0:0:60:soft-hitwhistle.wav
182,192,30999,1,0,0:0:0:60:soft-hitwhistle.wav
448,192,31165,1,0,0:0:0:45:soft-hitclap2.wav
402,192,31165,1,0,0:0:0:0:
64,192,31499,1,0,0:0:0:0:
448,192,31665,1,0,0:0:0:0:
192,192,31832,1,0,0:0:0:0:
109,192,31999,1,0,0:0:0:60:soft-hitwhistle.wav
256,192,32165,1,0,0:0:0:60:soft-hitwhistle.wav
402,192,32332,1,0,0:0:0:60:soft-hitwhistle.wav
448,192,32499,1,0,0:0:0:60:soft-hitwhistle.wav
109,192,32665,1,0,0:0:0:45:soft-hitfinish.wav
402,192,32665,1,0,0:0:0:0:
256,192,32999,1,0,0:0:0:45:soft-hitclap2.wav
182,192,32999,1,0,0:0:0:0:
329,192,33332,1,0,0:0:0:60:soft-hitwhistle.wav
256,192,33665,1,0,0:0:0:45:soft-hitclap2.wav
402,192,33665,1,0,0:0:0:0:
182,192,33999,1,0,0:0:0:60:soft-hitwhistle.wav
64,192,34332,1,0,0:0:0:45:soft-hitclap2.wav
329,192,34332,1,0,0:0:0:0:
402,192,34665,1,0,0:0:0:60:soft-hitwhistle.wav
109,192,34999,1,0,0:0:0:45:soft-hitclap2.wav
329,192,34999,1,0,0:0:0:0:
182,192,35332,1,0,0:0:0:60:soft-hitwhistle.wav
448,192,35665,1,0,0:0:0:45:soft-hitclap2.wav
109,192,35665,1,0,0:0:0:0:
329,192,35999,1,0,0:0:0:60:soft-hitwhistle.wav
256,192,36332,1,0,0:0:0:45:soft-hitclap2.wav
36,192,36332,1,0,0:0:0:0:
109,192,36665,1,0,0:0:0:60:soft-hitwhistle.wav
329,192,36999,1,0,0:0:0:45:soft-hitclap2.wav
182,192,36999,1,0,0:0:0:0:
402,192,37332,1,0,0:0:0:60:soft-hitwhistle.wav
448,192,37665,1,0,0:0:0:45:soft-hitclap2.wav
182,192,37665,1,0,0:0:0:0:
256,192,37999,1,0,0:0:0:60:soft-hitwhistle.wav
448,192,38332,1,0,0:0:0:45:soft-hitclap2.wav
402,192,38332,1,0,0:0:0:0:
182,192,38665,1,0,0:0:0:60:soft-hitwhistle.wav
109,192,38999,1,0,0:0:0:45:soft-hitclap2.wav
36,192,38999,1,0,0:0:0:0:
256,192,39332,1,0,0:0:0:60:soft-hitwhistle.wav
402,192,39665,1,0,0:0:0:45:soft-hitclap2.wav
182,192,39665,1,0,0:0:0:0:
475,192,39999,1,0,0:0:0:60:soft-hitwhistle.wav
36,192,40332,1,0,0:0:0:45:soft-hitclap2.wav
256,192,40332,1,0,0:0:0:0:
182,192,40665,1,0,0:0:0:60:soft-hitwhistle.wav
256,192,40999,1,0,0:0:0:45:soft-hitclap2.wav
402,192,40999,1,0,0:0:0:0:
109,192,41332,1,0,0:0:0:60:soft-hitwhistle.wav
256,192,41499,1,0,0:0:0:60:soft-hitwhistle.wav
182,192,41665,1,0,0:0:0:45:soft-hitclap2.wav
109,192,41832,1,0,0:0:0:35:soft-hitfinish.wav
329,192,41832,1,0,0:0:0:0:
256,192,42165,1,0,0:0:0:60:soft-hitwhistle.wav
64,192,42332,1,0,0:0:0:45:soft-hitfinish.wav
448,192,42332,1,0,0:0:0:0:
320,192,42665,128,0,43332:0:0:0:60:soft-hitwhistle.wav
402,192,42999,1,0,0:0:0:60:soft-hitwhistle.wav
64,192,43332,128,0,44665:0:0:0:45:soft-hitfinish.wav
256,192,43332,1,0,0:0:0:0:
256,192,43832,1,0,0:0:0:60:soft-hitwhistle.wav
448,192,43999,1,0,0:0:0:45:soft-hitclap2.wav
402,192,43999,1,0,0:0:0:0:
448,192,44665,128,0,45999:0:0:0:60:soft-hitwhistle.wav
256,192,44665,1,0,0:0:0:0:
192,192,44832,1,0,0:0:0:45:soft-hitclap2.wav
109,192,44832,1,0,0:0:0:0:
402,192,45165,1,0,0:0:0:60:soft-hitwhistle.wav
320,192,45332,1,0,0:0:0:45:soft-hitclap2.wav
256,192,45332,1,0,0:0:0:0:
192,192,45999,128,0,47332:0:0:0:45:soft-hitfinish.wav
36,192,45999,1,0,0:0:0:0:
402,192,46499,1,0,0:0:0:60:soft-hitwhistle.wav
448,192,46665,1,0,0:0:0:45:soft-hitclap2.wav
329,192,46665,1,0,0:0:0:0:
64,192,47332,128,0,48665:0:0:0:60:soft-hitwhistle.wav
256,192,47332,1,0,0:0:0:0:
448,192,47499,1,0,0:0:0:0:
256,192,47832,1,0,0:0:0:60:soft-hitwhistle.wav
320,192,47999,1,0,0:0:0:45:soft-hitclap2.wav
182,192,47999,1,0,0:0:0:0:
402,192,48165,1,0,0:0:0:60:soft-hitwhistle.wav
475,192,48332,1,0,0:0:0:60:soft-hitwhistle.wav
329,192,48665,1,0,0:0:0:45:soft-hitfinish.wav
192,192,48665,128,0,49999:0:0:0:0:
64,192,49165,1,0,0:0:0:60:soft-hitwhistle.wav
448,192,49332,1,0,0:0:0:45:soft-hitclap2.wav
402,192,49332,1,0,0:0:0:0:
320,192,49999,128,0,51332:0:0:0:60:soft-hitwhistle.wav
256,192,49999,1,0,0:0:0:0:
448,192,50165,1,0,0:0:0:45:soft-hitclap2.wav
402,192,50165,1,0,0:0:0:0:
109,192,50499,1,0,0:0:0:60:soft-hitwhistle.wav
448,192,50665,1,0,0:0:0:45:soft-hitclap2.wav
402,192,50665,1,0,0:0:0:0:
192,192,51332,128,0,52665:0:0:0:45:soft-hitfinish.wav
64,192,51332,1,0,0:0:0:0:
64,192,51832,1,0,0:0:0:60:soft-hitwhistle.wav
402,192,51999,1,0,0:0:0:45:soft-hitclap2.wav
475,192,51999,1,0,0:0:0:0:
475,192,52665,1,0,0:0:0:60:soft-hitwhistle.wav
402,192,52832,1,0,0:0:0:60:soft-hitwhistle.wav
256,192,52999,1,0,0:0:0:45:soft-hitclap2.wav
36,192,52999,1,0,0:0:0:0:
329,192,53332,1,0,0:0:0:45:soft-hitclap2.wav
109,192,53332,1,0,0:0:0:0:
64,192,53665,1,0,0:0:0:60:soft-hitwhistle.wav
256,192,53832,1,0,0:0:0:60:soft-hitwhistle.wav
329,192,53999,1,0,0:0:0:45:soft-hitfinish.wav
475,192,53999,1,0,0:0:0:0:
256,192,54332,1,0,0:0:0:45:soft-hitclap2.wav
402,192,54332,1,0,0:0:0:0:
109,192,54665,1,0,0:0:0:60:soft-hitwhistle.wav
320,192,54999,1,0,0:0:0:45:soft-hitclap2.wav
256,192,54999,1,0,0:0:0:0:
109,192,55332,1,0,0:0:0:60:soft-hitwhistle.wav
448,192,55665,1,0,0:0:0:45:soft-hitclap2.wav
329,192,55665,1,0,0:0:0:0:
182,192,55999,1,0,0:0:0:60:soft-hitwhistle.wav
448,192,56332,1,0,0:0:0:45:soft-hitclap2.wav
109,192,56332,1,0,0:0:0:0:
256,192,56665,1,0,0:0:0:60:soft-hitwhistle.wav
448,192,56999,1,0,0:0:0:45:soft-hitclap2.wav
182,192,56999,1,0,0:0:0:0:
256,192,57332,1,0,0:0:0:60:soft-hitwhistle.wav
64,192,57665,1,0,0:0:0:45:soft-hitclap2.wav
402,192,57665,1,0,0:0:0:0:
109,192,57999,1,0,0:0:0:45:soft-hitclap2.wav
475,192,57999,1,0,0:0:0:0:
256,192,58165,1,0,0:0:0:60:soft-hitwhistle.wav
402,192,58332,1,0,0:0:0:60:soft-hitwhistle.wav
448,192,58499,1,0,0:0:0:60:soft-hitwhistle.wav
320,192,58665,1,0,0:0:0:60:soft-hitwhistle.wav
192,192,58832,1,0,0:0:0:60:soft-hitwhistle.wav
64,192,58999,1,0,0:0:0:60:soft-hitwhistle.wav
192,192,59165,1,0,0:0:0:60:soft-hitwhistle.wav
448,192,59332,1,0,0:0:0:45:soft-hitfinish.wav
256,192,59332,1,0,0:0:0:0:
329,192,59665,1,0,0:0:0:0:
64,192,59999,1,0,0:0:0:0:
109,192,59999,1,0,0:0:0:0:
329,192,60332,1,0,0:0:0:0:
448,192,60665,1,0,0:0:0:0:
182,192,60665,1,0,0:0:0:0:
256,192,60999,1,0,0:0:0:0:
320,192,61332,1,0,0:0:0:0:
402,192,61332,1,0,0:0:0:0:
192,192,61582,1,0,0:0:0:0:
448,192,61832,1,0,0:0:0:0:
109,192,61999,128,0,63165:0:0:0:45:soft-hitfinish.wav
36,192,61999,128,0,63165:0:0:0:0:
256,192,63165,1,0,0:0:0:0:
36,192,64665,1,0,0:0:0:45:soft-hitfinish.wav
475,192,64665,1,0,0:0:0:0:
192,192,64999,1,0,0:0:0:45:soft-hitclap2.wav
320,192,64999,1,0,0:0:0:0:
402,192,65332,1,0,0:0:0:60:soft-hitwhistle.wav
64,192,65665,1,0,0:0:0:45:soft-hitclap2.wav
192,192,65665,1,0,0:0:0:0:
256,192,65999,1,0,0:0:0:60:soft-hitwhistle.wav
320,192,66332,1,0,0:0:0:45:soft-hitclap2.wav
448,192,66332,1,0,0:0:0:0:
182,192,66665,1,0,0:0:0:60:soft-hitwhistle.wav
64,192,66999,1,0,0:0:0:45:soft-hitclap2.wav
109,192,66999,1,0,0:0:0:0:
402,192,67332,1,0,0:0:0:60:soft-hitwhistle.wav
448,192,67665,1,0,0:0:0:45:soft-hitclap2.wav
329,192,67665,1,0,0:0:0:0:
182,192,67999,1,0,0:0:0:60:soft-hitwhistle.wav
64,192,68332,1,0,0:0:0:45:soft-hitclap2.wav
109,192,68332,1,0,0:0:0:0:
256,192,68665,1,0,0:0:0:60:soft-hitwhistle.wav
64,192,68999,1,0,0:0:0:45:soft-hitclap2.wav
448,192,68999,1,0,0:0:0:0:
182,192,69332,1,0,0:0:0:60:soft-hitwhistle.wav
320,192,69665,1,0,0:0:0:45:soft-hitclap2.wav
402,192,69665,1,0,0:0:0:0:
109,192,69999,1,0,0:0:0:45:soft-hitfinish.wav
182,192,69999,1,0,0:0:0:0:
448,192,70332,1,0,0:0:0:45:soft-hitclap2.wav
402,192,70332,1,0,0:0:0:0:
320,192,70665,1,0,0:0:0:60:soft-hitwhistle.wav
64,192,70999,1,0,0:0:0:45:soft-hitclap2.wav
109,192,70999,1,0,0:0:0:0:
256,192,71332,1,0,0:0:0:60:soft-hitwhistle.wav
192,192,71665,1,0,0:0:0:45:soft-hitclap2.wav
448,192,71665,1,0,0:0:0:0:
109,192,71999,1,0,0:0:0:60:soft-hitwhistle.wav
182,192,72332,1,0,0:0:0:45:soft-hitclap2.wav
36,192,72332,1,0,0:0:0:0:
402,192,72665,1,0,0:0:0:60:soft-hitwhistle.wav
475,192,72999,1,0,0:0:0:45:soft-hitclap2.wav
329,192,72999,1,0,0:0:0:0:
256,192,73332,1,0,0:0:0:60:soft-hitwhistle.wav
192,192,73665,1,0,0:0:0:45:soft-hitclap2.wav
64,192,73665,1,0,0:0:0:0:
329,192,73999,1,0,0:0:0:45:soft-hitfinish.wav
402,192,73999,1,0,0:0:0:0:
448,192,74332,1,0,0:0:0:45:soft-hitclap2.wav
109,192,74332,1,0,0:0:0:0:
256,192,74665,1,0,0:0:0:60:soft-hitwhistle.wav
402,192,74999,1,0,0:0:0:60:soft-hitwhistle.wav
36,192,75332,1,0,0:0:0:45:soft-hitfinish.wav
475,192,75332,1,0,0:0:0:0:
320,192,75665,1,0,0:0:0:45:soft-hitclap2.wav
182,192,75665,1,0,0:0:0:0:
402,192,75999,1,0,0:0:0:60:soft-hitwhistle.wav
448,192,76332,1,0,0:0:0:45:soft-hitclap2.wav
329,192,76332,1,0,0:0:0:0:
109,192,76665,1,0,0:0:0:60:soft-hitwhistle.wav
192,192,76999,1,0,0:0:0:45:soft-hitclap2.wav
64,192,76999,1,0,0:0:0:0:
402,192,77332,1,0,0:0:0:60:soft-hitwhistle.wav
448,192,77665,1,0,0:0:0:45:soft-hitclap2.wav
256,192,77665,1,0,0:0:0:0:
109,192,77999,1,0,0:0:0:60:soft-hitwhistle.wav
192,192,78332,1,0,0:0:0:45:soft-hitclap2.wav
64,192,78332,1,0,0:0:0:0:
256,192,78665,1,0,0:0:0:60:soft-hitwhistle.wav
448,192,78999,1,0,0:0:0:45:soft-hitclap2.wav
329,192,78999,1,0,0:0:0:0:
182,192,79332,1,0,0:0:0:60:soft-hitwhistle.wav
64,192,79665,1,0,0:0:0:45:soft-hitclap2.wav
109,192,79665,1,0,0:0:0:0:
402,192,79999,1,0,0:0:0:60:soft-hitwhistle.wav
448,192,80332,1,0,0:0:0:45:soft-hitclap2.wav
256,192,80332,1,0,0:0:0:0:
182,192,80665,1,0,0:0:0:45:soft-hitfinish.wav
329,192,80665,1,0,0:0:0:0:
64,192,80999,1,0,0:0:0:45:soft-hitclap2.wav
109,192,80999,1,0,0:0:0:0:
402,192,81332,1,0,0:0:0:60:soft-hitwhistle.wav
448,192,81665,1,0,0:0:0:45:soft-hitclap2.wav
329,192,81665,1,0,0:0:0:0:
109,192,81999,1,0,0:0:0:60:soft-hitwhistle.wav
192,192,82332,1,0,0:0:0:45:soft-hitclap2.wav
64,192,82332,1,0,0:0:0:0:
256,192,82665,1,0,0:0:0:60:soft-hitwhistle.wav
320,192,82999,1,0,0:0:0:45:soft-hitclap2.wav
448,192,82999,1,0,0:0:0:0:
109,192,83332,1,0,0:0:0:60:soft-hitwhistle.wav
64,192,83665,1,0,0:0:0:45:soft-hitclap2.wav
320,192,83665,1,0,0:0:0:0:
109,192,83999,1,0,0:0:0:60:soft-hitwhistle.wav
448,192,84332,1,0,0:0:0:45:soft-hitclap2.wav
256,192,84332,1,0,0:0:0:0:
64,192,84665,1,0,0:0:0:45:soft-hitclap2.wav
109,192,84665,1,0,0:0:0:0:
448,192,84999,1,0,0:0:0:45:soft-hitclap2.wav
256,192,84999,1,0,0:0:0:0:
64,192,85332,1,0,0:0:0:45:soft-hitclap2.wav
109,192,85332,1,0,0:0:0:0:
64,192,85665,1,0,0:0:0:45:soft-hitclap2.wav
329,192,85665,1,0,0:0:0:0:
109,192,85999,1,0,0:0:0:45:soft-hitfinish.wav
402,192,85999,1,0,0:0:0:0:
329,192,86499,1,0,0:0:0:45:soft-hitfinish.wav
182,192,86499,1,0,0:0:0:0:
64,192,86999,128,0,88665:0:0:0:45:soft-hitfinish.wav
475,192,86999,128,0,88665:0:0:0:0:
