osu file format v14

[General]
AudioFilename: audio.mp3
AudioLeadIn: 0
PreviewTime: 51400
Countdown: 0
SampleSet: Soft
StackLeniency: 0.7
Mode: 3
LetterboxInBreaks: 0
SpecialStyle: 0
WidescreenStoryboard: 1

[Editor]
Bookmarks: 12354,22250,32147,42044,46993,79158
DistanceSpacing: 0.8
BeatDivisor: 4
GridSize: 4
TimelineZoom: 2.3

[Metadata]
Title:Ace (TV Size)
TitleUnicode:エース (TV Size)
Artist:CHiCO
ArtistUnicode:CHiCO
Creator:FerdiXIA-
Version:Hard
Source:シャングリラ・フロンティア~クソゲーハンター、神ゲーに挑まんとす~
Tags:Syadow- Shangri-La Frontier Kusoge Hunter Kamige ni Idoman to su Crappy Game Hunter Challenges God Tier Shanfro Ending ED Anime アニメ DECO*27 tepe Katarina Ryosuke Fuji 涼介不二 Japanese Pop Jpop J-pop Female Vocals
BeatmapID:4356517
BeatmapSetID:2080356

[Difficulty]
HPDrainRate:8
CircleSize:4
OverallDifficulty:8
ApproachRate:5
SliderMultiplier:1.4
SliderTickRate:1

[Events]
//Background and Video events
0,0,"Hard.jpg",0,0
//Break Periods
//Storyboard Layer 0 (Background)
//Storyboard Layer 1 (Fail)
//Storyboard Layer 2 (Pass)
//Storyboard Layer 3 (Foreground)
//Storyboard Layer 4 (Overlay)
//Storyboard Sound Samples
Sample,6477,0,"Tom1.wav",30
Sample,6787,0,"Tom2.wav",30
Sample,7096,0,"Tom3.wav",30
Sample,8024,0,"tom01_loud.wav",40
Sample,8333,0,"tom02_loud.wav",40
Sample,21941,0,"hihat12_better.wav",40
Sample,41426,0,"Tom2.wav",40
Sample,41735,0,"Tom3.wav",40
Sample,71426,0,"Tom2.wav",40
Sample,83797,0,"hihat12_better.wav",40
Sample,84570,0,"hihat12_better.wav",40
Sample,84879,0,"hihat12_better.wav",40
Sample,85498,0,"hihat12_better.wav",40
Sample,85807,0,"hihat12_better.wav",40
Sample,86116,0,"hihat12_better.wav",40
Sample,86580,0,"hihat12_better.wav",40
Sample,86735,0,"hihat12_better.wav",40
Sample,87044,0,"hihat12_better.wav",40
Sample,87354,0,"hihat12_better.wav",40
Sample,87663,0,"hihat12_better.wav",40
Sample,87972,0,"hihat12_better.wav",40
Sample,88281,0,"hihat12_better.wav",40
Sample,88591,0,"hihat12_better.wav",40

[TimingPoints]
1220,309.278350515464,4,2,1,50,1,0
22250,-100.0,4,2,1,30,0,0
29673,-100.0,4,2,1,50,0,0
51941,-100.0,4,2,1,50,0,1
78230,-100.0,4,2,1,50,0,0

[HitObjects]
64,192,756,128,0,910:0:0:0:0:
448,192,910,128,0,1065:0:0:0:0:
192,192,1065,128,0,1220:0:0:0:0:
64,192,1220,1,2,0:0:0:0:
320,192,1220,1,4,0:0:0:0:
448,192,1220,1,0,0:0:0:50:special03.wav
192,192,1374,1,0,0:0:0:0:
320,192,1529,1,0,0:0:0:0:
64,192,1683,1,0,0:0:0:0:
448,192,1838,1,0,0:0:0:0:
320,192,1993,1,0,0:0:0:0:
192,192,2147,1,0,0:0:0:0:
320,192,2302,1,0,0:0:0:0:
64,192,2457,1,0,0:0:0:0:
192,192,2611,1,0,0:0:0:0:
448,192,2766,1,0,0:0:0:0:
64,192,2921,1,0,0:0:0:0:
320,192,3075,1,0,0:0:0:0:
192,192,3230,1,0,0:0:0:0:
448,192,3384,1,0,0:0:0:0:
64,192,3539,1,0,0:0:0:0:
320,192,3694,1,0,0:0:0:0:
192,192,3848,1,0,0:0:0:0:
448,192,4003,1,0,0:0:0:0:
64,192,4158,1,0,0:0:0:0:
192,192,4312,1,0,0:0:0:0:
320,192,4467,1,0,0:0:0:0:
448,192,4622,1,0,0:0:0:0:
192,192,4776,1,0,0:0:0:0:
64,192,4931,1,0,0:0:0:0:
448,192,5085,1,0,0:0:0:0:
192,192,5240,1,0,0:0:0:0:
320,192,5395,1,0,0:0:0:0:
64,192,5549,1,0,0:0:0:0:
192,192,5704,1,0,0:0:0:0:
448,192,5859,1,0,0:0:0:0:
320,192,6013,1,0,0:0:0:0:
64,192,6168,1,2,0:0:0:0:
192,192,6168,1,4,0:0:0:0:
448,192,6168,1,0,0:0:0:0:
320,192,6323,1,0,0:0:0:0:
64,192,6477,1,2,0:0:0:0:
192,192,6632,1,0,0:0:0:0:
320,192,6709,1,0,0:0:0:30:Tom1.wav
448,192,6787,1,2,0:0:0:0:
64,192,6941,1,0,0:0:0:0:
192,192,7018,1,0,0:0:0:30:Tom3.wav
448,192,7096,1,2,0:0:0:0:
320,192,7173,1,0,0:0:0:30:Tom3.wav
64,192,7250,1,4,0:0:0:0:
192,192,7250,1,0,0:0:0:0:
64,192,7405,1,4,0:0:0:0:
192,192,7405,1,2,0:0:0:0:
448,192,7405,1,0,0:0:0:0:
320,192,7560,1,2,0:0:0:0:
64,192,7714,1,8,0:0:0:0:
448,192,7714,1,0,0:0:0:0:
192,192,7869,1,0,0:0:0:0:
320,192,8024,1,2,0:0:0:0:
448,192,8178,1,0,0:0:0:0:
64,192,8256,1,2,0:0:0:0:
192,192,8333,1,2,0:0:0:0:
320,192,8488,1,0,0:0:0:40:tom02_loud.wav
448,192,8488,1,0,0:0:0:0:
64,192,8642,1,2,0:0:0:0:
192,192,8642,1,4,0:0:0:0:
448,192,8642,1,0,0:0:0:0:
320,192,8797,1,0,0:0:0:0:
64,192,8951,1,0,0:0:0:40:tom01_loud.wav
192,192,9029,1,0,0:0:0:40:tom01_loud.wav
320,192,9106,1,0,0:0:0:40:tom01_loud.wav
448,192,9183,1,0,0:0:0:40:tom01_loud.wav
64,192,9261,1,2,0:0:0:0:
192,192,9261,1,0,0:0:0:0:
448,192,9415,1,8,0:0:0:0:
320,192,9493,1,8,0:0:0:0:
64,192,9570,1,10,0:0:0:0:
192,192,9647,1,8,0:0:0:0:
448,192,9725,128,8,10498:0:0:0:0:
192,192,9879,1,0,0:0:0:0:
64,192,10034,1,0,0:0:0:0:
320,192,10189,1,0,0:0:0:0:
192,192,10343,1,0,0:0:0:0:
64,192,10498,128,0,11116:0:0:0:0:
320,192,10652,1,0,0:0:0:30:kick_b_louder.wav
192,192,10962,1,0,0:0:0:0:
448,192,11116,1,0,0:0:0:0:
320,192,11194,1,0,0:0:0:0:
192,192,11348,1,0,0:0:0:0:
320,192,11426,1,0,0:0:0:30:kick_b_louder.wav
64,192,11580,1,2,0:0:0:0:
192,192,11580,1,0,0:0:0:0:
64,192,11735,1,8,0:0:0:0:
448,192,11735,1,0,0:0:0:0:
320,192,11890,1,2,0:0:0:0:
448,192,11890,1,0,0:0:0:0:
64,192,12044,1,0,0:0:0:50:LR4_SnareKKF.wav
320,192,12044,1,0,0:0:0:0:
64,192,12199,1,2,0:0:0:0:
192,192,12199,1,0,0:0:0:0:
192,192,12354,1,2,0:0:0:0:
320,192,12354,1,4,0:0:0:0:
448,192,12354,128,0,12663:0:0:0:0:
192,192,12663,1,0,0:0:0:40:LR4_SnareKKF.wav
320,192,12663,1,0,0:0:0:40:hihat12_better.wav
64,192,12817,128,0,13127:0:0:0:40:hihat12_better.wav
448,192,12972,1,0,0:0:0:40:hihat12_better.wav
192,192,13127,1,2,0:0:0:40:kick_b_louder.wav
320,192,13127,1,0,0:0:0:40:hihat12_better.wav
64,192,13281,1,0,0:0:0:40:LR4_SnareKKF.wav
448,192,13281,1,0,0:0:0:40:hihat12_better.wav
320,192,13436,1,0,0:0:0:40:hihat12_better.wav
64,192,13591,1,2,0:0:0:40:kick_b_louder.wav
192,192,13591,128,0,13900:0:0:0:40:hihat12_better.wav
320,192,13745,1,0,0:0:0:40:hihat12_better.wav
64,192,13900,1,0,0:0:0:40:LR4_SnareKKF.wav
448,192,13900,1,0,0:0:0:40:hihat12_better.wav
320,192,14055,128,0,14364:0:0:0:40:hihat12_better.wav
64,192,14209,1,0,0:0:0:40:hihat12_better.wav
192,192,14364,1,2,0:0:0:40:kick_b_louder.wav
448,192,14364,1,0,0:0:0:40:hihat12_better.wav
64,192,14518,1,0,0:0:0:40:LR4_SnareKKF.wav
448,192,14518,128,0,14828:0:0:0:40:hihat12_better.wav
320,192,14673,1,0,0:0:0:40:hihat12_better.wav
64,192,14828,128,2,15137:0:0:0:40:kick_b_louder.wav
192,192,14828,1,0,0:0:0:40:hihat12_better.wav
448,192,14982,1,0,0:0:0:40:hihat12_better.wav
192,192,15137,1,0,0:0:0:40:LR4_SnareKKF.wav
320,192,15137,1,0,0:0:0:40:hihat12_better.wav
448,192,15292,1,0,0:0:0:40:hihat12_better.wav
64,192,15446,1,0,0:0:0:40:hihat12_better.wav
64,192,15601,1,2,0:0:0:40:kick_b_louder.wav
192,192,15601,1,0,0:0:0:40:hihat12_better.wav
320,192,15756,1,0,0:0:0:40:LR4_SnareKKF.wav
448,192,15756,1,0,0:0:0:40:hihat12_better.wav
192,192,15910,1,0,0:0:0:40:hihat12_better.wav
64,192,16065,128,2,16220:0:0:0:40:kick_b_louder.wav
448,192,16065,1,0,0:0:0:40:hihat12_better.wav
320,192,16220,1,0,0:0:0:40:hihat12_better.wav
64,192,16374,1,0,0:0:0:40:LR4_SnareKKF.wav
192,192,16374,128,0,16529:0:0:0:40:hihat12_better.wav
448,192,16529,128,0,16683:0:0:0:40:hihat12_better.wav
192,192,16683,1,0,0:0:0:40:hihat12_better.wav
320,192,16838,128,2,16993:0:0:0:40:kick_b_louder.wav
448,192,16838,1,0,0:0:0:40:hihat12_better.wav
64,192,16993,1,0,0:0:0:40:LR4_SnareKKF.wav
192,192,16993,1,0,0:0:0:40:hihat12_better.wav
320,192,17147,1,0,0:0:0:40:hihat12_better.wav
64,192,17302,128,4,17611:0:0:0:0:
192,192,17302,1,2,0:0:0:40:kick_b_louder.wav
448,192,17302,1,0,0:0:0:40:hihat12_better.wav
192,192,17611,1,0,0:0:0:40:LR4_SnareKKF.wav
320,192,17611,1,0,0:0:0:40:hihat12_better.wav
448,192,17766,128,0,18075:0:0:0:40:hihat12_better.wav
192,192,17921,1,0,0:0:0:40:hihat12_better.wav
64,192,18075,1,2,0:0:0:40:kick_b_louder.wav
320,192,18075,1,0,0:0:0:40:hihat12_better.wav
192,192,18230,1,0,0:0:0:40:LR4_SnareKKF.wav
448,192,18230,1,0,0:0:0:40:hihat12_better.wav
320,192,18384,1,0,0:0:0:40:hihat12_better.wav
64,192,18539,1,2,0:0:0:40:kick_b_louder.wav
192,192,18539,128,0,18848:0:0:0:40:hihat12_better.wav
320,192,18694,1,0,0:0:0:40:hihat12_better.wav
64,192,18848,1,0,0:0:0:40:LR4_SnareKKF.wav
448,192,18848,1,0,0:0:0:40:hihat12_better.wav
320,192,19003,128,0,19312:0:0:0:40:hihat12_better.wav
64,192,19158,1,0,0:0:0:40:hihat12_better.wav
192,192,19312,1,2,0:0:0:40:kick_b_louder.wav
448,192,19312,1,0,0:0:0:40:hihat12_better.wav
64,192,19467,1,0,0:0:0:40:LR4_SnareKKF.wav
448,192,19467,1,0,0:0:0:40:hihat12_better.wav
192,192,19622,1,0,0:0:0:40:hihat12_better.wav
320,192,19699,1,0,0:0:0:0:
64,192,19776,128,2,20085:0:0:0:40:kick_b_louder.wav
448,192,19776,1,0,0:0:0:40:hihat12_better.wav
192,192,19931,1,0,0:0:0:40:hihat12_better.wav
320,192,20085,1,0,0:0:0:40:LR4_SnareKKF.wav
448,192,20085,1,0,0:0:0:40:hihat12_better.wav
192,192,20240,1,0,0:0:0:40:hihat12_better.wav
64,192,20395,1,0,0:0:0:40:hihat12_better.wav
64,192,20549,1,2,0:0:0:40:kick_b_louder.wav
448,192,20549,1,0,0:0:0:40:hihat12_better.wav
192,192,20704,1,0,0:0:0:40:LR4_SnareKKF.wav
320,192,20704,1,0,0:0:0:40:hihat12_better.wav
448,192,20859,1,0,0:0:0:40:hihat12_better.wav
64,192,21013,128,2,21168:0:0:0:40:kick_b_louder.wav
448,192,21013,1,0,0:0:0:40:hihat12_better.wav
320,192,21168,1,0,0:0:0:40:hihat12_better.wav
64,192,21323,1,0,0:0:0:40:LR4_SnareKKF.wav
192,192,21323,128,0,21477:0:0:0:40:hihat12_better.wav
448,192,21477,128,0,21632:0:0:0:40:hihat12_better.wav
320,192,21632,1,0,0:0:0:40:hihat12_better.wav
64,192,21787,128,0,21941:0:0:0:40:hihat12_better.wav
448,192,21941,1,0,0:0:0:40:LR4_SnareKKF.wav
320,192,22018,1,0,0:0:0:0:
192,192,22096,1,0,0:0:0:40:hihat12_better.wav
64,192,22173,1,0,0:0:0:0:
192,192,22250,1,4,0:0:0:0:
320,192,22250,1,2,0:0:0:40:kick_b_louder.wav
448,192,22250,1,0,0:0:0:40:hihat12_better.wav
64,192,22405,1,0,0:0:0:25:electronickick.wav
192,192,22560,1,0,0:0:0:65:LR_Snare Drum.wav
448,192,22560,1,0,0:0:0:0:
320,192,22714,1,0,0:0:0:0:
192,192,22792,1,0,0:0:0:0:
448,192,22869,1,0,0:0:0:0:
64,192,22946,1,0,0:0:0:0:
192,192,23024,1,0,0:0:0:25:electronickick.wav
320,192,23178,1,0,0:0:0:65:LR_Snare Drum.wav
448,192,23178,1,0,0:0:0:0:
64,192,23333,1,0,0:0:0:0:
320,192,23410,1,0,0:0:0:0:
64,192,23488,1,0,0:0:0:25:electronickick.wav
192,192,23488,1,0,0:0:0:0:
448,192,23642,1,0,0:0:0:25:electronickick.wav
192,192,23797,1,0,0:0:0:65:LR_Snare Drum.wav
320,192,23797,1,0,0:0:0:0:
64,192,23951,1,0,0:0:0:0:
448,192,24106,1,0,0:0:0:0:
320,192,24183,1,0,0:0:0:0:
192,192,24261,1,0,0:0:0:25:electronickick.wav
64,192,24415,1,0,0:0:0:65:LR_Snare Drum.wav
448,192,24415,1,0,0:0:0:0:
192,192,24570,1,0,0:0:0:0:
320,192,24647,1,0,0:0:0:0:
448,192,24725,1,0,0:0:0:0:
64,192,24879,1,0,0:0:0:0:
320,192,25034,1,0,0:0:0:65:LR_Snare Drum.wav
448,192,25034,1,0,0:0:0:0:
192,192,25189,1,0,0:0:0:0:
64,192,25266,1,0,0:0:0:0:
448,192,25343,1,0,0:0:0:0:
192,192,25498,1,0,0:0:0:25:electronickick.wav
64,192,25652,1,0,0:0:0:65:LR_Snare Drum.wav
320,192,25652,1,0,0:0:0:0:
192,192,25807,1,0,0:0:0:0:
320,192,25884,1,0,0:0:0:0:
448,192,25962,1,0,0:0:0:25:electronickick.wav
320,192,26116,1,0,0:0:0:25:electronickick.wav
192,192,26194,1,0,0:0:0:0:
64,192,26271,1,0,0:0:0:65:LR_Snare Drum.wav
448,192,26271,1,0,0:0:0:0:
320,192,26426,1,0,0:0:0:0:
64,192,26503,1,0,0:0:0:0:
448,192,26580,1,0,0:0:0:0:
192,192,26658,1,0,0:0:0:0:
320,192,26735,1,0,0:0:0:25:electronickick.wav
64,192,26890,1,0,0:0:0:65:LR_Snare Drum.wav
192,192,26890,1,0,0:0:0:0:
192,192,27044,1,0,0:0:0:0:
320,192,27199,1,2,0:0:0:0:
448,192,27199,128,0,27508:0:0:0:0:
64,192,27508,1,0,0:0:0:0:
192,192,27585,1,0,0:0:0:0:
320,192,27663,1,0,0:0:0:0:
448,192,27740,1,0,0:0:0:0:
64,192,27817,1,0,0:0:0:0:
320,192,27972,1,0,0:0:0:25:electronickick.wav
64,192,28127,1,0,0:0:0:65:LR_Snare Drum.wav
192,192,28127,1,0,0:0:0:0:
448,192,28281,1,0,0:0:0:0:
320,192,28359,1,0,0:0:0:0:
192,192,28436,1,0,0:0:0:25:electronickick.wav
64,192,28591,1,0,0:0:0:25:electronickick.wav
320,192,28745,1,0,0:0:0:65:LR_Snare Drum.wav
448,192,28745,1,0,0:0:0:0:
192,192,28900,1,0,0:0:0:0:
64,192,28977,1,0,0:0:0:65:LR_Snare Drum.wav
448,192,29055,1,0,0:0:0:0:
320,192,29132,1,0,0:0:0:65:LR_Snare Drum.wav
192,192,29209,1,0,0:0:0:25:electronickick.wav
64,192,29364,1,0,0:0:0:80:LR_Snare Drum.wav
320,192,29364,1,0,0:0:0:0:
192,192,29441,1,0,0:0:0:0:
448,192,29518,1,0,0:0:0:80:LR_Snare Drum.wav
320,192,29596,1,0,0:0:0:80:LR_Snare Drum.wav
64,192,29673,1,2,0:0:0:0:
192,192,29673,1,4,0:0:0:0:
448,192,29673,1,0,0:0:0:0:
192,192,29982,1,0,0:0:0:0:
64,192,30292,1,2,0:0:0:0:
320,192,30292,1,4,0:0:0:0:
448,192,30292,1,0,0:0:0:0:
320,192,30601,1,0,0:0:0:0:
192,192,30756,1,0,0:0:0:0:
64,192,30910,1,0,0:0:0:0:
448,192,31065,1,0,0:0:0:0:
320,192,31142,1,0,0:0:0:0:
64,192,31220,1,0,0:0:0:0:
192,192,31297,1,0,0:0:0:0:
320,192,31374,1,0,0:0:0:0:
448,192,31374,1,0,0:0:0:0:
64,192,31529,1,8,0:0:0:0:
192,192,31529,1,0,0:0:0:0:
448,192,31606,1,8,0:0:0:0:
320,192,31683,1,8,0:0:0:0:
192,192,31761,1,8,0:0:0:0:
64,192,31838,1,8,0:0:0:0:
320,192,31915,1,8,0:0:0:0:
448,192,31993,1,8,0:0:0:0:
192,192,32070,1,8,0:0:0:0:
64,192,32147,1,2,0:0:0:0:
320,192,32147,1,4,0:0:0:0:
448,192,32147,1,0,0:0:0:0:
192,192,32302,1,0,0:0:0:0:
64,192,32457,1,8,0:0:0:0:
448,192,32457,1,0,0:0:0:0:
320,192,32611,1,0,0:0:0:0:
64,192,32766,1,2,0:0:0:0:
192,192,32766,1,0,0:0:0:0:
320,192,32921,1,0,0:0:0:0:
64,192,33075,1,8,0:0:0:0:
448,192,33075,1,0,0:0:0:0:
192,192,33230,1,0,0:0:0:0:
320,192,33384,1,2,0:0:0:0:
448,192,33384,1,0,0:0:0:0:
192,192,33539,1,0,0:0:0:0:
64,192,33694,1,8,0:0:0:0:
448,192,33694,1,0,0:0:0:0:
320,192,33848,1,0,0:0:0:0:
64,192,34003,1,2,0:0:0:0:
192,192,34003,1,0,0:0:0:0:
320,192,34158,1,0,0:0:0:0:
192,192,34312,1,8,0:0:0:0:
448,192,34312,1,0,0:0:0:0:
64,192,34467,1,0,0:0:0:0:
320,192,34622,1,2,0:0:0:0:
448,192,34622,1,0,0:0:0:0:
192,192,34776,1,0,0:0:0:0:
64,192,34931,1,8,0:0:0:0:
320,192,34931,1,0,0:0:0:0:
448,192,35085,1,0,0:0:0:0:
64,192,35240,1,2,0:0:0:0:
192,192,35240,1,0,0:0:0:0:
320,192,35395,1,0,0:0:0:0:
64,192,35549,1,8,0:0:0:0:
448,192,35549,1,0,0:0:0:0:
192,192,35704,1,0,0:0:0:0:
320,192,35859,1,2,0:0:0:0:
448,192,35859,1,0,0:0:0:0:
192,192,36013,1,0,0:0:0:0:
64,192,36168,1,8,0:0:0:0:
448,192,36168,1,0,0:0:0:0:
320,192,36323,1,0,0:0:0:0:
64,192,36477,1,2,0:0:0:0:
192,192,36477,1,0,0:0:0:0:
320,192,36632,1,0,0:0:0:0:
64,192,36787,1,8,0:0:0:0:
448,192,36787,1,0,0:0:0:0:
192,192,36941,1,0,0:0:0:0:
320,192,37096,1,2,0:0:0:0:
448,192,37096,1,0,0:0:0:0:
64,192,37250,1,0,0:0:0:0:
192,192,37405,1,8,0:0:0:0:
448,192,37405,1,0,0:0:0:0:
320,192,37560,1,0,0:0:0:0:
64,192,37714,1,2,0:0:0:0:
448,192,37714,1,0,0:0:0:0:
192,192,37869,1,0,0:0:0:0:
64,192,38024,1,8,0:0:0:0:
320,192,38024,1,0,0:0:0:0:
448,192,38178,1,0,0:0:0:0:
64,192,38333,1,2,0:0:0:0:
192,192,38333,1,0,0:0:0:0:
320,192,38488,1,0,0:0:0:0:
64,192,38642,1,8,0:0:0:0:
448,192,38642,1,0,0:0:0:0:
192,192,38797,1,0,0:0:0:0:
320,192,38951,1,2,0:0:0:0:
448,192,38951,1,0,0:0:0:0:
192,192,39106,1,0,0:0:0:0:
64,192,39261,1,8,0:0:0:0:
448,192,39261,1,0,0:0:0:0:
320,192,39338,1,8,0:0:0:0:
192,192,39415,1,8,0:0:0:0:
320,192,39493,1,8,0:0:0:0:
64,192,39570,1,2,0:0:0:0:
192,192,39570,1,0,0:0:0:40:Tom3.wav
448,192,39570,1,0,0:0:0:0:
64,192,39879,128,8,40111:0:0:0:0:
448,192,39879,128,4,40111:0:0:0:0:
64,192,40189,1,2,0:0:0:0:
448,192,40189,1,0,0:0:0:40:Tom3.wav
192,192,40498,128,8,40730:0:0:0:0:
320,192,40498,128,4,40730:0:0:0:0:
192,192,40807,1,8,0:0:0:0:
320,192,40807,1,0,0:0:0:0:
64,192,40962,1,0,0:0:0:0:
192,192,41039,1,8,0:0:0:0:
320,192,41116,1,8,0:0:0:0:
448,192,41116,1,2,0:0:0:0:
192,192,41194,1,8,0:0:0:0:
64,192,41271,1,0,0:0:0:40:Tom1.wav
448,192,41348,1,0,0:0:0:40:Tom1.wav
320,192,41426,1,2,0:0:0:0:
64,192,41658,1,0,0:0:0:40:Tom3.wav
192,192,41735,1,2,0:0:0:0:
320,192,41890,1,0,0:0:0:40:Tom3.wav
192,192,41967,1,0,0:0:0:0:
64,192,42044,1,2,0:0:0:0:
320,192,42044,1,4,0:0:0:0:
448,192,42044,1,0,0:0:0:0:
192,192,42276,1,0,0:0:0:0:
320,192,42508,1,0,0:0:0:40:kick_b_louder.wav
448,192,42508,1,0,0:0:0:0:
64,192,42663,128,0,42972:0:0:0:40:LR4_SnareKKF.wav
192,192,42663,1,0,0:0:0:0:
448,192,42972,128,0,43281:0:0:0:0:
64,192,43127,1,0,0:0:0:0:
192,192,43281,128,0,43591:0:0:0:0:
448,192,43436,1,0,0:0:0:0:
64,192,43591,1,0,0:0:0:40:kick_b_louder.wav
320,192,43591,128,0,43900:0:0:0:0:
192,192,43745,1,0,0:0:0:0:
64,192,43900,128,0,44209:0:0:0:40:LR4_SnareKKF.wav
448,192,43900,1,0,0:0:0:0:
320,192,44055,1,0,0:0:0:40:kick_b_louder.wav
448,192,44209,128,0,44518:0:0:0:0:
64,192,44364,1,0,0:0:0:0:
192,192,44518,128,0,45292:0:0:0:40:kick_b_louder.wav
320,192,44518,1,0,0:0:0:0:
64,192,44673,1,2,0:0:0:0:
448,192,44828,1,0,0:0:0:40:kick_b_louder.wav
320,192,44982,1,0,0:0:0:0:
64,192,45137,1,0,0:0:0:40:LR4_SnareKKF.wav
448,192,45137,1,0,0:0:0:0:
320,192,45292,1,0,0:0:0:40:kick_b_louder.wav
448,192,45292,1,0,0:0:0:0:
64,192,45446,128,0,45756:0:0:0:0:
320,192,45601,1,0,0:0:0:40:kick_b_louder.wav
448,192,45756,128,0,46374:0:0:0:0:
64,192,45910,1,0,0:0:0:0:
192,192,46065,1,0,0:0:0:40:kick_b_louder.wav
320,192,46220,1,0,0:0:0:0:
64,192,46374,1,0,0:0:0:90:clap01.wav
192,192,46374,1,0,0:0:0:0:
320,192,46529,1,0,0:0:0:0:
320,192,46683,1,0,0:0:0:0:
320,192,46838,1,0,0:0:0:0:
64,192,46993,1,2,0:0:0:0:
192,192,47070,1,0,0:0:0:0:
320,192,47147,1,0,0:0:0:0:
448,192,47225,1,0,0:0:0:0:
64,192,47302,1,8,0:0:0:0:
192,192,47302,1,0,0:0:0:0:
320,192,47457,1,0,0:0:0:0:
192,192,47534,1,0,0:0:0:0:
320,192,47611,1,8,0:0:0:0:
448,192,47611,1,0,0:0:0:0:
64,192,47689,1,0,0:0:0:0:
192,192,47766,1,0,0:0:0:0:
448,192,47843,1,0,0:0:0:0:
64,192,47921,1,8,0:0:0:0:
320,192,47921,1,0,0:0:0:0:
192,192,47998,1,0,0:0:0:0:
320,192,48075,1,0,0:0:0:0:
448,192,48152,1,0,0:0:0:0:
64,192,48230,1,8,0:0:0:0:
192,192,48230,1,0,0:0:0:0:
320,192,48384,1,0,0:0:0:0:
192,192,48462,1,0,0:0:0:0:
64,192,48539,1,8,0:0:0:0:
448,192,48539,1,0,0:0:0:0:
320,192,48616,1,0,0:0:0:0:
192,192,48694,1,0,0:0:0:0:
64,192,48771,1,0,0:0:0:0:
320,192,48848,1,8,0:0:0:0:
448,192,48848,1,0,0:0:0:0:
64,192,48926,1,0,0:0:0:0:
192,192,49003,1,0,0:0:0:0:
320,192,49080,1,0,0:0:0:0:
64,192,49158,1,8,0:0:0:0:
448,192,49158,1,0,0:0:0:0:
192,192,49235,1,8,0:0:0:0:
320,192,49312,1,8,0:0:0:0:
448,192,49390,1,8,0:0:0:0:
64,192,49467,1,2,0:0:0:0:
192,192,49467,1,4,0:0:0:0:
320,192,49467,1,0,0:0:0:0:
448,192,49622,1,2,0:0:0:0:
192,192,49776,1,2,0:0:0:0:
64,192,49931,1,8,0:0:0:0:
320,192,49931,1,4,0:0:0:0:
448,192,49931,1,0,0:0:0:0:
192,192,50085,1,2,0:0:0:0:
448,192,50240,1,2,0:0:0:0:
64,192,50395,1,8,0:0:0:0:
192,192,50395,1,4,0:0:0:0:
320,192,50395,1,0,0:0:0:0:
448,192,50549,1,2,0:0:0:0:
64,192,50704,1,8,0:0:0:0:
192,192,50704,1,0,0:0:0:0:
64,192,50859,1,8,0:0:0:0:
192,192,50859,1,0,0:0:0:0:
320,192,51013,1,2,0:0:0:0:
448,192,51013,1,8,0:0:0:0:
320,192,51168,128,2,51323:0:0:0:0:
448,192,51168,128,8,51323:0:0:0:0:
64,192,51477,128,0,51632:0:0:0:0:
192,192,51632,128,0,51787:0:0:0:0:
448,192,51787,128,0,51941:0:0:0:0:
64,192,51941,1,2,0:0:0:0:
192,192,51941,1,4,0:0:0:0:
320,192,51941,1,0,0:0:0:0:
64,192,52096,1,0,0:0:0:0:
192,192,52250,1,8,0:0:0:0:
448,192,52250,1,0,0:0:0:0:
320,192,52405,1,0,0:0:0:0:
64,192,52560,1,2,0:0:0:0:
192,192,52560,1,0,0:0:0:0:
448,192,52714,1,0,0:0:0:0:
64,192,52869,1,8,0:0:0:0:
320,192,52869,1,0,0:0:0:0:
192,192,53024,1,0,0:0:0:0:
64,192,53178,1,2,0:0:0:0:
448,192,53178,1,0,0:0:0:0:
320,192,53333,1,0,0:0:0:0:
64,192,53488,1,8,0:0:0:0:
192,192,53488,1,0,0:0:0:0:
448,192,53642,1,0,0:0:0:0:
192,192,53797,1,2,0:0:0:0:
320,192,53797,1,0,0:0:0:0:
64,192,53951,1,0,0:0:0:0:
192,192,54106,1,8,0:0:0:0:
448,192,54106,1,0,0:0:0:0:
320,192,54261,1,0,0:0:0:0:
64,192,54415,1,2,0:0:0:0:
192,192,54415,1,0,0:0:0:0:
448,192,54570,128,0,54725:0:0:0:0:
64,192,54725,128,8,54879:0:0:0:0:
192,192,54725,1,0,0:0:0:0:
320,192,54879,128,0,55034:0:0:0:0:
192,192,55034,128,2,55189:0:0:0:0:
448,192,55034,1,0,0:0:0:0:
64,192,55189,128,0,55343:0:0:0:0:
320,192,55343,1,8,0:0:0:0:
448,192,55343,128,0,55498:0:0:0:0:
192,192,55498,128,0,55652:0:0:0:0:
64,192,55652,1,2,0:0:0:0:
448,192,55652,1,0,0:0:0:0:
320,192,55807,128,0,55962:0:0:0:0:
64,192,55962,1,8,0:0:0:0:
192,192,55962,1,0,0:0:0:0:
448,192,56116,128,0,56271:0:0:0:0:
64,192,56271,1,2,0:0:0:0:
192,192,56271,1,0,0:0:0:0:
320,192,56426,1,8,0:0:0:0:
448,192,56426,1,0,0:0:0:0:
64,192,56580,1,8,0:0:0:0:
448,192,56580,1,0,0:0:0:0:
192,192,56658,1,8,0:0:0:0:
320,192,56735,1,8,0:0:0:0:
192,192,56812,1,8,0:0:0:0:
64,192,56890,1,2,0:0:0:0:
320,192,56890,1,4,0:0:0:0:
448,192,56890,1,0,0:0:0:0:
64,192,57044,1,0,0:0:0:0:
192,192,57199,1,8,0:0:0:0:
448,192,57199,1,0,0:0:0:0:
320,192,57354,128,0,57663:0:0:0:0:
64,192,57508,1,2,0:0:0:0:
192,192,57663,1,0,0:0:0:0:
64,192,57817,1,8,0:0:0:0:
448,192,57817,128,0,58127:0:0:0:0:
320,192,57972,1,0,0:0:0:0:
64,192,58127,1,2,0:0:0:0:
192,192,58127,1,0,0:0:0:0:
448,192,58281,1,0,0:0:0:0:
64,192,58436,1,8,0:0:0:0:
320,192,58436,1,0,0:0:0:0:
192,192,58591,128,0,58900:0:0:0:0:
448,192,58745,1,2,0:0:0:0:
320,192,58900,1,0,0:0:0:0:
64,192,59055,128,8,59364:0:0:0:0:
448,192,59055,1,0,0:0:0:0:
192,192,59209,1,0,0:0:0:0:
320,192,59364,1,2,0:0:0:0:
448,192,59364,1,0,0:0:0:0:
192,192,59518,1,0,0:0:0:0:
64,192,59673,1,8,0:0:0:0:
448,192,59673,1,0,0:0:0:0:
320,192,59828,1,0,0:0:0:0:
64,192,59982,1,2,0:0:0:0:
192,192,59982,1,0,0:0:0:0:
320,192,60137,1,0,0:0:0:0:
64,192,60292,1,8,0:0:0:0:
448,192,60292,1,0,0:0:0:0:
192,192,60446,1,0,0:0:0:0:
320,192,60601,1,2,0:0:0:0:
448,192,60601,1,0,0:0:0:0:
192,192,60756,1,0,0:0:0:0:
64,192,60910,1,8,0:0:0:0:
320,192,60910,1,4,0:0:0:0:
448,192,60910,1,0,0:0:0:0:
192,192,61065,1,8,0:0:0:0:
320,192,61142,1,8,0:0:0:0:
64,192,61220,1,2,0:0:0:0:
448,192,61220,1,0,0:0:0:0:
192,192,61297,1,8,0:0:0:0:
320,192,61374,1,0,0:0:0:40:Tom1.wav
192,192,61451,1,0,0:0:0:40:Tom2.wav
64,192,61529,1,2,0:0:0:0:
448,192,61529,1,0,0:0:0:40:Tom3.wav
320,192,61683,1,0,0:0:0:40:Tom3.wav
64,192,61838,1,2,0:0:0:0:
192,192,61838,1,4,0:0:0:0:
448,192,61838,1,0,0:0:0:0:
448,192,61993,1,0,0:0:0:0:
64,192,62147,1,8,0:0:0:0:
320,192,62147,1,0,0:0:0:0:
192,192,62302,1,0,0:0:0:0:
320,192,62457,1,2,0:0:0:0:
448,192,62457,1,0,0:0:0:0:
64,192,62611,1,0,0:0:0:0:
192,192,62766,1,8,0:0:0:0:
448,192,62766,1,0,0:0:0:0:
320,192,62921,1,0,0:0:0:0:
64,192,63075,1,2,0:0:0:0:
448,192,63075,1,0,0:0:0:0:
192,192,63230,1,0,0:0:0:0:
320,192,63384,1,8,0:0:0:0:
448,192,63384,1,0,0:0:0:0:
64,192,63539,1,0,0:0:0:0:
192,192,63694,1,2,0:0:0:0:
320,192,63694,1,0,0:0:0:0:
448,192,63848,1,0,0:0:0:0:
64,192,64003,1,8,0:0:0:0:
320,192,64003,1,0,0:0:0:0:
192,192,64158,1,0,0:0:0:0:
320,192,64312,1,2,0:0:0:0:
448,192,64312,1,0,0:0:0:0:
64,192,64467,128,0,64622:0:0:0:0:
320,192,64622,1,8,0:0:0:0:
448,192,64622,128,0,64776:0:0:0:0:
192,192,64776,128,0,64931:0:0:0:0:
64,192,64931,1,2,0:0:0:0:
320,192,64931,128,0,65085:0:0:0:0:
448,192,65085,128,0,65240:0:0:0:0:
64,192,65240,128,8,65395:0:0:0:0:
192,192,65240,1,0,0:0:0:0:
320,192,65395,128,0,65549:0:0:0:0:
64,192,65549,1,2,0:0:0:0:
448,192,65549,1,0,0:0:0:0:
192,192,65704,128,0,65859:0:0:0:0:
320,192,65859,1,8,0:0:0:0:
448,192,65859,1,0,0:0:0:0:
64,192,66013,128,0,66168:0:0:0:0:
320,192,66168,1,2,0:0:0:0:
448,192,66168,1,0,0:0:0:0:
64,192,66323,1,8,0:0:0:0:
192,192,66323,1,0,0:0:0:0:
64,192,66477,1,8,0:0:0:0:
448,192,66477,1,0,0:0:0:0:
320,192,66555,1,8,0:0:0:0:
192,192,66632,1,8,0:0:0:0:
320,192,66709,1,8,0:0:0:0:
64,192,66787,1,2,0:0:0:0:
192,192,66787,1,4,0:0:0:0:
448,192,66787,1,0,0:0:0:0:
448,192,66941,1,0,0:0:0:0:
64,192,67096,1,8,0:0:0:0:
320,192,67096,1,0,0:0:0:0:
192,192,67250,128,0,67560:0:0:0:0:
448,192,67405,1,2,0:0:0:0:
320,192,67560,1,0,0:0:0:0:
64,192,67714,128,8,68024:0:0:0:0:
448,192,67714,1,0,0:0:0:0:
192,192,67869,1,0,0:0:0:0:
320,192,68024,1,2,0:0:0:0:
448,192,68024,1,0,0:0:0:0:
64,192,68178,1,0,0:0:0:0:
192,192,68333,1,8,0:0:0:0:
448,192,68333,1,0,0:0:0:0:
320,192,68488,128,0,68797:0:0:0:0:
64,192,68642,1,2,0:0:0:0:
192,192,68797,1,0,0:0:0:0:
64,192,68951,1,8,0:0:0:0:
448,192,68951,128,0,69261:0:0:0:0:
320,192,69106,1,0,0:0:0:0:
64,192,69261,1,2,0:0:0:0:
192,192,69261,1,0,0:0:0:0:
320,192,69415,1,0,0:0:0:0:
64,192,69570,1,8,0:0:0:0:
448,192,69570,1,0,0:0:0:0:
192,192,69725,1,0,0:0:0:0:
320,192,69879,1,2,0:0:0:0:
448,192,69879,1,0,0:0:0:0:
192,192,70034,1,0,0:0:0:0:
64,192,70189,1,8,0:0:0:0:
448,192,70189,1,0,0:0:0:0:
192,192,70343,1,2,0:0:0:0:
320,192,70343,1,4,0:0:0:0:
448,192,70343,1,0,0:0:0:0:
64,192,70498,1,0,0:0:0:0:
320,192,70652,1,2,0:0:0:0:
64,192,70807,1,8,0:0:0:0:
192,192,70807,1,4,0:0:0:0:
448,192,70807,1,0,0:0:0:0:
320,192,70962,1,0,0:0:0:0:
192,192,71039,1,8,0:0:0:0:
64,192,71116,1,2,0:0:0:0:
448,192,71116,1,0,0:0:0:0:
192,192,71271,1,0,0:0:0:40:Tom1.wav
320,192,71348,1,0,0:0:0:40:Tom1.wav
448,192,71426,1,2,0:0:0:0:
64,192,71503,1,0,0:0:0:40:Tom2.wav
320,192,71580,1,0,0:0:0:40:Tom3.wav
192,192,71658,1,0,0:0:0:40:Tom3.wav
64,192,71735,1,2,0:0:0:0:
320,192,71735,128,4,72044:0:0:0:0:
448,192,71735,128,0,72044:0:0:0:0:
64,192,72044,1,8,0:0:0:0:
192,192,72044,1,0,0:0:0:0:
320,192,72199,1,0,0:0:0:0:
192,192,72276,1,2,0:0:0:0:
64,192,72354,1,8,0:0:0:0:
448,192,72354,1,0,0:0:0:0:
192,192,72508,1,2,0:0:0:0:
320,192,72508,1,0,0:0:0:0:
64,192,72663,1,8,0:0:0:0:
320,192,72663,1,0,0:0:0:0:
192,192,72817,1,2,0:0:0:0:
448,192,72817,1,0,0:0:0:0:
64,192,72972,1,8,0:0:0:0:
192,192,72972,1,0,0:0:0:0:
320,192,73127,1,0,0:0:0:0:
64,192,73281,1,8,0:0:0:0:
448,192,73281,1,0,0:0:0:0:
192,192,73436,1,2,0:0:0:0:
320,192,73436,1,0,0:0:0:0:
192,192,73591,1,8,0:0:0:0:
448,192,73591,1,0,0:0:0:0:
64,192,73745,1,2,0:0:0:0:
320,192,73745,1,0,0:0:0:0:
320,192,73900,1,8,0:0:0:0:
448,192,73900,1,0,0:0:0:0:
64,192,74055,1,2,0:0:0:0:
192,192,74055,1,0,0:0:0:0:
320,192,74209,128,8,74518:0:0:0:0:
448,192,74209,1,0,0:0:0:0:
64,192,74518,1,8,0:0:0:0:
192,192,74518,1,0,0:0:0:0:
192,192,74673,1,0,0:0:0:0:
320,192,74750,1,2,0:0:0:0:
64,192,74828,1,8,0:0:0:0:
448,192,74828,1,0,0:0:0:0:
192,192,74982,1,2,0:0:0:0:
320,192,74982,1,0,0:0:0:0:
192,192,75137,1,8,0:0:0:0:
448,192,75137,1,0,0:0:0:0:
64,192,75292,1,2,0:0:0:0:
320,192,75292,1,0,0:0:0:0:
192,192,75446,1,8,0:0:0:0:
320,192,75446,1,4,0:0:0:0:
448,192,75446,1,0,0:0:0:0:
192,192,75601,1,0,0:0:0:0:
64,192,75756,1,8,0:0:0:0:
320,192,75756,1,4,0:0:0:0:
448,192,75756,1,0,0:0:0:0:
320,192,75910,1,2,0:0:0:0:
64,192,76065,1,8,0:0:0:0:
448,192,76065,1,4,0:0:0:0:
64,192,76220,1,8,0:0:0:0:
320,192,76220,1,4,0:0:0:0:
448,192,76374,1,8,0:0:0:0:
64,192,76451,1,8,0:0:0:0:
192,192,76529,1,8,0:0:0:0:
320,192,76606,1,8,0:0:0:0:
64,192,76683,1,2,0:0:0:0:
192,192,76683,1,8,0:0:0:0:
448,192,76683,1,4,0:0:0:0:
320,192,76838,1,2,0:0:0:0:
64,192,76993,1,8,0:0:0:0:
320,192,76993,1,4,0:0:0:0:
192,192,77147,1,2,0:0:0:0:
448,192,77147,1,0,0:0:0:0:
64,192,77302,1,8,0:0:0:0:
448,192,77302,1,4,0:0:0:0:
192,192,77457,1,2,0:0:0:0:
320,192,77457,1,0,0:0:0:0:
64,192,77611,1,8,0:0:0:0:
192,192,77611,1,4,0:0:0:0:
320,192,77766,128,2,77998:0:0:0:0:
448,192,77766,128,4,77998:0:0:0:0:
64,192,78075,128,2,78230:0:0:0:0:
192,192,78075,128,0,78230:0:0:0:0:
448,192,78230,1,0,0:0:0:0:
320,192,78384,128,0,78539:0:0:0:0:
64,192,78539,128,0,78694:0:0:0:0:
192,192,78694,128,0,78848:0:0:0:0:
320,192,78848,128,0,79080:0:0:0:0:
448,192,78848,128,0,79080:0:0:0:0:
64,192,79158,128,2,79467:0:0:0:0:
192,192,79158,1,4,0:0:0:0:
448,192,79158,1,0,0:0:0:0:
192,192,79467,1,0,0:0:0:40:LR4_SnareKKF.wav
320,192,79467,1,0,0:0:0:40:hihat12_better.wav
448,192,79622,128,0,79931:0:0:0:40:hihat12_better.wav
64,192,79776,1,0,0:0:0:40:hihat12_better.wav
192,192,79931,1,2,0:0:0:40:kick_b_louder.wav
320,192,79931,1,0,0:0:0:40:hihat12_better.wav
64,192,80085,1,0,0:0:0:40:LR4_SnareKKF.wav
448,192,80085,1,0,0:0:0:40:hihat12_better.wav
192,192,80240,1,0,0:0:0:40:hihat12_better.wav
320,192,80395,128,2,80704:0:0:0:40:kick_b_louder.wav
448,192,80395,1,0,0:0:0:40:hihat12_better.wav
192,192,80549,1,0,0:0:0:40:hihat12_better.wav
64,192,80704,1,0,0:0:0:40:LR4_SnareKKF.wav
448,192,80704,1,0,0:0:0:40:hihat12_better.wav
192,192,80859,128,0,81168:0:0:0:40:hihat12_better.wav
448,192,81013,1,0,0:0:0:40:hihat12_better.wav
64,192,81168,1,2,0:0:0:40:kick_b_louder.wav
320,192,81168,1,0,0:0:0:40:hihat12_better.wav
64,192,81323,128,0,81632:0:0:0:40:LR4_SnareKKF.wav
448,192,81323,1,0,0:0:0:40:hihat12_better.wav
192,192,81477,1,0,0:0:0:40:hihat12_better.wav
320,192,81632,1,2,0:0:0:40:kick_b_louder.wav
448,192,81632,128,0,81941:0:0:0:40:hihat12_better.wav
64,192,81787,1,0,0:0:0:40:hihat12_better.wav
192,192,81941,1,0,0:0:0:40:LR4_SnareKKF.wav
320,192,81941,1,0,0:0:0:40:hihat12_better.wav
64,192,82096,1,0,0:0:0:40:hihat12_better.wav
448,192,82250,1,0,0:0:0:40:hihat12_better.wav
320,192,82405,1,2,0:0:0:40:kick_b_louder.wav
448,192,82405,1,0,0:0:0:40:hihat12_better.wav
64,192,82560,1,0,0:0:0:40:LR4_SnareKKF.wav
192,192,82560,1,0,0:0:0:40:hihat12_better.wav
320,192,82714,1,0,0:0:0:40:hihat12_better.wav
64,192,82869,1,2,0:0:0:40:kick_b_louder.wav
448,192,82869,128,0,83024:0:0:0:40:hihat12_better.wav
192,192,83024,1,0,0:0:0:40:hihat12_better.wav
64,192,83178,128,0,83333:0:0:0:40:LR4_SnareKKF.wav
448,192,83178,1,0,0:0:0:40:hihat12_better.wav
192,192,83333,128,0,83488:0:0:0:40:hihat12_better.wav
320,192,83488,1,0,0:0:0:40:hihat12_better.wav
64,192,83642,1,2,0:0:0:40:kick_b_louder.wav
448,192,83642,1,0,0:0:0:40:hihat12_better.wav
320,192,83797,1,0,0:0:0:40:LR4_SnareKKF.wav
192,192,83874,1,0,0:0:0:0:
64,192,83951,1,0,0:0:0:40:hihat12_better.wav
320,192,84029,1,0,0:0:0:0:
64,192,84106,1,4,0:0:0:0:
192,192,84106,1,2,0:0:0:40:kick_b_louder.wav
448,192,84106,128,0,84415:0:0:0:40:hihat12_better.wav
192,192,84415,1,0,0:0:0:40:LR4_SnareKKF.wav
320,192,84415,1,0,0:0:0:40:hihat12_better.wav
64,192,84570,1,0,0:0:0:40:kick_b_louder.wav
320,192,84725,1,0,0:0:0:40:kick_b_louder.wav
448,192,84725,1,0,0:0:0:40:hihat12_better.wav
192,192,84879,1,0,0:0:0:40:kick_b_louder.wav
64,192,85034,1,0,0:0:0:40:LR4_SnareKKF.wav
448,192,85034,1,0,0:0:0:40:hihat12_better.wav
320,192,85189,1,0,0:0:0:40:hihat12_better.wav
64,192,85343,1,0,0:0:0:40:kick_b_louder.wav
192,192,85343,1,0,0:0:0:40:hihat12_better.wav
320,192,85498,1,0,0:0:0:40:kick_b_louder.wav
64,192,85652,1,0,0:0:0:40:LR4_SnareKKF.wav
448,192,85652,1,0,0:0:0:40:hihat12_better.wav
192,192,85807,1,0,0:0:0:40:kick_b_louder.wav
320,192,85962,1,0,0:0:0:40:kick_b_louder.wav
448,192,85962,1,0,0:0:0:40:hihat12_better.wav
64,192,86116,1,0,0:0:0:40:kick_b_louder.wav
192,192,86271,1,0,0:0:0:40:LR4_SnareKKF.wav
320,192,86271,1,0,0:0:0:40:hihat12_better.wav
448,192,86426,1,0,0:0:0:40:hihat12_better.wav
320,192,86503,1,0,0:0:0:0:
64,192,86580,1,4,0:0:0:0:
192,192,86580,1,0,0:0:0:40:kick_b_louder.wav
320,192,86658,1,0,0:0:0:0:
448,192,86735,1,0,0:0:0:40:kick_b_louder.wav
64,192,86812,1,0,0:0:0:0:
192,192,86890,1,0,0:0:0:40:LR4_SnareKKF.wav
320,192,86890,1,0,0:0:0:40:hihat12_better.wav
448,192,86967,1,0,0:0:0:0:
64,192,87044,1,0,0:0:0:40:kick_b_louder.wav
192,192,87122,1,0,0:0:0:0:
320,192,87199,1,0,0:0:0:40:kick_b_louder.wav
448,192,87199,1,0,0:0:0:40:hihat12_better.wav
192,192,87276,1,0,0:0:0:0:
64,192,87354,1,0,0:0:0:40:kick_b_louder.wav
448,192,87431,1,0,0:0:0:0:
64,192,87508,1,0,0:0:0:40:LR4_SnareKKF.wav
320,192,87508,1,0,0:0:0:40:hihat12_better.wav
192,192,87585,1,0,0:0:0:0:
448,192,87663,1,0,0:0:0:40:kick_b_louder.wav
320,192,87740,1,0,0:0:0:0:
64,192,87817,1,0,0:0:0:40:kick_b_louder.wav
192,192,87817,1,0,0:0:0:40:hihat12_better.wav
320,192,87895,1,0,0:0:0:0:
448,192,87972,1,0,0:0:0:40:kick_b_louder.wav
192,192,88049,1,0,0:0:0:0:
64,192,88127,1,0,0:0:0:40:LR4_SnareKKF.wav
448,192,88127,1,0,0:0:0:40:hihat12_better.wav
320,192,88204,1,0,0:0:0:0:
64,192,88281,1,0,0:0:0:40:kick_b_louder.wav
192,192,88359,1,0,0:0:0:0:
320,192,88436,1,0,0:0:0:40:kick_b_louder.wav
448,192,88436,1,0,0:0:0:40:hihat12_better.wav
192,192,88513,1,0,0:0:0:0:
64,192,88591,1,0,0:0:0:40:kick_b_louder.wav
448,192,88668,1,0,0:0:0:0:
192,192,88745,1,0,0:0:0:40:LR4_SnareKKF.wav
320,192,88745,1,0,0:0:0:40:hihat12_better.wav
64,192,88900,128,4,89364:0:0:0:0:
320,192,88900,1,2,0:0:0:0:
448,192,88900,128,0,89364:0:0:0:40:hihat12_better.wav
