osu file format v14

[General]
AudioFilename: 01 The Mother We Share.mp3
AudioLeadIn: 0
PreviewTime: 45535
Countdown: 0
SampleSet: Soft
StackLeniency: 0.7
Mode: 0
LetterboxInBreaks: 0
WidescreenStoryboard: 1

[Editor]
Bookmarks: 13121,24156,46225,68294,73121,90363,112432,122776,145535
DistanceSpacing: 0.8
BeatDivisor: 4
GridSize: 8
TimelineZoom: 1

[Metadata]
Title:The Mother We Share
TitleUnicode:The Mother We Share
Artist:CHVRCHES
ArtistUnicode:CHVRCHES
Creator:Mashley
Version:Medium
Source:
Tags:churches synthpop
BeatmapID:453025
BeatmapSetID:185673

[Difficulty]
HPDrainRate:5
CircleSize:3.4
OverallDifficulty:4
ApproachRate:6
SliderMultiplier:1.1
SliderTickRate:2

[Events]
//Background and Video events
0,0,"piccit_chvrches_tour_logo_1920x1080_340193163.png",0,0
//Break Periods
2,68493,72760
//Storyboard Layer 0 (Background)
//Storyboard Layer 1 (Fail)
//Storyboard Layer 2 (Pass)
//Storyboard Layer 3 (Foreground)
//Storyboard Layer 4 (Overlay)
//Storyboard Sound Samples

[TimingPoints]
7604,344.827586206897,4,2,0,60,1,0
7776,-100,4,2,0,60,0,0
13121,-100,4,2,0,75,0,0
46225,-100,4,2,0,75,0,1
68294,-100,4,2,0,75,0,0
90363,-100,4,2,0,75,0,1
112432,-100,4,2,0,75,0,0
145535,-100,4,2,0,75,0,1
186914,-100,4,2,0,75,0,0

[Colours]
Combo1 : 140,46,160
Combo2 : 218,68,61
Combo3 : 39,136,233
Combo4 : 232,225,102

[HitObjects]
256,28,7948,5,4,0:0:0:0:
128,60,8466,2,2,P|64:112|48:196,1,165,2|0,0:0|0:0,0:0:0:0:
72,320,9500,1,0,0:0:0:0:
72,320,9672,2,0,P|112:288|112:216,1,110,0|2,0:0|0:0,0:0:0:0:
256,356,10707,5,4,0:0:0:0:
384,324,11225,2,2,P|448:272|464:188,1,165,2|0,0:0|0:0,0:0:0:0:
440,64,12259,1,0,0:0:0:0:
440,64,12431,1,12,1:0:0:0:
388,136,12776,1,12,1:0:0:0:
316,84,13121,6,0,P|244:44|156:72,1,165,4|0,1:0|0:0,0:0:0:0:
88,24,13983,2,2,P|48:96|64:180,1,165
28,304,15017,1,0,0:0:0:0:
28,304,15190,1,0,0:0:0:0:
104,344,15535,1,2,0:0:0:0:
96,256,15879,6,0,P|128:192|220:176,1,165,4|0,1:0|0:0,0:0:0:0:
292,132,16741,1,2,0:0:0:0:
292,132,16913,1,2,0:0:0:0:
296,220,17259,2,0,P|376:288|480:240,1,220,0|8,0:0|1:0,0:0:0:0:
344,352,18638,6,0,P|352:272|420:204,1,165,4|0,1:0|0:0,0:0:0:0:
488,176,19500,1,2,0:0:0:0:
488,176,19672,1,2,0:0:0:0:
468,92,20017,2,0,P|404:24|288:48,1,220,0|8,1:0|1:0,0:0:0:0:
204,32,21052,1,2,0:0:0:0:
132,84,21397,1,4,1:0:0:0:
256,192,21483,12,4,23466,0:0:0:0:
324,344,24155,5,4,1:0:0:0:
484,268,24845,1,8,1:0:0:0:
364,216,25362,2,0,P|328:172|320:116,1,110,0|0,1:0|1:0,0:0:0:0:
220,32,26224,5,8,1:0:0:0:
132,16,26569,1,2,0:0:0:0:
56,64,26914,2,0,P|28:148|140:216,1,220,0|8,1:0|1:0,0:0:0:0:
80,344,28121,5,0,1:0:0:0:
80,344,28466,1,0,1:0:0:0:
180,260,28983,2,0,P|256:224|388:256,1,220,8|4,1:0|1:0,0:0:0:0:
448,88,30362,1,8,1:0:0:0:
316,108,30879,6,0,P|268:68|200:68,1,110,0|0,1:0|1:0,0:0:0:0:
96,96,31741,1,8,1:0:0:0:
96,96,31914,2,0,P|132:160|80:248,1,165,0|4,0:0|1:2,0:0:0:0:
232,352,33121,5,8,1:0:0:0:
336,272,33638,2,0,P|316:196|268:176,1,110,0|0,1:0|1:0,0:0:0:0:
380,80,34500,1,8,1:0:0:0:
312,28,34845,1,0,0:0:0:0:
228,56,35190,6,0,P|148:44|48:148,1,220,4|8,1:0|1:0,0:0:0:0:
28,264,36397,1,0,1:0:0:0:
28,264,36741,1,0,1:0:0:0:
148,204,37259,2,0,P|200:232|220:288,1,110,8|2,1:0|0:0,0:0:0:0:
236,364,37948,1,0,1:0:0:0:
236,364,38293,1,0,1:0:0:0:
308,312,38638,2,0,P|384:312|424:236,1,165,8|0,1:0|1:0,0:0:0:0:
500,200,39500,1,8,0:0:0:0:
500,200,39672,1,0,1:0:0:0:
424,152,40017,1,8,1:0:0:0:
292,36,40707,6,0,P|248:88|324:216,1,220,4|8,1:0|1:0,0:0:0:0:
420,276,41914,1,0,1:0:0:0:
348,328,42259,1,0,1:0:0:0:
216,304,42776,1,8,0:0:0:0:
216,304,42948,2,0,P|108:320|72:276,1,165,0|4,0:0|1:0,0:0:0:0:
256,192,43638,12,4,45535,0:0:0:0:
388,56,46224,6,0,P|440:88|452:148,1,110,4|0,1:0|0:0,0:0:0:0:
468,220,46914,1,8,1:0:0:0:
420,292,47259,1,0,0:0:0:0:
336,272,47604,1,0,1:0:0:0:
336,272,47776,2,2,P|283:261|250:218,2,110,2|2|0,0:0|0:0|0:0,0:0:0:0:
276,336,48810,6,0,P|148:352|64:224,1,275,4|8,1:0|1:0,0:0:0:0:
88,160,50017,1,0,0:0:0:0:
88,160,50190,1,2,0:0:0:0:
176,16,50707,5,0,1:0:0:0:
244,72,51052,1,8,1:0:0:0:
324,32,51397,1,0,0:0:0:0:
324,32,51569,2,0,P|412:56|456:132,1,165,4|2,0:0|0:0,0:0:0:0:
392,180,52431,1,12,1:0:0:0:
412,264,52776,1,0,0:0:0:0:
344,320,53121,1,0,0:0:0:0:
344,320,53293,2,2,P|304:272|312:224,2,110,2|2|0,0:0|0:0|0:0,0:0:0:0:
76,340,54500,5,4,1:0:0:0:
40,260,54845,1,0,0:0:0:0:
128,268,55190,2,0,P|180:208|124:88,1,220,8|0,1:0|0:0,0:0:0:0:
48,60,56224,1,0,1:0:0:0:
4,136,56569,1,8,1:0:0:0:
200,24,57259,6,0,P|296:12|388:104,1,220,4|8,1:0|1:0,0:0:0:0:
460,128,58293,1,0,0:0:0:0:
444,216,58638,1,0,0:0:0:0:
444,216,58810,2,0,P|448:268|420:328,2,110,2|2|0,0:0|0:0|0:0,0:0:0:0:
360,188,59845,6,0,P|284:160|216:224,1,165,4|0,1:0|0:0,0:0:0:0:
188,288,60707,1,8,1:0:0:0:
100,276,61052,1,0,0:0:0:0:
100,276,61224,1,2,0:0:0:0:
20,172,61741,2,0,P|40:128|96:108,1,110,0|8,1:0|1:0,0:0:0:0:
184,124,62431,5,0,0:0:0:0:
184,124,62604,2,0,P|264:144|316:80,1,165,4|2,1:0|0:0,0:0:0:0:
372,24,63466,1,8,1:0:0:0:
452,56,63810,1,0,0:0:0:0:
460,144,64155,1,0,0:0:0:0:
460,144,64328,2,0,P|452:220|416:244,2,110,2|2|0,0:0|0:0|0:0,0:0:0:0:
256,192,65190,12,4,68293,1:0:0:0:
476,44,73810,5,0,0:0:0:0:
413,106,74155,1,0,0:0:0:0:
472,176,74500,2,0,B|456:248|408:280|344:240,1,165
280,200,75362,1,0,0:0:0:0:
248,288,75707,1,0,0:0:0:0:
248,288,75879,1,0,0:0:0:0:
184,344,76224,5,0,0:0:0:0:
104,304,76569,2,0,B|48:280|32:200|64:160,1,165
104,160,77259,2,0,P|128:200|192:208,1,110
232,200,77776,2,0,P|296:208|328:264,2,110
64,56,79328,5,0,0:0:0:0:
64,144,79673,1,0,0:0:0:0:
144,104,80017,2,0,P|264:56|424:176,1,330
472,232,81397,1,0,0:0:0:0:
432,312,81741,5,0,0:0:0:0:
360,360,82086,1,0,0:0:0:0:
312,288,82431,1,0,0:0:0:0:
240,336,82776,2,0,P|168:336|104:256,1,165
24,240,83638,1,0,0:0:0:0:
24,240,83810,1,0,0:0:0:0:
96,184,84155,1,0,0:0:0:0:
232,72,84845,6,0,P|376:40|456:104,1,247.5
480,200,86052,1,0,0:0:0:0:
440,280,86397,1,0,0:0:0:0:
440,280,86569,1,0,0:0:0:0:
352,280,86914,1,0,0:0:0:0:
256,192,87604,12,0,89672,0:0:0:0:
