osu file format v14

[General]
AudioFilename: audio.mp3
AudioLeadIn: 0
PreviewTime: 132532
Countdown: 0
SampleSet: Soft
StackLeniency: 0.4
Mode: 0
LetterboxInBreaks: 0
WidescreenStoryboard: 1

[Editor]
DistanceSpacing: 0.9
BeatDivisor: 2
GridSize: 16
TimelineZoom: 0.7999998

[Metadata]
Title:Demente
TitleUnicode:Demente
Artist:CHUNG HA x Guaynaa
ArtistUnicode:청하 x Guaynaa
Creator:Hari
Version:Normal
Source:
Tags:ChungHa Spanish español espanol querencia Pop Korean K-Pop Kpop 88Rising Insane Love
BeatmapID:2910514
BeatmapSetID:1410859

[Difficulty]
HPDrainRate:3
CircleSize:3
OverallDifficulty:4
ApproachRate:4.5
SliderMultiplier:1
SliderTickRate:1

[Events]
//Background and Video events
0,0,"bgnew.jpg",0,0
//Break Periods
2,26607,27847
2,65007,68647
//Storyboard Layer 0 (Background)
//Storyboard Layer 1 (Fail)
//Storyboard Layer 2 (Pass)
//Storyboard Layer 3 (Foreground)
//Storyboard Layer 4 (Overlay)
//Storyboard Sound Samples

[TimingPoints]
2707,300,4,2,1,65,1,0
7507,-100,4,2,1,70,0,0
24307,-100,4,2,1,72,0,0
26707,-100,4,2,1,50,0,0
45907,-100,4,2,1,60,0,0
65107,-100,4,2,1,50,0,0
69607,-100,4,2,1,70,0,0
81907,-100,4,2,1,72,0,0
84307,-100,4,2,1,55,0,0
93907,-100,4,2,1,52,0,0
103507,-100,4,2,1,65,0,0
122707,-100,4,2,1,50,0,0
127507,-100,4,2,1,70,0,0
132307,-100,4,2,1,70,0,0
139507,-100,4,2,1,72,0,0
141907,-100,4,2,1,65,0,0
161107,-100,4,2,1,65,0,0

[Colours]
Combo1 : 188,165,125
Combo2 : 128,0,0
Combo3 : 149,74,74
Combo4 : 239,10,15
SliderTrackOverride : 105,105,105
SliderBorder : 244,226,198

[HitObjects]
164,62,2707,6,0,B|217:40|217:40|270:64,1,100,0|10,3:0|1:2,0:0:0:0:
316,124,3307,2,0,P|379:109|442:88,1,100,0|10,3:0|1:2,0:0:0:0:
496,132,3907,2,0,P|521:180|491:233,1,100,0|10,3:0|1:2,0:0:0:0:
282,371,5107,6,0,P|228:358|164:343,1,100,0|10,3:0|1:2,0:0:0:0:
97,370,5707,2,0,P|95:315|168:279,1,100,0|10,3:0|1:2,0:0:0:0:
209,254,6307,2,0,B|235:204|235:204|208:139,1,100,0|10,3:0|1:2,0:0:0:0:
5,22,7507,6,0,P|61:32|114:39,1,100,0|10,3:0|1:2,0:0:0:0:
130,74,7957,1,10,0:3:0:0:
130,74,8107,2,0,P|195:71|216:23,1,100,2|10,3:2|1:2,0:0:0:0:
302,38,8707,2,0,B|353:16|353:16|412:40,1,100,2|10,3:2|1:2,0:0:0:0:
478,65,9307,1,2,3:2:0:0:
454,151,9607,1,10,1:2:0:0:
369,120,9907,1,2,3:2:0:0:
410,248,10357,6,0,P|414:317|357:369,1,150,10|10,0:3|1:2,0:0:0:0:
268,354,11107,2,0,B|203:372|203:372|176:353,2,100,2|10|2,3:2|1:2|3:2,0:0:0:0:
323,283,12007,1,10,1:2:0:0:
283,202,12307,1,2,3:2:0:0:
179,288,12757,6,0,P|130:276|10:235,1,150,10|10,0:3|1:2,0:0:0:0:
11,158,13507,2,0,P|-12:96|33:43,1,100,2|10,3:2|1:2,0:0:0:0:
77,22,14107,2,0,L|204:46,1,100,2|10,3:2|1:2,0:0:0:0:
174,142,14707,6,0,B|286:139|254:76|367:73,1,200,2|8,3:2|0:3,0:0:0:0:
427,17,15607,1,10,1:2:0:0:
492,78,15907,2,0,P|504:139|518:202,2,100,2|10|2,3:2|1:2|3:2,0:0:0:0:
435,249,17107,6,0,P|377:220|317:242,1,100,0|10,3:0|1:2,0:0:0:0:
319,262,17557,1,10,0:3:0:0:
319,262,17707,2,0,L|174:289,1,100,2|10,3:2|1:2,0:0:0:0:
157,344,18307,2,0,P|84:324|90:273,1,100,2|10,3:2|1:2,0:0:0:0:
19,243,18907,1,2,3:2:0:0:
4,154,19207,1,10,1:2:0:0:
79,104,19507,1,0,3:0:0:0:
184,19,19957,6,0,P|263:38|338:47,1,150,10|10,0:3|1:2,0:0:0:0:
396,109,20707,2,0,P|425:53|400:1,2,100,2|10|2,3:2|1:2|3:2,0:0:0:0:
308,131,21607,1,10,1:2:0:0:
366,199,21907,5,2,3:2:0:0:
491,248,22357,2,0,P|484:322|414:355,1,150,10|10,0:3|1:2,0:0:0:0:
332,356,23107,2,0,L|212:331,1,100,2|10,3:0|1:2,0:0:0:0:
244,246,23707,1,2,3:2:0:0:
158,275,24007,1,10,1:2:0:0:
75,307,24307,6,0,P|9:240|51:124,1,200,2|2,3:0|3:0,0:0:0:0:
106,209,25207,1,10,1:2:0:0:
168,144,25507,2,0,P|182:87|193:40,1,100,2|10,3:2|1:2,0:0:0:0:
278,70,26107,2,0,P|266:118|254:167,1,100,10|10,3:2|1:2,0:0:0:0:
131,134,29107,5,2,3:2:0:0:
197,251,29557,2,0,L|359:221,1,150,10|2,0:3|1:2,0:0:0:0:
395,149,30307,2,0,P|439:213|356:312,1,200,2|2,3:2|3:2,0:0:0:0:
293,327,31207,1,2,1:2:0:0:
314,239,31507,1,0,3:0:0:0:
139,283,32107,6,0,P|56:273|43:241,1,100,0|2,3:0|1:2,0:0:0:0:
38,223,32557,1,2,0:0:0:0:
38,223,32707,2,0,P|54:146|65:98,1,100,2|2,3:2|1:2,0:0:0:0:
111,43,33307,2,0,P|179:39|243:31,1,100,2|2,3:2|1:2,0:0:0:0:
282,89,33907,2,0,P|357:91|395:31,1,150,0|10,3:0|0:3,0:0:0:0:
439,24,34507,1,0,3:0:0:0:
504,85,34807,1,2,1:2:0:0:
461,168,35107,6,0,B|453:208|418:229|418:229|442:253|475:359,1,200,2|2,3:2|3:2,0:0:0:0:
381,362,36007,1,2,1:2:0:0:
293,380,36307,1,0,3:0:0:0:
240,307,36607,2,0,P|211:308|181:349,1,50,2|10,1:2|0:3,0:0:0:0:
104,314,37057,2,0,P|80:307|62:290,1,50,10|2,0:3|1:2,0:0:0:0:
44,201,37507,6,0,P|-2:125|82:55,1,200,2|2,3:2|3:2,0:0:0:0:
154,41,38407,1,2,1:2:0:0:
339,68,39007,1,2,1:2:0:0:
339,68,39157,2,0,P|420:46|476:112,1,150,10|2,0:3|1:2,0:0:0:0:
412,157,39907,6,0,P|446:273|448:279,1,100,2|2,3:0|1:2,0:0:0:0:
511,308,40507,1,2,3:0:0:0:
445,369,40807,1,2,1:2:0:0:
268,335,41407,1,2,1:2:0:0:
191,382,41707,2,0,P|121:358|103:299,1,100,0|2,3:0|1:2,0:0:0:0:
83,302,42157,1,2,0:0:0:0:
21,244,42457,5,10,0:3:0:0:
21,244,42607,2,0,P|13:177|64:161,1,100,2|2,1:2|3:0,0:0:0:0:
27,72,43207,1,2,1:2:0:0:
113,47,43507,2,0,B|189:48|166:95|249:97,1,150,2|10,3:2|0:3,0:0:0:0:
288,74,44107,1,0,3:0:0:0:
356,15,44407,1,2,1:2:0:0:
441,41,44707,6,0,P|453:99|478:185,1,150,2|2,3:2|0:0,0:0:0:0:
510,384,45907,2,0,P|469:302|388:330,1,150,2|10,3:2|0:3,0:0:0:0:
382,326,46507,1,0,3:0:0:0:
344,244,46807,6,0,B|279:251|279:251|226:221|226:221|152:237,1,200,2|2,1:2|1:2,0:0:0:0:
106,313,47707,1,2,3:2:0:0:
28,266,48007,1,2,1:2:0:0:
69,186,48307,2,0,B|101:114|101:114|69:91|63:47,1,150,2|10,3:2|0:3,0:0:0:0:
64,10,48907,1,0,3:0:0:0:
150,33,49207,6,0,P|236:49|255:93,1,100,2|2,1:2|3:2,0:0:0:0:
229,143,49807,1,2,1:2:0:0:
317,160,50107,1,2,3:2:0:0:
452,39,50707,2,0,P|491:88|447:137,1,100,2|2,3:2|1:2,0:0:0:0:
458,157,51157,2,0,L|489:273,1,100,10|0,0:3|0:0,0:0:0:0:
478,298,51607,1,2,1:2:0:0:
392,353,51907,6,0,P|315:362|287:317,1,100,0|2,3:0|1:2,0:0:0:0:
272,326,52357,1,8,0:3:0:0:
272,326,52507,1,2,3:2:0:0:
315,247,52807,1,2,1:2:0:0:
274,166,53107,2,0,P|188:185|86:200,1,150,2|10,3:2|0:3,0:0:0:0:
82,203,53707,1,2,3:2:0:0:
16,369,54307,6,0,P|89:356|163:340,1,150,2|8,3:2|0:3,0:0:0:0:
203,360,54907,1,0,3:0:0:0:
262,292,55207,1,0,1:0:0:0:
194,228,55507,2,0,P|135:221|79:218,1,100,2|2,3:2|1:2,0:0:0:0:
51,202,55957,2,0,P|40:133|90:94,1,100,10|0,0:3|0:0,0:0:0:0:
63,66,56407,2,0,P|122:73|178:76,1,100,2|0,1:2|3:0,0:0:0:0:
233,19,57007,5,2,1:2:0:0:
270,100,57307,1,2,3:2:0:0:
358,86,57607,1,2,1:2:0:0:
419,20,57907,2,0,P|446:67|427:143,1,100,2|0,3:2|1:2,0:0:0:0:
461,152,58357,2,0,P|484:224|502:270,1,100,10|8,0:3|0:3,0:0:0:0:
494,292,58807,1,2,1:2:0:0:
420,343,59107,6,0,P|360:312|314:315,2,100,2|2|2,3:0|1:2|3:2,0:0:0:0:
240,356,60307,2,0,P|168:342|106:342,1,100,0|2,3:0|1:2,0:0:0:0:
101,337,60757,1,10,0:3:0:0:
101,337,60907,2,0,P|71:282|99:228,1,100,2|2,3:2|1:2,0:0:0:0:
60,160,61507,6,0,L|34:47,1,100,2|2,3:2|1:2,0:0:0:0:
84,52,61957,1,10,0:3:0:0:
84,52,62107,2,0,P|157:26|188:-20,2,100,2|2|2,3:2|1:2|3:2,0:0:0:0:
139,133,63007,2,0,P|165:176|171:199,1,50,2|10,1:2|0:3,0:0:0:0:
207,188,63307,2,0,P|187:299|190:320,1,100,2|2,3:0|1:2,0:0:0:0:
272,353,63907,6,0,P|352:351|362:298,1,100,2|2,3:2|1:2,0:0:0:0:
396,319,64357,2,0,P|377:273|375:252,1,50,8|0,0:3|3:0,0:0:0:0:
362,184,64807,1,6,1:2:0:0:
298,117,69907,6,0,P|244:93|136:107,1,150,2|10,3:2|0:3,0:0:0:0:
112,114,70507,2,0,B|85:174|85:174|108:223,1,100,2|10,3:2|1:2,0:0:0:0:
37,270,71107,1,2,3:2:0:0:
78,349,71407,1,10,1:2:0:0:
167,356,71707,2,0,P|206:351|242:321,2,50,2|10|10,3:2|0:3|1:2,0:0:0:0:
173,266,72307,6,0,B|190:233|218:224|218:224|183:177|174:118,1,150,2|8,3:2|0:3,0:0:0:0:
212,114,72907,1,8,0:3:0:0:
244,29,73207,1,10,1:2:0:0:
154,39,73507,2,0,L|27:48,1,100,2|10,3:2|1:2,0:0:0:0:
8,124,74107,1,2,3:2:0:0:
47,205,74407,1,10,1:2:0:0:
14,288,74707,6,0,B|76:319|76:319|132:298,1,100,0|10,3:0|1:2,0:0:0:0:
141,281,75157,1,10,0:3:0:0:
141,281,75307,2,0,P|230:307|256:313,1,100,2|10,3:2|1:2,0:0:0:0:
268,224,75907,2,0,P|323:271|313:330,1,100,2|10,3:2|1:2,0:0:0:0:
376,368,76507,1,2,3:2:0:0:
426,293,76807,1,10,1:2:0:0:
473,220,77107,6,0,P|453:165|475:115,1,100,0|10,3:0|1:2,0:0:0:0:
496,95,77557,1,10,0:3:0:0:
496,95,77707,1,0,3:0:0:0:
450,17,78007,1,10,1:2:0:0:
363,42,78307,2,0,P|291:27|236:19,2,100,2|10|2,3:2|1:2|3:2,0:0:0:0:
400,123,79207,1,10,1:2:0:0:
336,189,79507,6,0,L|221:167,1,100,2|10,3:2|1:2,0:0:0:0:
209,135,79957,1,10,0:3:0:0:
209,135,80107,2,0,P|139:109|100:140,1,100,2|10,3:0|1:2,0:0:0:0:
47,65,80707,2,0,P|25:143|59:184,1,100,2|10,3:0|1:2,0:0:0:0:
15,244,81307,1,2,3:2:0:0:
100,361,81907,6,0,P|201:358|209:262,1,200,2|2,3:0|3:0,0:0:0:0:
155,209,82807,1,10,1:2:0:0:
211,139,83107,2,0,P|218:79|229:29,1,100,2|10,3:2|1:2,0:0:0:0:
316,33,83707,1,10,3:2:0:0:
364,206,84307,6,0,P|464:213|512:132,1,200,2|2,0:0|0:0,0:0:0:0:
421,130,85207,1,2,0:0:0:0:
357,66,85507,2,0,P|234:89|227:91,1,100,2|2,0:0|0:0,0:0:0:0:
220,164,86107,1,2,0:0:0:0:
44,163,86707,6,0,P|62:94|117:88,1,100,2|2,3:2|1:2,0:0:0:0:
115,53,87157,1,10,0:3:0:0:
115,53,87307,2,0,P|180:47|242:38,1,100,2|2,3:2|1:2,0:0:0:0:
290,93,87907,1,0,3:0:0:0:
345,21,88207,1,2,1:2:0:0:
431,46,88507,1,2,3:2:0:0:
496,213,89107,6,0,P|502:275|517:326,1,100,2|2,3:2|1:2,0:0:0:0:
421,304,89707,1,2,3:2:0:0:
360,370,90007,2,0,P|299:347|284:343,1,50,2|10,1:2|0:3,0:0:0:0:
268,345,90307,2,0,P|230:300|234:249,1,100,2|2,3:2|1:2,0:0:0:0:
319,266,90907,2,0,P|308:200|297:143,1,100,2|2,3:2|1:2,0:0:0:0:
302,126,91357,5,2,0:0:0:0:
302,126,91507,2,0,P|251:86|192:99,1,100,2|2,3:2|1:2,0:0:0:0:
128,82,92107,1,2,3:2:0:0:
75,16,92407,1,2,1:2:0:0:
0,59,92707,2,0,P|17:122|25:169,1,100,2|2,3:2|1:2,0:0:0:0:
11,245,93307,1,2,3:2:0:0:
165,374,93907,6,0,B|242:367|221:318|299:317,1,150,2|10,3:2|0:3,0:0:0:0:
340,298,94507,1,0,3:0:0:0:
415,352,94807,1,2,1:2:0:0:
493,308,95107,2,0,P|460:247|462:143,1,150,2|10,3:2|0:3,0:0:0:0:
478,128,95707,1,0,3:0:0:0:
480,38,96007,1,2,1:2:0:0:
391,22,96307,6,0,P|319:36|256:45,1,100,2|0,3:2|1:0,0:0:0:0:
247,43,96757,2,0,P|171:-1|126:10,1,100,10|8,0:3|0:3,0:0:0:0:
119,10,97207,1,2,1:2:0:0:
126,99,97507,2,0,P|142:164|144:226,1,100,2|0,3:2|1:0,0:0:0:0:
103,217,97957,2,0,P|89:282|149:316,1,100,10|0,0:3|0:0,0:0:0:0:
125,345,98407,1,2,1:2:0:0:
207,381,98707,5,2,3:2:0:0:
341,374,99157,1,10,0:3:0:0:
435,279,99607,1,2,1:2:0:0:
456,188,99907,2,0,P|424:166|316:205,1,150,2|10,3:2|0:3,0:0:0:0:
279,188,100507,1,2,3:2:0:0:
239,268,100807,1,2,1:2:0:0:
141,260,101107,6,0,P|102:206|121:142,1,100,2|0,3:2|1:0,0:0:0:0:
75,139,101557,2,0,P|58:72|111:59,1,100,10|8,0:3|0:3,0:0:0:0:
114,40,102007,1,2,3:2:0:0:
203,29,102307,2,0,B|225:42|239:71|239:71|279:36|338:35,1,150,2|2,3:2|0:0,0:0:0:0:
485,136,103507,6,0,P|464:210|454:275,1,100,2|10,3:2|1:2,0:0:0:0:
424,259,103957,1,10,0:3:0:0:
424,259,104107,2,0,P|417:339|370:356,1,100,2|10,3:0|1:2,0:0:0:0:
317,351,104707,2,0,P|238:332|197:328,1,100,2|10,3:2|1:2,0:0:0:0:
143,280,105307,1,2,3:2:0:0:
65,325,105607,1,10,1:2:0:0:
13,251,105907,6,0,P|30:181|39:137,1,100,10|10,0:3|1:2,0:0:0:0:
50,110,106357,1,10,0:3:0:0:
50,110,106507,2,0,P|101:81|157:112,1,100,2|10,3:2|1:2,0:0:0:0:
155,181,107107,1,2,3:2:0:0:
241,153,107407,1,10,1:2:0:0:
234,63,107707,1,2,3:2:0:0:
443,36,108307,6,0,P|479:93|444:147,1,100,2|10,3:0|1:2,0:0:0:0:
469,168,108757,1,10,0:3:0:0:
469,168,108907,2,0,P|411:166|353:157,1,100,2|10,3:2|1:2,0:0:0:0:
279,156,109507,2,0,P|229:191|237:244,1,100,2|10,3:2|1:2,0:0:0:0:
184,304,110107,1,2,3:2:0:0:
243,371,110407,1,10,1:2:0:0:
331,348,110707,6,0,P|394:335|437:331,1,100,2|10,3:2|1:2,0:0:0:0:
474,354,111157,1,10,0:3:0:0:
474,354,111307,1,2,3:0:0:0:
504,269,111607,1,10,1:2:0:0:
467,185,111907,2,0,P|451:118|490:68,1,100,2|10,3:2|1:2,0:0:0:0:
508,14,112507,1,2,1:2:0:0:
360,117,113107,6,0,P|284:102|239:89,1,100,2|10,3:0|1:2,0:0:0:0:
232,62,113557,1,10,0:3:0:0:
232,62,113707,2,0,P|157:76|114:42,1,100,2|10,3:0|1:2,0:0:0:0:
56,29,114307,2,0,P|13:77|29:135,1,100,2|10,3:0|1:2,0:0:0:0:
70,179,114907,1,2,3:2:0:0:
15,244,115207,1,10,1:2:0:0:
35,331,115507,6,0,P|117:308|172:297,1,100,2|10,3:0|1:2,0:0:0:0:
179,298,115957,1,10,0:3:0:0:
179,298,116107,2,0,P|217:350|194:415,1,100,2|10,3:0|1:2,0:0:0:0:
304,377,116707,1,2,3:0:0:0:
387,343,117007,1,10,1:2:0:0:
476,344,117307,2,0,P|481:263|439:222,1,100,2|10,3:0|1:2,0:0:0:0:
435,167,117907,6,0,B|425:138|402:122|402:122|437:137|519:142,1,150,2|10,3:0|0:3,0:0:0:0:
510,95,118507,2,0,P|490:25|414:19,1,150,2|10,3:0|0:3,0:0:0:0:
377,26,119107,2,0,L|257:36,1,100,2|10,3:0|1:2,0:0:0:0:
211,95,119707,1,2,3:0:0:0:
176,15,120007,1,10,1:2:0:0:
86,3,120307,6,0,P|86:67|137:102,1,100,2|10,3:0|1:2,0:0:0:0:
153,169,120907,2,0,P|165:222|133:279,1,100,2|10,3:0|1:2,0:0:0:0:
75,210,121507,1,2,3:0:0:0:
187,352,122707,6,0,B|245:367|245:367|300:346,1,100,0|2,3:0|1:2,0:0:0:0:
326,336,123157,1,10,0:3:0:0:
326,336,123307,2,0,L|442:361,1,100,2|2,3:2|1:2,0:0:0:0:
479,286,123907,2,0,P|456:227|446:182,1,100,2|2,3:2|1:2,0:0:0:0:
421,104,124507,1,2,3:0:0:0:
341,145,124807,1,2,1:2:0:0:
278,79,125107,1,2,3:2:0:0:
145,52,125557,6,0,P|69:47|37:121,1,150,10|2,0:3|1:2,0:0:0:0:
15,191,126307,2,0,P|30:221|45:303,2,100,2|2|2,3:0|1:2|3:2,0:0:0:0:
102,169,127207,1,10,1:2:0:0:
150,244,127507,1,2,3:2:0:0:
223,357,127957,6,0,P|293:318|362:337,1,150,10|10,0:3|1:2,0:0:0:0:
448,330,128707,2,0,P|486:261|468:208,1,100,2|10,3:2|1:2,0:0:0:0:
474,153,129307,2,0,L|373:181,1,100,2|10,3:2|1:2,0:0:0:0:
367,90,129907,6,0,P|318:30|217:76,1,200,2|8,3:2|0:3,0:0:0:0:
129,58,130807,1,10,1:2:0:0:
159,142,131107,2,0,P|177:208|138:258,2,100,2|10|2,3:2|1:2|3:2,0:0:0:0:
12,237,132307,6,0,B|-17:185|-17:185|6:135,1,100,0|10,3:0|1:2,0:0:0:0:
26,113,132757,1,10,0:3:0:0:
26,113,132907,2,0,L|11:-1,1,100,2|10,3:2|1:2,0:0:0:0:
102,10,133507,2,0,P|185:19|237:24,1,100,2|10,3:2|1:2,0:0:0:0:
240,101,134107,1,2,3:2:0:0:
329,95,134407,1,10,1:2:0:0:
296,11,134707,1,0,3:0:0:0:
421,59,135157,6,0,P|463:115|454:207,1,150,10|10,0:3|1:2,0:0:0:0:
425,275,135907,2,0,P|366:289|317:254,1,100,2|10,3:2|1:2,0:0:0:0:
306,243,136357,1,10,0:3:0:0:
306,243,136507,2,0,P|212:236|173:226,1,100,2|10,3:2|1:2,0:0:0:0:
155,160,137107,1,2,3:2:0:0:
125,295,137557,6,0,P|161:359|243:355,1,150,10|10,0:3|1:2,0:0:0:0:
320,349,138307,2,0,P|390:359|446:365,1,100,2|10,3:0|1:2,0:0:0:0:
492,309,138907,2,0,L|505:260,2,50,2|10|10,3:2|0:3|1:2,0:0:0:0:
410,270,139507,5,2,3:0:0:0:
442,138,139957,2,0,P|342:120|327:177,1,150,10|10,0:3|1:2,0:0:0:0:
237,148,140707,2,0,B|218:199|218:199|248:254,1,100,2|10,3:2|1:2,0:0:0:0:
312,291,141307,1,10,3:2:0:0:
275,373,141607,1,10,1:2:0:0:
201,321,141907,6,0,P|129:315|80:312,1,100,0|2,3:0|1:2,0:0:0:0:
20,352,142507,1,2,3:0:0:0:
8,265,142807,1,2,1:2:0:0:
30,177,143107,2,0,P|138:155|146:155,1,100,2|2,3:0|1:2,0:0:0:0:
137,65,143707,2,0,P|245:87|253:87,1,100,2|2,3:0|1:2,0:0:0:0:
298,23,144307,1,2,3:0:0:0:
375,133,144757,5,10,0:3:0:0:
284,233,145207,1,2,1:2:0:0:
291,323,145507,2,0,P|312:362|375:371,1,100,2|2,3:0|1:2,0:0:0:0:
396,290,146107,2,0,P|465:279|516:272,1,100,2|2,3:0|1:2,0:0:0:0:
508,185,146707,6,0,P|514:127|469:105,1,100,2|2,3:0|1:2,0:0:0:0:
446,93,147157,1,2,0:3:0:0:
446,93,147307,1,2,3:0:0:0:
368,138,147607,1,2,1:2:0:0:
280,120,147907,2,0,P|204:104|174:98,1,100,2|2,3:0|1:2,0:0:0:0:
166,10,148507,2,0,P|90:26|60:32,1,100,2|2,3:2|1:2,0:0:0:0:
17,105,149107,1,2,3:0:0:0:
103,208,149557,5,10,0:3:0:0:
46,330,150007,1,2,1:2:0:0:
122,379,150307,2,0,P|172:362|227:355,1,100,2|2,3:0|1:2,0:0:0:0:
224,265,150907,2,0,P|271:288|315:322,1,100,2|2,3:2|1:2,0:0:0:0:
385,365,151507,6,0,P|432:332|428:285,1,100,0|2,3:0|1:2,0:0:0:0:
417,256,151957,1,10,0:3:0:0:
417,256,152107,2,0,P|402:188|393:157,1,100,2|2,3:0|1:2,0:0:0:0:
304,142,152707,2,0,P|319:85|353:73,2,100,2|2|2,3:0|1:2|3:0,0:0:0:0:
272,319,153907,6,0,P|206:325|99:328,1,150,2|8,3:0|0:3,0:0:0:0:
30,230,154807,1,2,1:2:0:0:
44,132,155107,2,0,P|28:74|53:35,1,100,2|2,3:0|1:2,0:0:0:0:
135,45,155707,2,0,P|154:89|136:135,1,100,2|2,3:0|1:2,0:0:0:0:
191,206,156307,6,0,B|235:195|274:207|274:207|286:161|329:144,1,150,2|10,3:0|0:3,0:0:0:0:
435,103,157207,1,2,1:2:0:0:
498,167,157507,2,0,P|518:229|480:270,1,100,2|2,3:0|1:2,0:0:0:0:
486,344,158107,1,2,3:2:0:0:
396,332,158407,1,2,1:2:0:0:
314,369,158707,6,0,B|195:325|195:325|168:357|108:358,1,200,2|2,3:0|3:0,0:0:0:0:
126,266,159607,1,2,1:2:0:0:
44,228,159907,2,0,P|20:177|50:113,1,100,2|2,3:0|1:2,0:0:0:0:
79,61,160507,1,2,3:0:0:0:
157,104,160807,1,2,1:2:0:0:
237,64,161107,6,0,B|292:43|292:43|347:67,1,100,0|10,3:0|1:2,0:0:0:0:
408,102,161707,2,0,P|433:155|405:202,1,100,0|10,3:0|1:2,0:0:0:0:
352,251,162307,2,0,L|383:361,1,100,0|10,3:0|1:2,0:0:0:0:
