osu file format v14

[General]
AudioFilename: audio.mp3
AudioLeadIn: 0
PreviewTime: 132532
Countdown: 0
SampleSet: Soft
StackLeniency: 0.4
Mode: 0
LetterboxInBreaks: 0
WidescreenStoryboard: 1

[Editor]
Bookmarks: 2707,7507,26707,45907,65107,69607,84307,103507,122707,126907,132307,141907,161107,163357
DistanceSpacing: 2.1
BeatDivisor: 4
GridSize: 16
TimelineZoom: 2

[Metadata]
Title:Demente
TitleUnicode:Demente
Artist:CHUNG HA x Guaynaa
ArtistUnicode:청하 x Guaynaa
Creator:Hari
Version:Insane
Source:
Tags:ChungHa Spanish español espanol querencia Pop Korean K-Pop Kpop 88Rising Insane Love
BeatmapID:2910389
BeatmapSetID:1410859

[Difficulty]
HPDrainRate:4.6
CircleSize:3.7
OverallDifficulty:7.5
ApproachRate:9
SliderMultiplier:1.4
SliderTickRate:1

[Events]
//Background and Video events
0,0,"bgnew.jpg",0,0
//Break Periods
//Storyboard Layer 0 (Background)
//Storyboard Layer 1 (Fail)
//Storyboard Layer 2 (Pass)
//Storyboard Layer 3 (Foreground)
//Storyboard Layer 4 (Overlay)
//Storyboard Sound Samples

[TimingPoints]
2707,300,4,2,1,65,1,0
7507,-100,4,2,1,70,0,0
24307,-80,4,2,1,72,0,0
26707,-133.333333333333,4,2,1,50,0,0
45907,-117.647058823529,4,2,1,60,0,0
65107,-133.333333333333,4,2,1,50,0,0
69607,-100,4,2,1,70,0,0
81907,-80,4,2,1,72,0,0
84307,-117.647058823529,4,2,1,55,0,0
93907,-133.333333333333,4,2,1,52,0,0
103507,-100,4,2,1,65,0,0
122707,-133.333333333333,4,2,1,50,0,0
127507,-100,4,2,1,70,0,0
139507,-83.3333333333333,4,2,1,72,0,0
141907,-117.647058823529,4,2,1,65,0,0
161107,-100,4,2,1,65,0,0

[Colours]
Combo1 : 188,165,125
Combo2 : 128,0,0
Combo3 : 149,74,74
Combo4 : 239,10,15
SliderTrackOverride : 105,105,105
SliderBorder : 244,226,198

[HitObjects]
16,376,2707,6,0,P|25:313|30:274,1,70,0|8,3:0|0:3,0:0:0:0:
43,191,3007,1,10,1:2:0:0:
43,191,3157,1,8,0:3:0:0:
110,339,3307,2,0,P|119:276|124:237,1,70,0|8,3:0|0:3,0:0:0:0:
139,153,3607,1,10,1:2:0:0:
139,153,3757,1,8,0:3:0:0:
215,278,3907,2,0,P|224:215|229:176,1,70,0|8,3:0|0:3,0:0:0:0:
267,87,4207,5,10,1:2:0:0:
333,222,4357,1,8,0:3:0:0:
399,87,4507,5,8,0:3:0:0:
283,98,4657,1,8,0:3:0:0:
333,199,4807,1,8,0:3:0:0:
382,98,4957,1,8,0:3:0:0:
512,245,5107,6,0,P|452:229|413:217,1,70,0|8,3:0|0:3,0:0:0:0:
386,307,5407,1,10,1:2:0:0:
386,307,5557,1,8,0:3:0:0:
365,155,5707,2,0,P|305:139|266:127,1,70,0|8,3:0|0:3,0:0:0:0:
239,217,6007,1,10,1:2:0:0:
239,217,6157,1,8,0:3:0:0:
243,49,6307,2,0,P|183:33|144:21,1,70,0|8,3:0|0:3,0:0:0:0:
109,121,6607,5,10,1:2:0:0:
81,272,6757,1,8,0:3:0:0:
10,132,6907,5,8,0:3:0:0:
98,134,7057,1,8,0:3:0:0:
77,248,7207,1,8,0:3:0:0:
23,143,7357,1,8,0:3:0:0:
158,225,7507,6,0,P|175:267|191:311,1,70,0|8,3:0|0:3,0:0:0:0:
228,384,7807,1,10,1:2:0:0:
228,384,7957,1,10,0:3:0:0:
266,230,8107,2,0,B|358:228|332:176|424:174,1,140,2|10,3:2|1:2,0:0:0:0:
276,121,8557,1,10,0:3:0:0:
419,268,8707,6,0,P|476:238|471:153,1,140,2|10,3:2|1:2,0:0:0:0:
438,91,9157,1,8,0:3:0:0:
438,91,9307,2,0,P|443:40|450:5,1,70,2|10,3:2|0:3,0:0:0:0:
392,177,9607,1,10,1:2:0:0:
258,27,9907,6,0,B|198:29|198:29|171:43|171:43|103:45,1,140,2|10,3:2|1:2,0:0:0:0:
46,108,10357,1,10,0:3:0:0:
46,108,10507,2,0,B|17:177|17:177|55:243,1,140,0|10,3:0|1:2,0:0:0:0:
124,170,10957,1,2,0:0:0:0:
124,170,11107,2,0,L|226:155,1,70,2|10,3:2|0:3,0:0:0:0:
349,138,11407,5,10,1:2:0:0:
236,88,11557,1,10,0:3:0:0:
250,220,11707,1,2,3:2:0:0:
309,73,11857,1,2,0:0:0:0:
317,204,12007,1,10,1:2:0:0:
479,28,12307,6,0,P|469:79|461:112,1,70,2|8,3:2|0:3,0:0:0:0:
499,254,12607,1,10,1:2:0:0:
499,254,12757,1,10,0:3:0:0:
389,145,12907,2,0,B|313:151|337:203|252:206,1,140,2|10,3:2|1:2,0:0:0:0:
256,108,13357,1,10,0:3:0:0:
181,40,13507,6,0,P|146:98|183:186,1,140,2|10,3:2|1:2,0:0:0:0:
177,338,13957,1,8,0:3:0:0:
177,338,14107,2,0,P|181:300|184:263,1,70,2|10,3:2|0:3,0:0:0:0:
66,177,14407,2,0,P|68:214|73:251,1,70,10|8,1:2|0:3,0:0:0:0:
32,348,14707,5,2,3:2:0:0:
32,348,14857,1,8,0:3:0:0:
168,261,15007,1,8,0:3:0:0:
55,181,15157,1,8,0:3:0:0:
76,274,15307,1,8,0:3:0:0:
124,114,15457,1,8,0:3:0:0:
22,14,15607,6,0,P|38:73|48:109,1,70,10|8,1:2|0:3,0:0:0:0:
173,184,15907,2,0,P|157:243|147:279,1,70,2|8,3:2|0:3,0:0:0:0:
145,82,16207,2,0,P|135:45|125:9,1,70,10|8,1:2|0:3,0:0:0:0:
66,165,16507,2,0,P|50:224|40:260,1,70,2|8,3:2|0:3,0:0:0:0:
255,109,16807,1,10,1:2:0:0:
255,109,16957,1,10,0:3:0:0:
421,222,17107,6,0,B|406:226|373:216|373:216|344:231|344:231|320:224|276:227,1,140,0|10,3:0|1:2,0:0:0:0:
160,332,17557,1,10,0:3:0:0:
160,332,17707,2,0,P|245:320|257:319,1,70,2|8,3:2|0:3,0:0:0:0:
389,311,18007,1,10,1:2:0:0:
302,226,18157,1,10,0:3:0:0:
497,276,18307,6,0,P|514:202|471:140,1,140,2|10,3:2|1:2,0:0:0:0:
403,41,18757,1,8,0:3:0:0:
403,41,18907,2,0,P|445:30|486:20,1,70,2|10,3:2|0:3,0:0:0:0:
373,154,19207,1,10,1:2:0:0:
154,71,19507,6,0,B|59:67|95:15|1:15,1,140,0|10,3:0|1:2,0:0:0:0:
0,187,19957,1,10,0:3:0:0:
0,187,20107,2,0,P|12:134|23:94,1,70,0|8,3:0|0:3,0:0:0:0:
77,275,20407,1,10,1:2:0:0:
157,170,20557,1,10,0:3:0:0:
180,366,20707,5,2,3:2:0:0:
77,275,20857,1,10,0:3:0:0:
253,260,21007,1,10,1:2:0:0:
253,260,21157,1,10,0:3:0:0:
41,165,21307,2,0,P|89:156|132:148,1,70,2|10,3:2|0:3,0:0:0:0:
318,123,21607,1,10,1:2:0:0:
356,368,21907,6,0,B|390:296|390:296|356:219,1,140,2|10,3:2|1:2,0:0:0:0:
432,146,22357,1,10,0:3:0:0:
432,146,22507,2,0,P|448:73|457:47,1,70,2|8,3:0|0:3,0:0:0:0:
318,123,22807,1,10,1:2:0:0:
377,266,22957,1,10,0:3:0:0:
214,185,23107,6,0,P|139:194|52:209,1,140,2|10,3:0|1:2,0:0:0:0:
0,98,23557,1,8,0:3:0:0:
0,98,23707,2,0,P|37:102|81:110,1,70,2|10,3:2|0:3,0:0:0:0:
219,68,24007,1,10,1:2:0:0:
237,330,24307,5,2,3:0:0:0:
237,330,24457,1,2,0:0:0:0:
305,167,24607,1,10,1:2:0:0:
330,338,24757,1,10,0:3:0:0:
212,159,24907,1,2,3:0:0:0:
383,250,25057,1,10,0:3:0:0:
383,250,25207,2,0,P|391:201|396:156,1,87.5,10|2,1:2|0:0,0:0:0:0:
454,9,25507,6,0,P|459:52|466:95,1,87.5,2|10,3:2|0:3,0:0:0:0:
500,247,25807,1,10,1:2:0:0:
500,247,25957,1,10,0:3:0:0:
367,66,26107,2,0,P|323:58|285:81,1,87.5,10|10,3:2|0:3,0:0:0:0:
435,161,26407,1,10,1:2:0:0:
435,161,26557,1,10,0:3:0:0:
256,192,27007,5,2,0:0:0:0:
256,192,27607,1,2,0:0:0:0:
256,192,28207,2,0,P|262:238|266:265,1,52.5000020027161,2|10,0:0|0:3,0:0:0:0:
324,315,28507,2,0,P|318:361|314:388,2,52.5000020027161,2|2|2,0:0|0:0|1:2,0:0:0:0:
507,77,29107,6,0,P|462:52|401:73,1,105.000004005432,2|2,3:2|1:2,0:0:0:0:
331,16,29557,1,10,0:3:0:0:
331,16,29707,2,0,P|282:27|257:33,1,52.5000020027161,2|0,3:2|0:0,0:0:0:0:
198,94,30007,1,2,1:2:0:0:
6,13,30307,6,0,B|26:85|26:85|2:124,1,105.000004005432,2|2,3:2|1:2,0:0:0:0:
32,217,30757,1,10,0:3:0:0:
32,217,30907,1,2,3:2:0:0:
115,155,31057,1,2,0:0:0:0:
45,320,31207,1,2,1:2:0:0:
210,195,31507,5,0,3:0:0:0:
210,195,31657,1,8,0:3:0:0:
127,257,31807,2,0,P|138:295|145:328,1,52.5000020027161,2|8,1:2|0:3,0:0:0:0:
214,371,32107,2,0,B|282:368|265:330|324:330,1,105.000004005432,0|2,3:0|1:2,0:0:0:0:
403,375,32557,1,2,0:0:0:0:
482,327,32707,6,0,P|468:285|464:265,1,52.5000020027161,2|10,3:2|0:3,0:0:0:0:
376,256,33007,2,0,P|361:212|357:191,1,52.5000020027161,2|8,1:2|0:3,0:0:0:0:
419,127,33307,1,2,3:2:0:0:
419,127,33457,1,10,0:3:0:0:
491,202,33607,1,2,1:2:0:0:
503,75,33907,6,0,P|469:42|403:43,1,105.000004005432,0|2,3:0|1:2,0:0:0:0:
329,84,34357,1,10,0:3:0:0:
329,84,34507,2,0,P|267:93|201:106,1,105.000004005432,0|2,3:0|1:2,0:0:0:0:
142,42,34957,1,8,0:3:0:0:
61,80,35107,6,0,B|39:132|39:132|66:183,1,105.000004005432,2|2,3:2|1:2,0:0:0:0:
152,223,35557,1,10,0:3:0:0:
152,223,35707,2,0,P|147:255|139:290,1,52.5000020027161,2|2,3:2|0:0,0:0:0:0:
78,338,36007,1,2,1:2:0:0:
255,270,36307,6,0,P|311:283|327:287,1,52.5000020027161,0|8,3:0|0:3,0:0:0:0:
375,350,36607,1,2,1:2:0:0:
375,350,36757,2,0,P|402:343|429:337,1,52.5000020027161,10|0,0:3|3:0,0:0:0:0:
512,313,37057,1,10,0:3:0:0:
385,238,37207,1,2,1:2:0:0:
505,53,37507,6,0,P|462:42|393:31,1,105.000004005432,2|2,3:2|1:2,0:0:0:0:
304,134,37957,1,10,0:3:0:0:
304,134,38107,2,0,P|330:127|372:120,1,52.5000020027161,2|10,3:2|0:3,0:0:0:0:
291,25,38407,1,2,1:2:0:0:
71,16,38707,6,0,B|91:27|94:53|94:53|68:127,1,105.000004005432,0|2,3:0|1:2,0:0:0:0:
35,213,39157,1,10,0:3:0:0:
35,213,39307,2,0,P|48:260|56:287,2,52.5000020027161,0|10|2,3:0|0:3|1:2,0:0:0:0:
115,332,39907,6,0,P|156:338|203:282,1,105.000004005432,2|2,3:0|1:2,0:0:0:0:
156,205,40357,1,10,0:3:0:0:
301,277,40507,1,2,3:0:0:0:
253,184,40657,1,2,0:0:0:0:
267,379,40807,1,2,1:2:0:0:
395,232,41107,6,0,P|407:270|418:304,1,52.5000020027161,2|8,3:2|0:3,0:0:0:0:
488,347,41407,1,2,1:2:0:0:
488,347,41557,1,8,0:3:0:0:
488,216,41707,2,0,P|462:165|409:153,1,105.000004005432,0|2,3:0|1:2,0:0:0:0:
328,169,42157,5,2,0:0:0:0:
328,169,42307,2,0,P|266:162|254:159,1,52.5000020027161,0|10,3:0|0:3,0:0:0:0:
223,80,42607,2,0,P|195:84|167:85,1,52.5000020027161,2|10,1:2|0:3,0:0:0:0:
48,38,42907,1,2,3:0:0:0:
105,158,43057,1,10,0:3:0:0:
133,0,43207,1,2,1:2:0:0:
21,189,43507,6,0,P|35:245|46:307,1,105.000004005432,2|2,3:2|1:2,0:0:0:0:
108,384,43957,1,10,0:3:0:0:
108,384,44107,1,0,3:0:0:0:
177,218,44407,1,2,1:2:0:0:
274,370,44707,5,2,3:2:0:0:
274,370,44857,1,8,0:3:0:0:
177,218,45157,1,2,0:0:0:0:
159,50,45607,1,6,1:2:0:0:
284,261,45907,6,0,B|363:258|334:212|409:209,1,119.000002269745,2|2,3:2|1:2,0:0:0:0:
459,329,46357,1,10,0:3:0:0:
459,329,46507,2,0,P|467:289|477:252,1,59.5000011348725,0|0,3:0|0:0,0:0:0:0:
481,173,46807,2,0,P|473:133|463:96,1,59.5000011348725,2|8,1:2|0:3,0:0:0:0:
419,0,47107,5,2,3:2:0:0:
373,113,47257,1,8,0:3:0:0:
312,0,47407,1,2,1:2:0:0:
312,0,47557,1,8,0:3:0:0:
162,126,47707,2,0,P|223:109|296:83,1,119.000002269745,2|2,3:2|1:2,0:0:0:0:
104,2,48307,6,0,P|95:32|85:62,1,59.5000011348725,2|8,3:2|0:3,0:0:0:0:
68,160,48607,1,2,1:2:0:0:
68,160,48757,1,10,0:3:0:0:
134,229,48907,2,0,P|144:266|90:342,1,119.000002269745,0|2,3:0|1:2,0:0:0:0:
51,265,49357,1,8,0:3:0:0:
165,135,49507,6,0,P|195:142|226:149,1,59.5000011348725,2|8,3:2|0:3,0:0:0:0:
298,257,49807,2,0,P|266:249|236:242,1,59.5000011348725,2|8,1:2|0:3,0:0:0:0:
326,161,50107,2,0,P|356:168|387:175,1,59.5000011348725,2|0,3:2|0:0,0:0:0:0:
367,329,50407,1,2,1:2:0:0:
490,201,50707,6,0,P|490:149|432:93,1,119.000002269745,2|2,3:2|1:2,0:0:0:0:
350,65,51157,1,10,0:3:0:0:
350,65,51307,2,0,P|285:78|213:86,1,119.000002269745,0|2,3:2|1:2,0:0:0:0:
155,167,51757,1,8,0:3:0:0:
155,167,51907,6,0,P|158:198|165:229,1,59.5000011348725,0|8,3:0|0:3,0:0:0:0:
237,299,52207,2,0,P|233:330|226:361,1,59.5000011348725,2|8,1:2|0:3,0:0:0:0:
339,332,52507,2,0,B|403:336|386:382|456:385,1,119.000002269745,2|2,3:2|1:2,0:0:0:0:
512,197,53107,5,2,3:2:0:0:
512,197,53257,1,8,0:3:0:0:
430,141,53407,2,0,P|387:152|360:157,1,59.5000011348725,2|10,1:2|0:3,0:0:0:0:
317,234,53707,2,0,P|219:200|211:183,1,119.000002269745,2|2,3:2|1:2,0:0:0:0:
151,112,54157,5,8,0:3:0:0:
151,112,54307,2,0,P|111:116|71:118,1,59.5000011348725,2|8,3:2|0:3,0:0:0:0:
26,180,54607,2,0,P|12:218|31:253,2,59.5000011348725,2|8|0,1:2|0:3|3:0,0:0:0:0:
72,311,55207,1,0,1:0:0:0:
6,89,55507,6,0,P|44:33|112:38,1,119.000002269745,2|2,3:2|1:2,0:0:0:0:
185,69,55957,1,10,0:3:0:0:
185,69,56107,2,0,P|234:61|307:31,1,119.000002269745,2|2,3:2|1:2,0:0:0:0:
398,24,56557,1,8,0:3:0:0:
488,3,56707,6,0,P|479:53|477:85,1,59.5000011348725,0|8,3:0|0:3,0:0:0:0:
401,113,57007,2,0,P|410:163|412:195,1,59.5000011348725,2|8,1:2|0:3,0:0:0:0:
508,342,57307,2,0,P|523:299|476:231,1,119.000002269745,2|2,3:2|1:2,0:0:0:0:
369,362,57907,5,2,3:2:0:0:
369,362,58057,1,8,0:3:0:0:
294,300,58207,2,0,P|252:314|215:325,1,59.5000011348725,0|10,1:2|0:3,0:0:0:0:
154,379,58507,2,0,P|96:364|72:299,1,119.000002269745,0|2,3:0|1:2,0:0:0:0:
11,241,58957,1,10,0:3:0:0:
163,233,59107,6,0,P|132:224|101:215,1,59.5000011348725,2|8,3:0|0:3,0:0:0:0:
0,115,59407,2,0,P|30:123|61:132,1,59.5000011348725,2|8,1:2|0:3,0:0:0:0:
185,77,59707,2,0,P|154:68|123:59,1,59.5000011348725,2|0,3:2|0:0,0:0:0:0:
0,24,60007,1,2,1:2:0:0:
208,178,60307,6,0,P|251:156|275:73,1,119.000002269745,0|2,3:0|1:2,0:0:0:0:
351,21,60757,1,10,0:3:0:0:
351,21,60907,2,0,B|399:26|399:26|413:32|413:32|477:41,1,119.000002269745,2|2,3:2|1:2,0:0:0:0:
508,132,61357,5,2,0:0:0:0:
508,132,61507,2,0,L|495:217,1,59.5000011348725,2|8,3:2|0:3,0:0:0:0:
419,235,61807,2,0,L|432:320,1,59.5000011348725,2|10,1:2|0:3,0:0:0:0:
512,384,62107,1,2,3:2:0:0:
400,140,62407,1,2,1:2:0:0:
288,384,62707,6,0,L|206:364,1,59.5000011348725,2|8,3:2|0:3,0:0:0:0:
158,309,63007,1,2,1:2:0:0:
158,309,63157,1,10,0:3:0:0:
82,355,63307,2,0,P|68:322|73:282,1,59.5000011348725,2|10,3:0|0:3,0:0:0:0:
106,230,63607,2,0,P|120:196|115:156,1,59.5000011348725,2|2,1:2|0:0,0:0:0:0:
26,40,63907,6,0,P|28:71|42:100,2,59.5000011348725,2|8|2,3:2|0:3|1:2,0:0:0:0:
132,52,64357,1,8,0:3:0:0:
132,52,64507,1,0,3:0:0:0:
7,196,64807,1,6,1:2:0:0:
218,23,65407,6,0,P|231:73|235:93,1,52.5000020027161,2|2,0:0|0:0,0:0:0:0:
298,121,65707,2,0,P|311:163|270:213,1,105.000004005432,2|2,0:0|0:0,0:0:0:0:
234,283,66157,5,2,0:0:0:0:
234,283,66307,2,0,P|294:292|343:254,1,105.000004005432,2|2,0:0|0:0,0:0:0:0:
512,384,66907,1,2,0:0:0:0:
512,384,67057,1,2,0:0:0:0:
418,327,67207,1,2,0:0:0:0:
512,157,67507,6,0,B|421:156|453:104|348:101,1,157.500006008148,2|2,0:0|0:0,0:0:0:0:
235,206,68407,2,0,P|209:201|183:195,1,52.5000020027161,2|2,0:0|0:0,0:0:0:0:
105,227,68707,6,0,P|79:222|53:216,1,52.5000020027161,2|0,0:0|0:0,0:0:0:0:
0,150,69007,2,0,P|4:124|10:98,1,52.5000020027161,2|2,0:0|0:0,0:0:0:0:
74,35,69307,2,0,P|100:39|126:45,1,52.5000020027161,2|2,0:0|0:0,0:0:0:0:
207,11,69607,1,10,1:2:0:0:
254,193,69907,6,0,P|262:140|270:97,1,70,2|8,3:2|0:3,0:0:0:0:
328,14,70207,1,10,1:2:0:0:
328,14,70357,1,10,0:3:0:0:
512,181,70507,2,0,B|434:178|461:127|365:121,1,140,2|10,3:2|1:2,0:0:0:0:
503,72,70957,1,10,0:3:0:0:
377,225,71107,6,0,P|349:296|402:359,1,140,2|10,3:2|1:2,0:0:0:0:
459,281,71557,1,8,0:3:0:0:
265,268,71707,2,0,P|218:259|167:244,1,70,2|10,3:2|0:3,0:0:0:0:
289,162,72007,1,10,1:2:0:0:
221,378,72307,5,2,3:2:0:0:
221,378,72457,1,8,0:3:0:0:
108,229,72607,1,8,0:3:0:0:
256,272,72757,1,8,0:3:0:0:
78,335,72907,1,8,0:3:0:0:
165,300,73057,1,8,0:3:0:0:
152,131,73207,6,0,P|141:94|132:58,1,70,10|8,1:2|0:3,0:0:0:0:
289,220,73507,2,0,P|280:256|269:292,1,70,2|8,3:2|0:3,0:0:0:0:
256,116,73807,2,0,P|245:79|236:43,1,70,10|8,1:2|0:3,0:0:0:0:
180,241,74107,2,0,P|171:277|160:313,1,70,2|8,3:2|0:3,0:0:0:0:
53,122,74407,1,10,1:2:0:0:
53,122,74557,1,10,0:3:0:0:
263,130,74707,6,0,B|341:127|314:76|410:70,1,140,0|10,3:0|1:2,0:0:0:0:
486,188,75157,1,10,0:3:0:0:
486,188,75307,2,0,P|422:170|386:161,1,70,2|8,3:2|0:3,0:0:0:0:
263,130,75607,1,10,1:2:0:0:
381,55,75757,1,10,0:3:0:0:
324,221,75907,6,0,B|314:246|289:256|289:256|317:294|340:349,1,140,2|10,3:2|1:2,0:0:0:0:
400,270,76357,1,8,0:3:0:0:
239,336,76507,2,0,P|183:322|149:312,1,70,2|10,3:2|0:3,0:0:0:0:
248,166,76807,1,10,1:2:0:0:
58,355,77107,6,0,B|65:323|83:301|83:301|76:258|43:202,1,140,0|10,3:0|1:2,0:0:0:0:
164,227,77557,1,10,0:3:0:0:
164,227,77707,2,0,P|216:210|262:202,1,70,0|8,3:0|0:3,0:0:0:0:
390,217,78007,1,10,1:2:0:0:
253,297,78157,1,10,0:3:0:0:
306,137,78307,5,2,3:2:0:0:
347,308,78457,1,10,0:3:0:0:
398,125,78607,1,10,1:2:0:0:
216,112,78757,1,10,0:3:0:0:
216,112,78907,2,0,P|178:117|141:120,1,70,2|10,3:2|0:3,0:0:0:0:
279,40,79207,1,10,1:2:0:0:
512,0,79507,6,0,P|491:82|484:159,1,140,2|10,3:2|1:2,0:0:0:0:
465,291,79957,1,10,0:3:0:0:
465,291,80107,2,0,P|444:242|341:215,1,140,2|10,3:0|1:2,0:0:0:0:
306,301,80557,1,10,0:3:0:0:
214,259,80707,6,0,P|198:314|218:346,1,70,2|8,3:0|0:3,0:0:0:0:
306,301,81007,1,10,1:2:0:0:
267,147,81157,1,8,0:3:0:0:
267,147,81307,2,0,P|256:108|242:48,1,70,2|10,3:2|0:3,0:0:0:0:
134,184,81607,1,10,1:2:0:0:
0,0,81907,5,2,3:0:0:0:
0,0,82057,1,2,0:0:0:0:
133,180,82207,1,10,1:2:0:0:
134,27,82357,1,10,0:3:0:0:
0,176,82507,1,2,3:0:0:0:
204,96,82657,5,10,0:3:0:0:
204,96,82807,2,0,P|251:103|307:111,1,87.5,10|2,1:2|0:0,0:0:0:0:
454,171,83107,2,0,P|407:178|351:186,1,87.5,2|10,3:2|0:3,0:0:0:0:
218,208,83407,1,10,1:2:0:0:
218,208,83557,1,10,0:3:0:0:
382,93,83707,2,0,P|425:86|468:81,1,87.5,10|10,3:2|0:3,0:0:0:0:
299,263,84007,1,10,1:2:0:0:
202,20,84307,6,0,P|213:80|219:105,1,59.5000011348725,2|2,0:0|0:0,0:0:0:0:
291,120,84607,2,0,P|280:180|274:205,1,59.5000011348725,2|2,0:0|0:0,0:0:0:0:
341,247,84907,2,0,P|351:308|295:357,1,119.000002269745,2|2,0:0|0:0,0:0:0:0:
225,329,85357,1,2,0:0:0:0:
225,329,85507,6,0,P|189:336|152:344,1,59.5000011348725,2|2,0:0|0:0,0:0:0:0:
89,293,85807,2,0,P|57:286|26:279,1,59.5000011348725,2|2,0:0|0:0,0:0:0:0:
0,366,86107,1,2,0:0:0:0:
170,251,86407,1,2,1:2:0:0:
0,65,86707,6,0,P|14:123|23:146,1,59.5000011348725,2|2,3:2|0:0,0:0:0:0:
86,195,87007,1,2,1:2:0:0:
86,195,87157,1,10,0:3:0:0:
110,97,87307,2,0,P|140:87|171:81,1,59.5000011348725,2|2,3:2|0:0,0:0:0:0:
239,17,87607,2,0,P|270:23|300:32,1,59.5000011348725,2|10,1:2|0:3,0:0:0:0:
363,107,87907,6,0,P|420:102|448:32,1,119.000002269745,0|2,3:0|1:2,0:0:0:0:
512,139,88357,1,8,0:3:0:0:
512,139,88507,2,0,P|494:208|491:214,1,59.5000011348725,2|2,3:2|0:0,0:0:0:0:
413,197,88807,2,0,P|431:266|434:272,1,59.5000011348725,2|2,1:2|0:0,0:0:0:0:
491,326,89107,5,2,3:2:0:0:
491,326,89257,1,10,0:3:0:0:
401,343,89407,2,0,P|332:325|326:322,1,59.5000011348725,2|10,1:2|0:3,0:0:0:0:
292,254,89707,2,0,P|254:298|272:373,1,119.000002269745,2|2,3:2|1:2,0:0:0:0:
166,384,90157,5,10,0:3:0:0:
166,384,90307,2,0,P|102:376|39:367,1,119.000002269745,2|2,3:2|1:2,0:0:0:0:
3,276,90757,1,8,0:3:0:0:
111,227,90907,2,0,P|102:259|94:297,1,59.5000011348725,2|10,3:2|0:3,0:0:0:0:
18,129,91207,2,0,P|26:161|35:200,1,59.5000011348725,2|2,1:2|0:0,0:0:0:0:
114,124,91507,5,2,3:2:0:0:
114,124,91657,1,2,0:3:0:0:
60,41,91807,2,0,P|91:33|121:25,1,59.5000011348725,2|10,1:2|0:3,0:0:0:0:
201,79,92107,2,0,P|231:87|263:95,1,59.5000011348725,2|10,3:2|0:3,0:0:0:0:
331,34,92407,2,0,P|353:65|343:107,1,59.5000011348725,2|2,1:2|0:0,0:0:0:0:
315,169,92707,6,0,B|314:196|302:214|302:214|336:237|352:286,1,119.000002269745,2|2,3:2|1:2,0:0:0:0:
408,168,93157,1,8,0:3:0:0:
408,168,93307,1,2,3:2:0:0:
380,365,93607,1,2,1:2:0:0:
220,230,93907,6,0,B|158:227|179:187|104:182,1,105.000004005432,2|0,3:2|1:0,0:0:0:0:
104,282,94357,1,10,0:3:0:0:
104,282,94507,1,0,3:0:0:0:
232,137,94807,1,2,1:2:0:0:
232,137,94957,1,8,0:3:0:0:
51,95,95107,6,0,P|158:77|161:76,1,105.000004005432,2|0,3:2|1:0,0:0:0:0:
220,8,95557,1,10,0:3:0:0:
220,8,95707,2,0,P|247:12|275:16,1,52.5000020027161,0|10,3:0|0:3,0:0:0:0:
337,105,96007,1,2,1:2:0:0:
504,50,96307,2,0,P|523:101|500:151,1,105.000004005432,2|0,3:2|1:0,0:0:0:0:
415,187,96757,1,10,0:3:0:0:
415,187,96907,2,0,L|435:253,1,52.5000020027161,0|8,3:0|0:3,0:0:0:0:
506,302,97207,2,0,L|489:355,1,52.5000020027161,2|8,1:2|0:3,0:0:0:0:
361,316,97507,6,0,P|317:265|271:271,1,105.000004005432,2|0,3:2|1:0,0:0:0:0:
176,218,97957,1,10,0:3:0:0:
176,218,98107,2,0,P|198:275|198:280,1,52.5000020027161,0|0,3:0|0:0,0:0:0:0:
242,384,98407,1,2,1:2:0:0:
10,363,98707,5,2,3:2:0:0:
10,363,98857,1,8,0:3:0:0:
77,315,99007,2,0,P|61:274|58:243,1,52.5000020027161,0|10,1:0|0:3,0:0:0:0:
0,199,99307,2,0,P|25:162|92:154,1,105.000004005432,0|2,3:0|1:2,0:0:0:0:
149,235,99757,5,8,0:3:0:0:
149,235,99907,2,0,P|211:224|273:210,1,105.000004005432,2|0,3:2|1:0,0:0:0:0:
322,133,100357,1,10,0:3:0:0:
322,133,100507,1,2,3:2:0:0:
292,336,100807,1,2,1:2:0:0:
422,138,101107,6,0,P|416:95|362:55,1,105.000004005432,2|0,3:2|1:0,0:0:0:0:
281,46,101557,1,10,0:3:0:0:
281,46,101707,2,0,P|241:52|207:52,1,52.5000020027161,0|8,3:0|0:3,0:0:0:0:
93,0,102007,1,2,3:2:0:0:
322,133,102307,5,2,3:2:0:0:
322,133,102757,1,2,0:0:0:0:
0,322,103207,1,0,1:0:0:0:
269,272,103507,6,0,P|259:226|255:187,1,70,2|10,3:2|0:3,0:0:0:0:
254,6,103807,2,0,P|249:43|240:79,1,70,10|10,1:2|0:3,0:0:0:0:
395,146,104107,2,0,P|357:141|321:132,1,70,2|2,3:0|0:0,0:0:0:0:
103,133,104407,2,0,P|140:137|176:146,1,70,10|2,1:2|0:0,0:0:0:0:
341,51,104707,5,2,3:2:0:0:
341,51,104857,1,8,0:3:0:0:
348,239,105007,1,10,1:2:0:0:
275,141,105157,1,8,0:3:0:0:
406,140,105307,2,0,P|443:136|479:127,1,70,2|2,3:2|0:0,0:0:0:0:
484,13,105607,2,0,P|447:9|411:0,1,70,10|2,1:2|0:0,0:0:0:0:
231,44,105907,5,10,0:3:0:0:
231,44,106057,1,2,0:0:0:0:
137,96,106207,2,0,P|118:57|140:13,1,70,10|10,1:2|0:3,0:0:0:0:
227,145,106507,2,0,P|230:181|210:213,1,70,2|10,3:2|0:3,0:0:0:0:
72,179,106807,2,0,P|35:187|0:199,1,70,10|10,1:2|0:3,0:0:0:0:
148,260,107107,6,0,P|183:248|220:239,1,70,2|10,3:2|0:3,0:0:0:0:
41,305,107407,1,10,1:2:0:0:
41,305,107557,1,10,0:3:0:0:
125,382,107707,1,2,3:2:0:0:
71,189,108007,1,10,1:2:0:0:
250,327,108307,6,0,P|298:318|352:311,1,70,2|10,3:0|0:3,0:0:0:0:
478,373,108607,2,0,P|440:367|404:360,1,70,10|10,1:2|0:3,0:0:0:0:
379,235,108907,2,0,P|415:242|452:247,1,70,2|2,3:2|0:0,0:0:0:0:
324,155,109207,2,0,P|287:162|250:167,1,70,10|10,1:2|0:3,0:0:0:0:
420,143,109507,5,2,3:2:0:0:
420,143,109657,1,8,0:3:0:0:
287,247,109807,1,10,1:2:0:0:
326,68,109957,1,8,0:3:0:0:
326,68,110107,2,0,P|363:61|400:56,1,70,2|2,3:2|0:0,0:0:0:0:
216,69,110407,2,0,P|179:62|142:57,1,70,10|2,1:2|0:0,0:0:0:0:
336,164,110707,5,2,3:2:0:0:
336,164,110857,1,10,0:3:0:0:
226,165,111007,2,0,P|189:158|152:153,1,70,10|10,1:2|0:3,0:0:0:0:
276,256,111307,2,0,P|285:292|251:334,1,70,2|10,3:0|0:3,0:0:0:0:
117,299,111607,2,0,P|154:292|191:287,1,70,10|10,1:2|0:3,0:0:0:0:
374,272,111907,5,2,3:2:0:0:
374,272,112057,1,10,0:3:0:0:
218,357,112207,1,10,1:2:0:0:
278,212,112357,1,10,0:3:0:0:
344,355,112507,1,2,1:2:0:0:
367,173,112807,1,2,3:0:0:0:
512,322,113107,6,0,P|470:315|427:306,1,70,2|10,3:0|0:3,0:0:0:0:
345,194,113407,2,0,P|381:201|418:207,1,70,10|10,1:2|0:3,0:0:0:0:
248,251,113707,2,0,P|230:208|244:162,1,70,2|2,3:0|0:0,0:0:0:0:
331,298,114007,2,0,P|333:334|316:368,1,70,10|10,1:2|0:3,0:0:0:0:
177,333,114307,5,2,3:0:0:0:
177,333,114457,1,8,0:3:0:0:
90,168,114607,1,10,1:2:0:0:
63,286,114757,1,8,0:3:0:0:
205,168,114907,2,0,P|196:124|182:72,1,70,2|10,3:2|0:3,0:0:0:0:
52,86,115207,2,0,P|61:122|68:159,1,70,10|10,1:2|0:3,0:0:0:0:
68,290,115507,5,2,3:0:0:0:
68,290,115657,1,10,0:3:0:0:
218,263,115807,2,0,P|256:254|280:215,1,70,10|10,1:2|0:3,0:0:0:0:
278,66,116107,2,0,P|287:102|294:139,1,70,2|10,3:0|0:3,0:0:0:0:
369,202,116407,1,10,1:2:0:0:
369,202,116557,1,2,0:0:0:0:
361,363,116707,6,0,P|351:326|344:289,1,70,2|10,3:0|0:3,0:0:0:0:
440,268,117007,1,10,1:2:0:0:
440,268,117157,1,10,0:3:0:0:
364,96,117307,2,0,P|397:160|469:173,1,140,2|10,3:0|1:2,0:0:0:0:
452,86,117757,1,2,0:0:0:0:
308,20,117907,6,0,B|294:27|260:26|260:26|235:48|235:48|210:48|169:62,1,140,2|10,3:0|1:2,0:0:0:0:
11,20,118357,1,10,0:3:0:0:
11,20,118507,2,0,P|59:21|91:53,1,70,2|0,3:0|0:0,0:0:0:0:
98,130,118807,2,0,P|112:190|122:223,1,70,10|10,1:2|0:3,0:0:0:0:
223,222,119107,6,0,P|213:185|205:149,1,70,2|10,3:0|0:3,0:0:0:0:
150,303,119407,1,10,1:2:0:0:
150,303,119557,1,10,0:3:0:0:
291,291,119707,2,0,P|321:259|320:215,1,70,2|10,3:0|0:3,0:0:0:0:
315,71,120007,2,0,P|293:101|294:137,1,70,10|2,1:2|0:0,0:0:0:0:
394,161,120307,5,2,3:0:0:0:
394,161,120457,1,10,0:3:0:0:
420,54,120607,2,0,P|469:46|511:37,1,70,10|10,1:2|0:3,0:0:0:0:
315,71,120907,2,0,P|266:63|224:54,1,70,2|10,3:0|0:3,0:0:0:0:
75,19,121207,5,10,1:2:0:0:
75,19,121507,2,0,P|91:81|98:114,1,70,2|8,3:0|0:3,0:0:0:0:
147,167,121807,1,2,1:2:0:0:
147,167,121957,1,8,0:3:0:0:
18,153,122107,1,0,3:0:0:0:
0,377,122407,1,2,1:2:0:0:
130,384,122707,6,0,B|195:381|179:344|236:344,1,105.000004005432,0|2,3:0|1:2,0:0:0:0:
295,289,123157,1,10,0:3:0:0:
295,289,123307,2,0,P|334:297|362:302,1,52.5000020027161,2|0,3:2|0:0,0:0:0:0:
395,373,123607,1,2,1:2:0:0:
480,341,123757,1,2,0:0:0:0:
426,271,123907,6,0,P|430:245|436:219,1,52.5000020027161,2|8,3:2|0:3,0:0:0:0:
508,173,124207,2,0,P|504:147|498:121,1,52.5000020027161,2|10,1:2|0:3,0:0:0:0:
431,65,124507,2,0,P|417:26|432:-4,2,52.5000020027161,2|10|2,3:0|0:3|1:2,0:0:0:0:
357,174,125107,6,0,P|300:156|247:143,1,105.000004005432,2|0,3:2|1:0,0:0:0:0:
199,73,125557,1,10,0:3:0:0:
199,73,125707,2,0,P|165:107|173:175,1,105.000004005432,0|2,3:0|1:2,0:0:0:0:
225,232,126157,1,10,0:3:0:0:
225,232,126307,6,0,P|211:268|200:295,1,52.5000020027161,2|10,3:0|0:3,0:0:0:0:
226,376,126607,1,2,1:2:0:0:
226,376,126757,1,10,0:3:0:0:
127,328,126907,2,0,P|102:318|78:308,1,52.5000020027161,2|2,3:2|0:0,0:0:0:0:
303,309,127207,1,10,1:2:0:0:
36,228,127507,6,0,P|47:187|62:129,1,70,2|8,3:2|0:3,0:0:0:0:
99,15,127807,1,10,1:2:0:0:
99,15,127957,1,10,0:3:0:0:
147,217,128107,2,0,B|218:215|199:265|273:269,1,140,2|10,3:2|1:2,0:0:0:0:
347,156,128557,5,10,0:3:0:0:
347,156,128707,2,0,L|251:180,1,70,2|8,3:2|0:3,0:0:0:0:
152,293,129007,1,10,1:2:0:0:
152,293,129157,1,8,0:3:0:0:
184,151,129307,1,2,3:2:0:0:
236,302,129457,1,10,0:3:0:0:
106,203,129607,1,10,1:2:0:0:
294,62,129907,5,2,3:2:0:0:
294,62,130057,1,8,0:3:0:0:
225,218,130207,1,8,0:3:0:0:
195,10,130357,1,8,0:3:0:0:
126,166,130507,1,8,0:3:0:0:
319,165,130657,1,8,0:3:0:0:
191,23,130807,6,0,P|128:15|94:10,1,70,10|8,1:2|0:3,0:0:0:0:
252,102,131107,2,0,P|285:68|282:15,1,70,2|8,3:2|0:3,0:0:0:0:
159,116,131407,2,0,P|151:179|146:213,1,70,10|8,1:2|0:3,0:0:0:0:
249,261,131707,2,0,P|244:226|240:191,1,70,2|8,3:2|0:3,0:0:0:0:
141,305,132007,1,10,1:2:0:0:
141,305,132157,1,10,0:3:0:0:
347,207,132307,6,0,B|403:192|403:192|436:200|436:200|494:186,1,140,0|10,3:0|1:2,0:0:0:0:
452,36,132757,1,10,0:3:0:0:
452,36,132907,2,0,L|430:128,1,70,2|8,3:2|0:3,0:0:0:0:
401,286,133207,1,10,1:2:0:0:
336,161,133357,1,10,0:3:0:0:
499,269,133507,6,0,P|497:343|429:389,1,140,2|10,3:2|1:2,0:0:0:0:
280,378,133957,1,8,0:3:0:0:
280,378,134107,2,0,P|329:371|377:365,1,70,2|10,3:2|0:3,0:0:0:0:
488,263,134407,1,10,1:2:0:0:
216,275,134707,6,0,B|142:271|169:220|91:217,1,140,0|10,3:0|1:2,0:0:0:0:
18,321,135157,1,10,0:3:0:0:
18,321,135307,2,0,P|63:311|112:303,1,70,0|8,3:0|0:3,0:0:0:0:
223,182,135607,1,10,1:2:0:0:
204,341,135757,1,10,0:3:0:0:
129,178,135907,5,2,3:2:0:0:
261,272,136057,1,10,0:3:0:0:
256,103,136207,1,10,1:2:0:0:
256,103,136357,1,10,0:3:0:0:
182,257,136507,1,2,3:2:0:0:
322,186,136657,1,10,0:3:0:0:
157,96,136807,1,10,1:2:0:0:
436,6,137107,6,0,B|427:27|404:30|404:30|428:61|452:134,1,140,2|10,3:2|1:2,0:0:0:0:
433,294,137557,1,10,0:3:0:0:
433,294,137707,2,0,P|442:237|453:195,1,70,2|8,3:0|0:3,0:0:0:0:
328,91,138007,1,10,1:2:0:0:
328,91,138157,1,10,0:3:0:0:
298,248,138307,6,0,B|273:255|243:248|243:248|218:268|218:268|186:257|147:270,1,140,2|10,3:0|1:2,0:0:0:0:
25,330,138757,1,8,0:3:0:0:
25,330,138907,2,0,P|73:338|120:344,1,70,2|10,3:2|0:3,0:0:0:0:
236,364,139207,1,10,1:2:0:0:
67,233,139507,5,2,3:0:0:0:
67,233,139657,1,2,0:0:0:0:
270,162,139807,1,10,1:2:0:0:
79,133,139957,1,10,0:3:0:0:
258,262,140107,1,2,3:0:0:0:
178,108,140257,1,10,0:3:0:0:
178,108,140407,2,0,P|162:50|197:14,1,83.9999974365235,10|2,1:2|0:0,0:0:0:0:
356,61,140707,6,0,P|287:71|251:75,1,83.9999974365235,2|10,3:2|0:3,0:0:0:0:
178,207,141007,1,10,1:2:0:0:
178,207,141157,1,10,0:3:0:0:
270,162,141307,2,0,P|311:156|353:150,1,83.9999974365235,10|10,3:2|0:3,0:0:0:0:
435,25,141607,1,10,1:2:0:0:
442,294,141907,6,0,P|434:242|432:212,1,59.5000011348725,0|2,3:0|0:0,0:0:0:0:
491,159,142207,1,2,1:2:0:0:
491,159,142357,1,10,0:3:0:0:
415,105,142507,2,0,P|345:128|289:135,1,119.000002269745,2|2,3:0|1:2,0:0:0:0:
244,64,142957,1,8,0:3:0:0:
164,8,143107,6,0,P|139:59|166:129,1,119.000002269745,2|2,3:0|1:2,0:0:0:0:
221,181,143557,1,10,0:3:0:0:
221,181,143707,2,0,P|206:223|197:248,1,59.5000011348725,2|10,3:0|0:3,0:0:0:0:
241,319,144007,1,2,1:2:0:0:
93,384,144307,6,0,P|82:355|72:327,1,59.5000011348725,2|8,3:0|0:3,0:0:0:0:
4,266,144607,1,2,1:2:0:0:
4,266,144757,1,10,0:3:0:0:
61,197,144907,2,0,P|74:153|30:71,1,119.000002269745,2|2,3:2|1:2,0:0:0:0:
109,25,145357,5,2,0:0:0:0:
109,25,145507,2,0,P|161:35|193:39,1,59.5000011348725,2|2,3:0|0:0,0:0:0:0:
222,99,145807,2,0,P|274:109|306:113,1,59.5000011348725,2|10,1:2|0:3,0:0:0:0:
359,50,146107,1,2,3:0:0:0:
359,50,146257,1,2,0:0:0:0:
309,205,146407,1,2,1:2:0:0:
476,78,146707,6,0,P|477:128|489:208,1,119.000002269745,2|2,3:0|1:2,0:0:0:0:
425,269,147157,1,2,0:3:0:0:
425,269,147307,2,0,P|424:299|417:348,1,59.5000011348725,2|2,3:0|0:3,0:0:0:0:
339,378,147607,1,2,1:2:0:0:
339,378,147757,1,10,0:3:0:0:
257,321,147907,6,0,P|210:290|142:321,1,119.000002269745,2|2,3:0|1:2,0:0:0:0:
86,372,148357,1,10,0:3:0:0:
86,372,148507,2,0,P|63:326|71:296,1,59.5000011348725,2|8,3:2|0:3,0:0:0:0:
97,237,148807,1,2,1:2:0:0:
9,85,149107,6,0,B|72:50|72:50|119:71,1,119.000002269745,2|2,3:0|1:2,0:0:0:0:
191,130,149557,1,10,0:3:0:0:
191,130,149707,2,0,P|231:121|264:113,1,59.5000011348725,0|8,3:0|0:3,0:0:0:0:
309,43,150007,1,2,1:2:0:0:
492,22,150307,6,0,P|486:71|482:97,1,59.5000011348725,2|8,3:0|0:3,0:0:0:0:
421,138,150607,2,0,P|415:187|411:213,1,59.5000011348725,2|8,1:2|0:3,0:0:0:0:
347,255,150907,2,0,P|341:304|337:330,1,59.5000011348725,2|8,3:2|0:3,0:0:0:0:
272,371,151207,1,2,1:2:0:0:
272,371,151357,1,8,0:3:0:0:
176,287,151507,6,0,P|106:277|52:270,1,119.000002269745,0|2,3:0|1:2,0:0:0:0:
5,181,151957,1,10,0:3:0:0:
5,181,152107,2,0,P|61:142|115:177,1,119.000002269745,2|2,3:0|1:2,0:0:0:0:
178,211,152557,5,10,0:3:0:0:
178,211,152707,2,0,B|202:172|202:172|174:85,1,119.000002269745,2|2,3:0|1:2,0:0:0:0:
225,23,153157,1,8,0:3:0:0:
225,23,153307,1,2,3:0:0:0:
36,53,153607,1,2,1:2:0:0:
272,102,153907,6,0,P|334:97|346:29,1,119.000002269745,2|2,3:0|1:2,0:0:0:0:
449,17,154357,1,8,0:3:0:0:
449,17,154507,2,0,P|454:64|475:155,1,119.000002269745,2|2,3:0|1:2,0:0:0:0:
387,184,154957,5,10,0:3:0:0:
387,184,155107,2,0,P|384:210|372:263,1,59.5000011348725,2|2,3:0|0:2,0:0:0:0:
472,235,155407,2,0,P|474:261|486:314,1,59.5000011348725,2|10,1:2|0:3,0:0:0:0:
397,338,155707,1,2,3:0:0:0:
397,338,155857,1,10,0:3:0:0:
291,250,156007,1,2,1:2:0:0:
262,384,156307,6,0,B|190:376|222:333|146:324,1,119.000002269745,2|2,3:0|1:2,0:0:0:0:
72,357,156757,1,10,0:3:0:0:
72,357,156907,2,0,P|59:327|101:258,1,119.000002269745,0|2,3:0|1:2,0:0:0:0:
185,237,157357,1,10,0:3:0:0:
185,237,157507,2,0,B|208:188|208:188|176:102,1,119.000002269745,2|2,3:0|1:2,0:0:0:0:
107,178,157957,1,8,0:3:0:0:
107,178,158107,1,2,3:2:0:0:
94,16,158407,1,2,1:2:0:0:
282,140,158707,6,0,P|331:135|362:130,1,59.5000011348725,2|10,3:0|0:3,0:0:0:0:
417,75,159007,1,0,1:0:0:0:
417,75,159157,1,10,0:3:0:0:
429,168,159307,2,0,B|449:223|449:223|421:277,1,119.000002269745,2|2,3:0|1:2,0:0:0:0:
364,343,159757,5,8,0:3:0:0:
364,343,159907,2,0,P|281:330|279:330,1,59.5000011348725,2|10,3:0|0:3,0:0:0:0:
253,260,160207,2,0,P|170:247|168:247,1,59.5000011348725,2|10,1:2|0:3,0:0:0:0:
62,189,160507,2,0,P|145:176|147:176,1,59.5000011348725,2|10,3:0|0:3,0:0:0:0:
172,100,160807,2,0,P|255:87|257:87,1,59.5000011348725,2|10,1:2|0:3,0:0:0:0:
331,89,161107,6,0,P|331:124|312:153,1,70,0|8,3:0|0:3,0:0:0:0:
255,234,161407,1,10,1:2:0:0:
255,234,161557,1,8,0:3:0:0:
261,341,161707,2,0,P|226:340|197:321,1,70,0|8,3:0|0:3,0:0:0:0:
116,263,162007,1,10,1:2:0:0:
116,263,162157,1,8,0:3:0:0:
45,334,162307,2,0,P|21:309|14:275,1,70,0|8,3:0|0:3,0:0:0:0:
52,166,162607,5,10,1:2:0:0:
120,52,162757,1,8,0:3:0:0:
173,191,162907,5,8,0:3:0:0:
67,158,163057,1,8,0:3:0:0:
118,73,163207,1,8,0:3:0:0:
158,177,163357,1,8,0:3:0:0:
