osu file format v14

[General]
AudioFilename: audio.mp3
AudioLeadIn: 0
PreviewTime: 132532
Countdown: 0
SampleSet: Soft
StackLeniency: 0.4
Mode: 0
LetterboxInBreaks: 0
WidescreenStoryboard: 1

[Editor]
Bookmarks: 2707,7507,26707,45907,65107,69607,84307,103507,122707,132307,141907,161107,163357
DistanceSpacing: 2.1
BeatDivisor: 4
GridSize: 16
TimelineZoom: 3.599998

[Metadata]
Title:Demente
TitleUnicode:Demente
Artist:CHUNG HA x Guaynaa
ArtistUnicode:청하 x Guaynaa
Creator:Hari
Version:Amor Demente
Source:
Tags:ChungHa Spanish español espanol querencia Pop Korean K-Pop Kpop 88Rising Insane Love
BeatmapID:2908666
BeatmapSetID:1410859

[Difficulty]
HPDrainRate:5
CircleSize:4
OverallDifficulty:8.5
ApproachRate:9.2
SliderMultiplier:1.6
SliderTickRate:1

[Events]
//Background and Video events
0,0,"bgnew.jpg",0,0
//Break Periods
//Storyboard Layer 0 (Background)
//Storyboard Layer 1 (Fail)
//Storyboard Layer 2 (Pass)
//Storyboard Layer 3 (Foreground)
//Storyboard Layer 4 (Overlay)
//Storyboard Sound Samples

[TimingPoints]
2707,300,4,2,1,65,1,0
7507,-100,4,2,1,70,0,0
24307,-80,4,2,1,72,0,0
26707,-133.333333333333,4,2,1,50,0,0
45907,-117.647058823529,4,2,1,60,0,0
65107,-133.333333333333,4,2,1,50,0,0
69607,-100,4,2,1,70,0,0
81907,-80,4,2,1,72,0,0
84307,-117.647058823529,4,2,1,55,0,0
93907,-133.333333333333,4,2,1,52,0,0
103507,-100,4,2,1,65,0,0
122707,-133.333333333333,4,2,1,50,0,0
127507,-100,4,2,1,70,0,0
139507,-80,4,2,1,72,0,0
141907,-117.647058823529,4,2,1,65,0,0
161107,-100,4,2,1,65,0,0

[Colours]
Combo1 : 188,165,125
Combo2 : 128,0,0
Combo3 : 149,74,74
Combo4 : 239,10,15
SliderTrackOverride : 105,105,105
SliderBorder : 244,226,198

[HitObjects]
145,252,2707,6,0,P|193:237|213:191,1,80,0|8,3:0|0:3,0:0:0:0:
134,160,3007,1,10,1:2:0:0:
134,160,3157,1,8,0:3:0:0:
301,203,3307,2,0,P|286:155|240:135,1,80,0|8,3:0|0:3,0:0:0:0:
150,257,3607,1,10,1:2:0:0:
150,257,3757,1,8,0:3:0:0:
251,40,3907,2,0,P|203:55|183:101,1,80,0|8,3:0|0:3,0:0:0:0:
246,293,4207,5,10,1:2:0:0:
134,160,4357,1,8,0:3:0:0:
110,343,4507,5,8,0:3:0:0:
225,286,4657,1,8,0:3:0:0:
141,186,4807,1,8,0:3:0:0:
123,323,4957,1,8,0:3:0:0:
331,323,5107,6,0,P|380:308|416:301,1,80,0|8,3:0|0:3,0:0:0:0:
509,371,5407,1,10,1:2:0:0:
509,371,5557,1,8,0:3:0:0:
483,185,5707,2,0,P|498:234|505:270,1,80,0|8,3:0|0:3,0:0:0:0:
337,325,6007,1,10,1:2:0:0:
337,325,6157,1,8,0:3:0:0:
382,154,6307,2,0,P|343:166|304:174,1,80,0|8,3:0|0:3,0:0:0:0:
145,68,6607,5,10,1:2:0:0:
207,243,6757,1,8,0:3:0:0:
320,62,6907,5,8,0:3:0:0:
164,82,7057,1,8,0:3:0:0:
211,213,7207,1,8,0:3:0:0:
296,77,7357,1,8,0:3:0:0:
72,118,7507,6,0,P|64:80|77:43,1,80,0|8,3:0|0:3,0:0:0:0:
211,213,7807,1,10,1:2:0:0:
164,82,7957,1,10,0:3:0:0:
129,258,8107,2,0,P|106:324|140:384,1,120,2|0,3:2|0:0,0:0:0:0:
201,315,8407,1,10,1:2:0:0:
286,157,8557,1,10,0:3:0:0:
383,273,8707,6,0,P|457:268|486:212,1,120,2|0,3:2|0:0,0:0:0:0:
510,138,9007,2,0,P|438:124|366:105,1,120,10|0,1:2|0:0,0:0:0:0:
307,45,9307,1,2,3:2:0:0:
465,24,9457,1,10,0:3:0:0:
299,55,9607,2,0,P|235:29|185:64,1,120,10|0,1:2|0:0,0:0:0:0:
105,6,9907,6,0,P|81:57|161:144,1,160,2|10,3:2|1:2,0:0:0:0:
309,139,10357,1,10,0:3:0:0:
309,139,10507,2,0,L|230:155,1,80,0|8,3:0|0:3,0:0:0:0:
94,236,10807,1,10,1:2:0:0:
243,262,10957,5,2,0:0:0:0:
243,262,11107,2,0,L|321:278,1,80,2|10,3:2|0:3,0:0:0:0:
427,374,11407,1,10,1:2:0:0:
398,200,11557,1,10,0:3:0:0:
327,379,11707,2,0,L|249:363,1,80,2|2,3:2|0:0,0:0:0:0:
412,287,12007,2,0,P|415:286|431:283,4,20,10|0|0|0|0,1:2|0:0|0:0|0:0|0:0,0:0:0:0:
304,171,12307,6,0,P|293:127|320:85,1,80,2|8,3:2|0:3,0:0:0:0:
321,278,12607,1,10,1:2:0:0:
488,128,12757,1,10,0:3:0:0:
488,128,12907,2,0,B|455:115|455:115|401:145|401:145|368:129,1,120,2|0,3:2|0:0,0:0:0:0:
298,106,13207,2,0,P|251:95|193:80,1,80,10|10,1:2|0:3,0:0:0:0:
67,1,13507,6,0,P|108:50|89:132,1,120,2|0,3:2|0:0,0:0:0:0:
99,220,13807,1,10,1:2:0:0:
16,79,13957,1,8,0:3:0:0:
189,175,14107,2,0,P|179:252|171:282,1,80,2|10,3:2|0:3,0:0:0:0:
7,361,14407,2,0,B|83:353|44:308|123:303,1,120,10|0,1:2|0:0,0:0:0:0:
186,337,14707,6,0,P|225:344|265:347,1,80,2|8,3:2|0:3,0:0:0:0:
409,310,15007,1,8,0:3:0:0:
277,262,15157,1,8,0:3:0:0:
348,383,15307,1,8,0:3:0:0:
362,234,15457,5,8,0:3:0:0:
362,234,15607,2,0,P|356:188|349:123,1,80,10|8,1:2|0:3,0:0:0:0:
421,0,15907,2,0,P|411:77|403:107,1,80,2|8,3:2|0:3,0:0:0:0:
250,66,16207,2,0,P|289:73|329:76,1,80,10|8,1:2|0:3,0:0:0:0:
512,167,16507,2,0,P|472:163|432:156,1,80,2|8,3:2|0:3,0:0:0:0:
256,192,16807,1,10,1:2:0:0:
256,192,16957,1,10,0:3:0:0:
165,3,17107,6,0,P|157:74|76:130,1,160,0|10,3:0|1:2,0:0:0:0:
60,20,17557,1,10,0:3:0:0:
19,179,17707,2,0,P|37:241|57:320,1,120,2|0,3:2|0:0,0:0:0:0:
27,375,18007,1,10,1:2:0:0:
151,255,18157,1,10,0:3:0:0:
234,380,18307,6,0,P|273:347|354:363,1,120,2|0,3:2|0:0,0:0:0:0:
420,337,18607,2,0,P|485:338|483:282,1,120,10|0,1:2|0:0,0:0:0:0:
363,265,18907,1,2,3:2:0:0:
512,184,19057,1,10,0:3:0:0:
351,269,19207,2,0,P|269:256|229:246,1,120,10|0,1:2|0:0,0:0:0:0:
203,146,19507,6,0,P|254:94|339:125,1,160,0|10,3:0|1:2,0:0:0:0:
479,208,19957,1,10,0:3:0:0:
479,208,20107,2,0,P|426:194|385:181,1,80,0|8,3:0|0:3,0:0:0:0:
396,38,20407,1,10,1:2:0:0:
309,213,20557,1,10,0:3:0:0:
268,34,20707,6,0,P|205:26|165:20,1,80,2|10,3:2|0:3,0:0:0:0:
17,9,21007,1,10,1:2:0:0:
175,170,21157,1,10,0:3:0:0:
0,159,21307,1,2,3:2:0:0:
178,29,21457,1,10,0:3:0:0:
11,153,21607,2,0,P|28:226|30:305,1,120,10|0,1:2|0:0,0:0:0:0:
74,354,21907,6,0,P|131:344|154:312,1,80,2|8,3:2|0:3,0:0:0:0:
178,159,22207,1,10,1:2:0:0:
253,314,22357,1,10,0:3:0:0:
253,314,22507,2,0,B|325:320|288:368|388:381,1,120,2|0,3:0|0:0,0:0:0:0:
382,283,22807,2,0,P|429:297|485:311,1,80,10|10,1:2|0:3,0:0:0:0:
500,210,23107,6,0,P|438:171|348:215,1,160,2|10,3:0|1:2,0:0:0:0:
184,239,23557,1,8,0:3:0:0:
184,239,23707,2,0,P|243:226|285:216,1,80,2|10,3:2|0:3,0:0:0:0:
256,118,24007,2,0,B|196:106|196:106|146:146,1,120,10|0,1:2|0:0,0:0:0:0:
41,247,24307,6,0,L|102:227,1,50,2|0,3:0|0:0,0:0:0:0:
32,231,24457,2,0,L|93:211,1,50,2|0,0:0|0:0,0:0:0:0:
23,145,24607,6,0,L|70:129,1,50,10|0,1:2|0:0,0:0:0:0:
14,129,24757,2,0,L|61:113,1,50,10|0,0:3|0:0,0:0:0:0:
163,15,24907,6,0,L|116:31,1,50,2|0,3:0|0:0,0:0:0:0:
172,31,25057,2,0,L|125:47,1,50,10|0,0:3|0:0,0:0:0:0:
197,126,25207,6,0,L|150:142,1,50,10|0,1:2|0:0,0:0:0:0:
206,142,25357,2,0,L|159:158,1,50,2|0,0:0|0:0,0:0:0:0:
280,52,25507,6,0,L|327:68,1,50,2|0,3:2|0:0,0:0:0:0:
271,68,25657,2,0,L|318:84,1,50,10|0,0:3|0:0,0:0:0:0:
315,194,25807,6,0,L|268:210,1,50,10|0,1:2|0:0,0:0:0:0:
324,210,25957,2,0,L|277:226,1,50,10|0,0:3|0:0,0:0:0:0:
136,325,26107,5,10,3:2:0:0:
344,375,26257,1,10,0:3:0:0:
140,310,26407,5,10,1:2:0:0:
348,360,26557,1,10,0:3:0:0:
512,194,27007,5,2,0:0:0:0:
512,194,27607,1,2,0:0:0:0:
456,1,28207,6,0,L|469:78,1,60.0000022888184,2|10,0:0|0:3,0:0:0:0:
512,131,28507,2,0,P|499:177|496:204,2,60.0000022888184,2|2|2,0:0|0:0|1:2,0:0:0:0:
498,345,29107,6,0,B|442:323|442:323|380:348,1,120.000004577637,2|2,3:2|1:2,0:0:0:0:
300,384,29557,1,10,0:3:0:0:
300,384,29707,2,0,P|247:371|168:359,1,120.000004577637,2|2,3:2|1:2,0:0:0:0:
81,346,30157,1,8,0:3:0:0:
146,264,30307,6,0,P|135:215|125:182,1,60.0000022888184,2|8,3:2|0:3,0:0:0:0:
47,115,30607,2,0,P|39:158|55:183,1,60.0000022888184,2|10,1:2|0:3,0:0:0:0:
146,110,30907,2,0,P|195:99|228:89,1,60.0000022888184,2|2,3:2|0:0,0:0:0:0:
38,4,31207,1,2,1:2:0:0:
475,12,31507,6,0,P|464:68|461:95,1,60.0000022888184,0|8,3:0|0:3,0:0:0:0:
397,147,31807,1,2,1:2:0:0:
397,147,31957,1,8,0:3:0:0:
498,166,32107,2,0,P|505:208|465:268,1,90.0000034332277,0|0,3:0|0:0,0:0:0:0:
402,238,32407,2,0,P|319:229|315:229,1,60.0000022888184,2|2,1:2|0:0,0:0:0:0:
245,150,32707,6,0,P|328:141|332:141,1,60.0000022888184,2|10,3:2|0:3,0:0:0:0:
242,251,33007,2,0,P|212:253|182:259,1,60.0000022888184,2|8,1:2|0:3,0:0:0:0:
315,328,33307,1,2,3:2:0:0:
315,328,33457,1,10,0:3:0:0:
242,251,33607,1,2,1:2:0:0:
175,355,33907,6,0,P|103:349|73:296,1,120.000004577637,0|2,3:0|1:2,0:0:0:0:
2,263,34357,1,10,0:3:0:0:
2,263,34507,2,0,B|10:230|36:204|36:204|38:164|2:140,1,120.000004577637,0|2,3:0|1:2,0:0:0:0:
34,66,34957,1,8,0:3:0:0:
107,124,35107,6,0,P|175:112|220:104,1,90.0000034332277,2|0,3:2|0:0,0:0:0:0:
263,61,35407,2,0,P|280:98|273:128,1,60.0000022888184,2|10,1:2|0:3,0:0:0:0:
243,238,35707,2,0,P|227:212|228:182,1,60.0000022888184,2|2,3:2|0:0,0:0:0:0:
317,261,36007,2,0,P|317:269|312:276,4,15.0000005722046,2|0|0|0|8,1:2|0:0|0:0|0:0|0:3,0:0:0:0:
353,180,36307,6,0,P|390:174|440:165,1,60.0000022888184,0|8,3:0|0:3,0:0:0:0:
504,188,36607,1,2,1:2:0:0:
512,101,36757,2,0,P|482:97|453:92,1,60.0000022888184,10|0,0:3|3:0,0:0:0:0:
390,27,37057,1,10,0:3:0:0:
390,27,37207,2,0,P|345:53|299:43,1,90.0000034332277,2|0,1:2|0:0,0:0:0:0:
228,12,37507,6,0,P|215:59|256:119,1,120.000004577637,2|2,3:2|1:2,0:0:0:0:
339,136,37957,1,10,0:3:0:0:
339,136,38107,2,0,P|325:181|317:215,1,60.0000022888184,2|10,3:2|0:3,0:0:0:0:
359,281,38407,1,2,1:2:0:0:
172,319,38707,6,0,B|101:314|136:369|35:357,1,120.000004577637,0|2,3:0|1:2,0:0:0:0:
13,291,39157,1,10,0:3:0:0:
13,291,39307,2,0,L|28:218,1,60.0000022888184,0|10,3:0|0:3,0:0:0:0:
118,227,39607,2,0,P|112:187|66:145,1,90.0000034332277,2|0,1:2|0:0,0:0:0:0:
12,104,39907,6,0,P|45:74|79:74,1,60.0000022888184,2|8,3:0|0:3,0:0:0:0:
197,102,40207,2,0,P|167:104|140:91,1,60.0000022888184,2|10,1:2|0:3,0:0:0:0:
289,81,40507,2,0,B|305:116|280:150,1,60.0000022888184,2|2,3:0|0:0,0:0:0:0:
223,12,40807,1,2,1:2:0:0:
424,22,41107,5,2,3:2:0:0:
424,22,41257,1,8,0:3:0:0:
507,61,41407,2,0,P|500:103|496:136,2,60.0000022888184,2|8|0,1:2|0:3|3:0,0:0:0:0:
433,210,42007,2,0,P|440:252|444:285,1,60.0000022888184,2|2,1:2|0:0,0:0:0:0:
457,359,42307,6,0,P|415:366|382:370,1,60.0000022888184,0|10,3:0|0:3,0:0:0:0:
347,299,42607,1,2,1:2:0:0:
347,299,42757,1,10,0:3:0:0:
245,371,42907,2,0,P|287:378|320:382,1,60.0000022888184,2|10,3:0|0:3,0:0:0:0:
214,276,43207,2,0,P|160:281|124:234,1,90.0000034332277,2|0,1:2|0:0,0:0:0:0:
112,176,43507,6,0,B|172:165|172:165|181:159|181:159|251:148,1,120.000004577637,2|2,3:2|1:2,0:0:0:0:
290,71,43957,1,10,0:3:0:0:
290,71,44107,2,0,L|370:81,1,60.0000022888184,0|8,3:0|0:3,0:0:0:0:
434,25,44407,1,2,1:2:0:0:
365,200,44707,5,2,3:2:0:0:
365,200,44857,1,8,0:3:0:0:
296,25,45157,1,2,0:0:0:0:
364,305,45607,5,6,1:2:0:0:
150,253,45907,6,0,B|221:225|221:225|280:249,1,136.000002593994,2|2,3:2|1:2,0:0:0:0:
221,330,46357,1,10,0:3:0:0:
83,334,46507,2,0,P|52:291|73:196,1,136.000002593994,0|2,3:0|1:2,0:0:0:0:
139,149,46957,5,8,0:3:0:0:
139,149,47107,2,0,L|115:59,1,68.0000012969971,2|8,3:2|0:3,0:0:0:0:
17,49,47407,2,0,L|34:114,1,68.0000012969971,2|8,1:2|0:3,0:0:0:0:
198,28,47707,2,0,B|272:24|248:78|337:71,1,136.000002593994,2|2,3:2|1:2,0:0:0:0:
503,13,48307,6,0,P|496:67|490:94,1,68.0000012969971,2|8,3:2|0:3,0:0:0:0:
409,129,48607,1,2,1:2:0:0:
409,129,48757,1,10,0:3:0:0:
467,208,48907,2,0,P|403:234|340:199,1,136.000002593994,0|2,3:0|1:2,0:0:0:0:
304,113,49357,1,8,0:3:0:0:
186,218,49507,6,0,P|234:202|281:186,1,68.0000012969971,2|8,3:2|0:3,0:0:0:0:
211,101,49807,2,0,P|178:111|146:122,1,68.0000012969971,2|8,1:2|0:3,0:0:0:0:
13,4,50107,2,0,P|36:85|47:145,1,136.000002593994,2|2,3:2|1:2,0:0:0:0:
105,219,50557,1,0,0:0:0:0:
11,344,50707,6,0,P|52:325|90:316,1,68.0000012969971,2|8,3:2|0:3,0:0:0:0:
178,309,51007,1,2,1:2:0:0:
178,309,51157,1,10,0:3:0:0:
255,383,51307,2,0,P|316:373|345:292,1,136.000002593994,0|2,3:2|1:2,0:0:0:0:
265,246,51757,1,8,0:3:0:0:
358,203,51907,6,0,P|434:184|439:182,1,68.0000012969971,0|8,3:0|0:3,0:0:0:0:
510,254,52207,1,2,1:2:0:0:
510,254,52357,1,8,0:3:0:0:
489,106,52507,2,0,P|463:72|370:106,1,136.000002593994,2|2,3:2|1:2,0:0:0:0:
196,172,53107,5,2,3:2:0:0:
196,172,53257,1,8,0:3:0:0:
136,95,53407,2,0,P|145:48|151:2,1,68.0000012969971,2|10,1:2|0:3,0:0:0:0:
58,0,53707,2,0,P|47:67|34:133,1,136.000002593994,2|2,3:2|1:2,0:0:0:0:
63,227,54157,1,8,0:3:0:0:
9,319,54307,5,2,3:2:0:0:
9,319,54457,1,8,0:3:0:0:
114,321,54607,2,0,B|163:333|163:333|196:309,2,68.0000012969971,2|8|0,1:2|0:3|3:0,0:0:0:0:
162,195,55207,1,0,1:0:0:0:
260,348,55507,6,0,P|363:361|412:362,1,136.000002593994,2|2,3:2|1:2,0:0:0:0:
512,370,55957,1,10,0:3:0:0:
512,370,56107,2,0,B|499:344|474:330|474:330|470:283|499:232,1,136.000002593994,2|2,3:2|1:2,0:0:0:0:
422,192,56557,1,8,0:3:0:0:
484,124,56707,6,0,P|493:72|504:28,1,68.0000012969971,0|8,3:0|0:3,0:0:0:0:
415,19,57007,2,0,P|407:52|402:85,1,68.0000012969971,2|8,1:2|0:3,0:0:0:0:
323,154,57307,2,0,B|250:157|274:103|199:110,1,136.000002593994,2|2,3:2|1:2,0:0:0:0:
54,11,57907,5,2,3:2:0:0:
54,11,58057,1,8,0:3:0:0:
121,65,58207,2,0,P|109:111|94:149,1,68.0000012969971,0|10,1:2|0:3,0:0:0:0:
24,181,58507,2,0,P|22:227|99:260,1,136.000002593994,0|2,3:0|1:2,0:0:0:0:
168,201,58957,1,10,0:3:0:0:
235,264,59107,6,0,P|281:252|330:246,1,68.0000012969971,2|8,3:0|0:3,0:0:0:0:
320,147,59407,2,0,P|286:153|253:162,1,68.0000012969971,2|8,1:2|0:3,0:0:0:0:
393,224,59707,2,0,P|449:246|447:330,1,136.000002593994,2|2,3:2|1:2,0:0:0:0:
255,375,60307,6,0,P|202:366|102:358,1,136.000002593994,0|2,3:0|1:2,0:0:0:0:
7,348,60757,1,10,0:3:0:0:
7,348,60907,2,0,P|56:314|59:241,1,136.000002593994,2|2,3:2|1:2,0:0:0:0:
3,172,61357,1,2,0:0:0:0:
3,172,61507,2,0,P|9:113|11:75,1,68.0000012969971,2|8,3:2|0:3,0:0:0:0:
94,93,61807,2,0,P|91:126|87:160,1,68.0000012969971,2|10,1:2|0:3,0:0:0:0:
42,25,62107,1,2,3:2:0:0:
147,232,62407,1,2,1:2:0:0:
252,25,62707,6,0,P|261:72|266:95,1,68.0000012969971,2|8,3:2|0:3,0:0:0:0:
335,147,63007,1,2,1:2:0:0:
335,147,63157,1,10,0:3:0:0:
247,174,63307,2,0,P|213:167|180:160,1,68.0000012969971,2|10,3:0|0:3,0:0:0:0:
316,234,63607,2,0,P|349:227|382:220,1,68.0000012969971,2|2,1:2|0:0,0:0:0:0:
257,304,63907,6,0,P|242:344|260:379,2,68.0000012969971,2|8|2,3:2|0:3|1:2,0:0:0:0:
340,345,64357,1,8,0:3:0:0:
340,345,64507,1,0,3:0:0:0:
256,80,64807,1,6,1:2:0:0:
176,338,65407,6,0,P|100:324|91:323,1,60.0000022888184,2|2,0:0|0:0,0:0:0:0:
46,383,65707,2,0,P|21:342|52:274,1,120.000004577637,2|2,0:0|0:0,0:0:0:0:
123,240,66157,1,2,0:0:0:0:
49,187,66307,2,0,P|39:142|36:51,1,120.000004577637,2|2,0:0|0:0,0:0:0:0:
278,7,66907,1,2,0:0:0:0:
278,7,67057,1,2,0:0:0:0:
373,23,67207,2,0,L|360:101,1,60.0000022888184,2|0,0:0|0:0,0:0:0:0:
314,167,67507,6,0,B|375:201|423:156|423:156|461:154|486:180,1,180.000006866455,2|2,0:0|0:0,0:0:0:0:
511,375,68407,2,0,P|452:365|426:361,1,60.0000022888184,2|2,0:0|0:0,0:0:0:0:
400,296,68707,2,0,P|370:300|340:306,1,60.0000022888184,2|0,0:0|0:0,0:0:0:0:
261,353,69007,2,0,P|245:321|258:286,1,60.0000022888184,2|2,0:0|0:0,0:0:0:0:
296,173,69307,2,0,P|309:206|293:240,1,60.0000022888184,2|2,0:0|0:0,0:0:0:0:
245,101,69607,6,0,P|241:85|248:71,4,20,10|0|0|0|0,1:2|0:0|0:0|0:0|0:0,0:0:0:0:
189,237,69907,5,2,3:2:0:0:
189,237,70057,1,8,0:3:0:0:
336,100,70207,1,10,1:2:0:0:
179,22,70357,1,10,0:3:0:0:
179,22,70507,2,0,P|166:79|143:150,1,120,2|0,3:2|0:0,0:0:0:0:
66,163,70807,2,0,P|47:210|72:252,1,80,10|10,1:2|0:3,0:0:0:0:
192,333,71107,6,0,B|262:333|240:288|315:289,1,120,2|0,3:2|0:0,0:0:0:0:
316,374,71407,1,10,1:2:0:0:
360,220,71557,1,8,0:3:0:0:
440,371,71707,2,0,P|446:305|452:262,1,80,2|10,3:2|0:3,0:0:0:0:
470,147,72007,2,0,P|439:198|365:198,1,120,10|0,1:2|0:0,0:0:0:0:
387,112,72307,5,2,3:2:0:0:
387,112,72457,1,8,0:3:0:0:
300,289,72607,1,8,0:3:0:0:
481,274,72757,1,8,0:3:0:0:
276,184,72907,2,0,P|216:176|169:167,1,80,8|8,0:3|0:3,0:0:0:0:
172,79,73207,2,0,P|180:19|189:-28,1,80,10|8,1:2|0:3,0:0:0:0:
79,132,73507,6,0,P|39:127|0:121,1,80,2|8,3:2|0:3,0:0:0:0:
136,220,73807,2,0,P|131:259|124:299,1,80,10|8,1:2|0:3,0:0:0:0:
234,177,74107,2,0,P|273:183|313:188,1,80,2|8,3:2|0:3,0:0:0:0:
84,137,74407,1,10,1:2:0:0:
84,137,74557,1,10,0:3:0:0:
264,95,74707,6,0,B|315:86|315:86|341:93|341:93|402:86,1,120,0|0,3:0|0:0,0:0:0:0:
348,5,75007,1,10,1:2:0:0:
418,179,75157,1,10,0:3:0:0:
512,0,75307,2,0,P|498:55|487:126,1,120,2|0,3:2|0:0,0:0:0:0:
505,212,75607,2,0,P|520:262|522:295,1,80,10|10,1:2|0:3,0:0:0:0:
318,373,75907,6,0,P|395:377|446:314,1,160,2|10,3:2|1:2,0:0:0:0:
355,275,76357,1,8,0:3:0:0:
259,146,76507,2,0,P|268:217|275:259,1,80,2|10,3:2|0:3,0:0:0:0:
222,363,76807,2,0,B|155:362|175:322|105:320,1,120,10|0,1:2|0:0,0:0:0:0:
34,384,77107,6,0,P|73:343|38:251,1,160,0|10,3:0|1:2,0:0:0:0:
0,135,77557,1,10,0:3:0:0:
112,0,77707,2,0,P|97:74|90:101,1,80,0|8,3:0|0:3,0:0:0:0:
53,238,78007,1,10,1:2:0:0:
17,53,78157,1,10,0:3:0:0:
148,183,78307,6,0,P|219:175|300:164,1,120,2|0,3:2|0:0,0:0:0:0:
340,103,78607,1,10,1:2:0:0:
276,300,78757,1,10,0:3:0:0:
249,69,78907,1,2,3:2:0:0:
359,257,79057,1,10,0:3:0:0:
401,26,79207,2,0,P|435:70|417:149,1,120,10|0,1:2|0:0,0:0:0:0:
457,220,79507,6,0,B|479:260|459:301|459:301|494:335|489:379,1,160,2|10,3:2|1:2,0:0:0:0:
391,375,79957,1,10,0:3:0:0:
347,236,80107,2,0,P|290:254|247:260,1,80,2|8,3:0|0:3,0:0:0:0:
105,269,80407,1,10,1:2:0:0:
252,374,80557,1,10,0:3:0:0:
186,185,80707,6,0,B|153:105|153:105|193:18,1,160,2|10,3:0|1:2,0:0:0:0:
256,111,81157,1,8,0:3:0:0:
256,111,81307,2,0,P|312:101|366:92,1,80,2|10,3:2|0:3,0:0:0:0:
512,43,81607,2,0,B|458:20|458:20|398:48,1,120,10|0,1:2|0:0,0:0:0:0:
474,120,81907,6,0,L|496:213,1,50,2|0,3:0|0:0,0:0:0:0:
457,111,82057,2,0,L|479:204,1,50,2|0,0:0|0:0,0:0:0:0:
429,244,82207,6,0,L|451:337,1,50,10|0,1:2|0:0,0:0:0:0:
412,235,82357,2,0,L|434:328,1,50,10|0,0:3|0:0,0:0:0:0:
326,369,82507,6,0,L|337:320,1,50,2|0,3:0|0:0,0:0:0:0:
309,378,82657,2,0,L|320:329,1,50,10|0,0:3|0:0,0:0:0:0:
282,251,82807,6,0,L|293:202,1,50,10|0,1:2|0:0,0:0:0:0:
265,260,82957,2,0,L|276:211,1,50,2|0,0:0|0:0,0:0:0:0:
212,79,83108,6,0,L|223:128,1,50,2|0,3:2|0:0,0:0:0:0:
195,70,83257,2,0,L|206:119,1,50,10|0,0:3|0:0,0:0:0:0:
159,215,83407,6,0,L|170:264,1,50,10|0,1:2|0:0,0:0:0:0:
142,206,83556,2,0,L|153:255,1,50,10|0,0:3|0:0,0:0:0:0:
214,368,83707,5,10,3:2:0:0:
291,155,83857,1,10,0:3:0:0:
228,370,84007,5,10,1:2:0:0:
305,157,84157,1,10,0:3:0:0:
379,279,84307,6,0,P|396:218|404:190,1,68.0000012969971,2|2,0:0|0:0,0:0:0:0:
492,216,84607,2,0,P|495:249|498:283,1,68.0000012969971,2|2,0:0|0:0,0:0:0:0:
446,357,84907,2,0,P|389:322|305:349,1,136.000002593994,2|2,0:0|0:0,0:0:0:0:
243,384,85357,1,2,0:0:0:0:
172,280,85507,6,0,P|219:290|258:297,1,68.0000012969971,2|2,0:0|0:0,0:0:0:0:
145,364,85807,2,0,P|111:357|78:350,1,68.0000012969971,2|2,0:0|0:0,0:0:0:0:
21,271,86107,1,2,0:0:0:0:
234,192,86407,1,2,1:2:0:0:
24,107,86707,6,0,P|34:69|39:22,1,68.0000012969971,2|2,3:2|0:0,0:0:0:0:
124,34,87007,2,0,P|165:20|192:36,1,68.0000012969971,2|10,1:2|0:3,0:0:0:0:
251,99,87307,1,2,3:2:0:0:
251,99,87457,1,2,0:0:0:0:
313,32,87607,2,0,P|355:22|402:13,1,68.0000012969971,2|10,1:2|0:3,0:0:0:0:
477,42,87907,6,0,P|451:94|469:174,1,136.000002593994,0|2,3:0|1:2,0:0:0:0:
512,252,88357,1,8,0:3:0:0:
388,228,88507,2,0,P|354:220|321:213,1,68.0000012969971,2|2,3:2|0:0,0:0:0:0:
435,309,88807,1,2,1:2:0:0:
367,137,88957,1,2,0:0:0:0:
332,376,89107,6,0,P|340:342|347:309,1,68.0000012969971,2|10,3:2|0:3,0:0:0:0:
237,233,89407,2,0,P|244:266|251:299,1,68.0000012969971,2|10,1:2|0:3,0:0:0:0:
172,380,89707,2,0,P|118:381|80:325,1,102.000001945496,2|0,3:2|0:0,0:0:0:0:
6,326,90007,2,0,P|17:282|25:235,1,68.0000012969971,2|10,1:2|0:3,0:0:0:0:
0,130,90307,6,0,B|66:100|66:100|125:124,1,136.000002593994,2|2,3:2|1:2,0:0:0:0:
201,197,90757,1,8,0:3:0:0:
236,37,90907,2,0,P|221:103|218:113,1,68.0000012969971,2|10,3:2|0:3,0:0:0:0:
309,235,91207,2,0,P|300:202|293:168,1,68.0000012969971,2|2,1:2|0:0,0:0:0:0:
360,41,91507,5,2,3:2:0:0:
418,174,91657,1,2,0:3:0:0:
474,65,91807,1,2,1:2:0:0:
317,143,91957,1,10,0:3:0:0:
491,231,92107,2,0,P|512:190|505:141,1,68.0000012969971,2|10,3:2|0:3,0:0:0:0:
402,265,92407,2,0,P|420:315|429:357,1,68.0000012969971,2|2,1:2|0:0,0:0:0:0:
301,248,92707,6,0,B|222:251|253:192|150:186,1,136.000002593994,2|2,3:2|1:2,0:0:0:0:
63,292,93157,1,8,0:3:0:0:
63,292,93307,2,0,P|123:290|182:280,1,102.000001945496,2|0,3:2|0:0,0:0:0:0:
101,208,93607,2,0,P|86:205|71:205,4,17.0000003242493,2|0|0|0|0,1:2|0:0|0:0|0:0|0:0,0:0:0:0:
59,114,93907,6,0,P|38:58|48:41,1,60.0000022888184,2|8,3:2|0:3,0:0:0:0:
116,16,94207,1,0,1:0:0:0:
116,16,94357,2,0,P|175:23|235:31,1,120.000004577637,10|0,0:3|0:0,0:0:0:0:
317,83,94807,2,0,P|354:77|392:73,1,60.0000022888184,2|8,1:2|0:3,0:0:0:0:
468,83,95107,6,0,P|479:121|456:160,1,60.0000022888184,2|8,3:2|0:3,0:0:0:0:
413,211,95407,1,0,1:0:0:0:
413,211,95557,2,0,P|438:272|509:273,1,120.000004577637,10|10,0:3|0:3,0:0:0:0:
379,335,96007,2,0,P|313:317|301:313,1,60.0000022888184,2|8,1:2|0:3,0:0:0:0:
342,164,96307,6,0,P|283:156|238:216,1,120.000004577637,2|0,3:2|1:0,0:0:0:0:
188,271,96757,2,0,P|168:327|147:383,1,120.000004577637,10|8,0:3|0:3,0:0:0:0:
255,356,97207,1,2,1:2:0:0:
40,373,97507,6,0,P|62:316|82:257,1,120.000004577637,2|0,3:2|1:0,0:0:0:0:
0,193,97957,2,0,P|78:144|105:157,1,120.000004577637,10|0,0:3|0:0,0:0:0:0:
126,242,98407,2,0,P|167:225|207:218,1,60.0000022888184,2|8,1:2|0:3,0:0:0:0:
230,145,98707,6,0,P|258:153|286:165,1,60.0000022888184,2|8,3:2|0:3,0:0:0:0:
351,239,99007,1,0,1:0:0:0:
412,312,99157,2,0,P|448:255|428:191,1,120.000004577637,10|8,0:3|0:3,0:0:0:0:
364,137,99607,1,2,1:2:0:0:
506,20,99907,6,0,P|462:35|432:39,1,60.0000022888184,2|8,3:2|0:3,0:0:0:0:
363,13,100207,1,0,1:0:0:0:
290,71,100357,2,0,P|220:58|160:50,1,120.000004577637,10|8,0:3|0:3,0:0:0:0:
63,35,100807,1,2,1:2:0:0:
0,217,101107,6,0,P|69:196|110:238,1,120.000004577637,2|0,3:2|1:0,0:0:0:0:
201,175,101557,1,10,0:3:0:0:
201,175,101707,2,0,B|183:222|183:222|208:264,1,90.0000034332277,0|0,3:0|0:0,0:0:0:0:
274,311,102007,2,0,P|336:293|366:286,1,90.0000034332277,2|0,3:2|0:0,0:0:0:0:
459,262,102307,5,2,3:2:0:0:
459,262,102757,1,2,0:0:0:0:
497,14,103207,1,0,1:0:0:0:
295,163,103507,5,2,3:2:0:0:
484,139,103657,1,10,0:3:0:0:
304,19,103807,1,10,1:2:0:0:
404,237,103957,1,10,0:3:0:0:
404,17,104107,2,0,P|392:74|387:107,1,80,2|2,3:0|0:0,0:0:0:0:
320,248,104407,1,10,1:2:0:0:
320,248,104557,1,2,0:0:0:0:
232,86,104707,6,0,P|139:63|101:55,1,120,2|0,3:2|0:0,0:0:0:0:
38,7,105007,2,0,P|20:52|33:96,1,80,10|8,1:2|0:3,0:0:0:0:
123,233,105307,1,2,3:2:0:0:
115,57,105457,1,2,0:0:0:0:
0,176,105607,2,0,P|42:166|90:157,1,80,10|2,1:2|0:0,0:0:0:0:
260,158,105907,5,10,0:3:0:0:
95,315,106057,1,2,0:0:0:0:
168,147,106207,2,0,P|181:196|190:238,1,80,10|10,1:2|0:3,0:0:0:0:
210,368,106507,1,2,3:2:0:0:
210,368,106657,1,10,0:3:0:0:
277,253,106807,2,0,P|316:244|354:233,1,80,10|10,1:2|0:3,0:0:0:0:
499,181,107107,6,0,P|459:172|421:161,1,80,2|10,3:2|0:3,0:0:0:0:
441,264,107407,1,10,1:2:0:0:
334,135,107557,1,10,0:3:0:0:
381,327,107707,2,0,P|428:356|504:313,1,120,2|0,3:2|0:0,0:0:0:0:
441,264,108007,1,10,1:2:0:0:
455,26,108307,5,2,3:0:0:0:
388,200,108457,1,10,0:3:0:0:
336,32,108607,1,10,1:2:0:0:
485,141,108757,1,10,0:3:0:0:
299,135,108907,2,0,P|250:128|201:118,1,80,2|2,3:2|0:0,0:0:0:0:
89,49,109207,2,0,P|138:42|187:32,1,80,10|10,1:2|0:3,0:0:0:0:
112,164,109507,5,2,3:2:0:0:
112,164,109657,1,8,0:3:0:0:
7,218,109807,2,0,P|14:267|24:316,1,80,10|8,1:2|0:3,0:0:0:0:
18,111,110107,2,0,P|25:71|30:32,1,80,2|2,3:2|0:0,0:0:0:0:
101,271,110407,2,0,P|106:310|113:349,1,80,10|2,1:2|0:0,0:0:0:0:
217,173,110707,5,2,3:2:0:0:
22,216,110857,1,10,0:3:0:0:
219,284,111007,1,10,1:2:0:0:
19,330,111157,1,10,0:3:0:0:
231,279,111307,2,0,P|305:288|342:296,1,80,2|10,3:0|0:3,0:0:0:0:
494,311,111607,5,10,1:2:0:0:
321,384,111757,1,10,0:3:0:0:
487,297,111907,2,0,P|497:237|501:183,1,80,2|10,3:2|0:3,0:0:0:0:
512,51,112207,1,10,1:2:0:0:
512,51,112357,1,10,0:3:0:0:
407,161,112507,2,0,B|391:133|357:116|357:116|328:132|276:122,1,120,2|0,1:2|0:0,0:0:0:0:
274,46,112807,2,0,P|218:113|237:162,1,120,2|0,3:0|0:0,0:0:0:0:
275,204,113107,6,0,P|260:267|249:287,1,80,2|10,3:0|0:3,0:0:0:0:
92,324,113407,1,10,1:2:0:0:
242,383,113557,1,10,0:3:0:0:
158,242,113707,1,2,3:0:0:0:
167,353,113857,1,2,0:0:0:0:
328,341,114007,2,0,P|371:333|431:322,1,80,10|10,1:2|0:3,0:0:0:0:
501,200,114307,6,0,P|461:207|422:214,1,80,2|8,3:0|0:3,0:0:0:0:
503,319,114607,1,10,1:2:0:0:
503,319,114757,1,8,0:3:0:0:
330,233,114907,2,0,P|290:240|251:247,1,80,2|10,3:2|0:3,0:0:0:0:
101,175,115207,2,0,P|148:183|169:220,1,80,10|10,1:2|0:3,0:0:0:0:
159,365,115507,5,2,3:0:0:0:
246,153,115657,1,10,0:3:0:0:
256,339,115807,1,10,1:2:0:0:
116,281,115957,1,10,0:3:0:0:
294,246,116107,2,0,P|335:234|371:227,1,80,2|10,3:0|0:3,0:0:0:0:
414,106,116407,2,0,P|374:113|336:125,1,80,10|2,1:2|0:0,0:0:0:0:
492,168,116707,6,0,P|514:126|500:81,1,80,2|10,3:0|0:3,0:0:0:0:
454,19,117007,1,10,1:2:0:0:
454,19,117157,1,10,0:3:0:0:
400,209,117307,2,0,P|426:265|455:354,1,120,2|0,3:0|0:0,0:0:0:0:
381,377,117607,2,0,P|337:377|313:343,1,80,10|2,1:2|0:0,0:0:0:0:
293,197,117907,6,0,P|236:246|152:230,1,160,2|10,3:0|1:2,0:0:0:0:
0,274,118357,1,10,0:3:0:0:
0,274,118507,2,0,L|85:292,1,80,2|0,3:0|0:0,0:0:0:0:
78,169,118807,2,0,L|0:152,1,80,10|10,1:2|0:3,0:0:0:0:
210,150,119107,5,2,3:0:0:0:
173,307,119257,1,10,0:3:0:0:
137,78,119407,1,10,1:2:0:0:
137,78,119557,1,10,0:3:0:0:
301,125,119707,2,0,P|308:163|293:200,1,80,2|10,3:0|0:3,0:0:0:0:
137,217,120007,2,0,P|97:213|57:205,1,80,10|2,1:2|0:0,0:0:0:0:
294,315,120307,6,0,P|333:311|373:303,1,80,2|10,3:0|0:3,0:0:0:0:
225,256,120607,2,0,P|203:288|203:328,1,80,10|10,1:2|0:3,0:0:0:0:
308,218,120907,1,2,3:0:0:0:
398,316,121057,1,10,0:3:0:0:
466,207,121207,2,0,P|499:151|463:83,1,120,10|0,1:2|0:0,0:0:0:0:
404,136,121507,6,0,B|324:125,1,80,2|8,3:0|0:3,0:0:0:0:
208,166,121807,1,2,1:2:0:0:
208,166,121957,1,8,0:3:0:0:
268,70,122107,5,0,3:0:0:0:
148,260,122407,1,2,1:2:0:0:
157,36,122707,5,0,3:0:0:0:
37,226,123007,1,2,1:2:0:0:
37,226,123157,1,10,0:3:0:0:
94,296,123307,2,0,P|128:289|198:346,1,120.000004577637,2|2,3:2|1:2,0:0:0:0:
285,378,123757,1,2,0:0:0:0:
285,378,123907,2,0,P|348:362|414:345,1,120.000004577637,2|2,3:2|1:2,0:0:0:0:
512,320,124357,1,10,0:3:0:0:
436,253,124507,2,0,P|417:205|427:174,2,60.0000022888184,2|10|2,3:0|0:3|1:2,0:0:0:0:
484,130,125107,6,0,B|431:100|431:100|355:121,1,120.000004577637,2|0,3:2|1:0,0:0:0:0:
321,203,125557,1,10,0:3:0:0:
321,203,125707,2,0,B|271:191|271:191|245:196|245:196|181:173,1,120.000004577637,0|2,3:0|1:2,0:0:0:0:
253,104,126157,1,10,0:3:0:0:
219,24,126307,2,0,P|171:33|135:37,1,60.0000022888184,2|10,3:0|0:3,0:0:0:0:
73,13,126607,1,2,1:2:0:0:
73,13,126757,1,10,0:3:0:0:
91,98,126907,2,0,P|82:146|78:182,1,60.0000022888184,2|2,3:2|0:0,0:0:0:0:
6,73,127207,2,0,P|8:84|9:94,4,15.0000005722046,10|0|0|0|0,1:2|0:0|0:0|0:0|0:0,0:0:0:0:
0,245,127507,6,0,P|-12:194|15:164,1,80,2|8,3:2|0:3,0:0:0:0:
157,202,127807,1,10,1:2:0:0:
157,202,127957,1,10,0:3:0:0:
52,350,128107,2,0,B|144:345|113:289|196:287,1,160,2|10,3:2|1:2,0:0:0:0:
245,375,128557,1,10,0:3:0:0:
318,162,128707,6,0,P|300:240|300:307,1,120,2|0,3:2|0:0,0:0:0:0:
353,377,129007,1,10,1:2:0:0:
193,287,129157,1,8,0:3:0:0:
393,292,129307,2,0,P|447:283|486:275,1,80,2|10,3:2|0:3,0:0:0:0:
512,174,129607,2,0,P|449:186|386:196,1,120,10|0,1:2|0:0,0:0:0:0:
314,147,129907,5,2,3:2:0:0:
314,147,130057,1,8,0:3:0:0:
437,5,130207,1,8,0:3:0:0:
512,174,130357,1,8,0:3:0:0:
422,102,130507,1,8,0:3:0:0:
451,283,130657,1,8,0:3:0:0:
338,243,130807,6,0,P|267:227|231:219,1,80,10|8,1:2|0:3,0:0:0:0:
100,122,131107,2,0,P|139:130|178:139,1,80,2|8,3:2|0:3,0:0:0:0:
150,323,131407,2,0,P|158:283|167:244,1,80,10|8,1:2|0:3,0:0:0:0:
287,41,131707,2,0,P|278:80|269:119,1,80,2|8,3:2|0:3,0:0:0:0:
301,261,132007,1,10,1:2:0:0:
301,261,132157,1,10,0:3:0:0:
458,115,132307,6,0,P|398:92|365:116,1,80,0|8,3:0|0:3,0:0:0:0:
407,275,132607,1,10,1:2:0:0:
272,110,132757,1,10,0:3:0:0:
245,359,132907,2,0,P|179:327|123:348,1,120,2|0,3:2|0:0,0:0:0:0:
75,282,133207,2,0,P|38:297|0:308,1,80,10|10,1:2|0:3,0:0:0:0:
17,152,133507,6,0,P|90:133|132:180,1,120,2|0,3:2|0:0,0:0:0:0:
175,247,133807,2,0,B|226:243|226:243|246:230|246:230|305:226,1,120,10|0,1:2|0:0,0:0:0:0:
481,217,134107,1,2,3:2:0:0:
316,105,134257,1,10,0:3:0:0:
469,210,134407,2,0,P|481:163|488:70,1,120,10|0,1:2|0:0,0:0:0:0:
418,37,134707,6,0,P|356:73|280:29,1,160,0|10,3:0|1:2,0:0:0:0:
113,48,135157,1,10,0:3:0:0:
113,48,135307,2,0,P|170:62|213:69,1,80,0|8,3:0|0:3,0:0:0:0:
351,164,135607,1,10,1:2:0:0:
156,166,135757,1,10,0:3:0:0:
385,63,135907,5,2,3:2:0:0:
213,272,136057,1,10,0:3:0:0:
448,234,136207,1,10,1:2:0:0:
271,110,136357,1,10,0:3:0:0:
285,369,136507,1,2,3:2:0:0:
326,236,136657,1,10,0:3:0:0:
436,332,136807,2,0,P|450:282|472:182,1,120,10|0,1:2|0:0,0:0:0:0:
405,147,137107,6,0,P|387:112|401:76,1,80,2|8,3:2|0:3,0:0:0:0:
512,106,137407,1,10,1:2:0:0:
512,106,137557,1,10,0:3:0:0:
295,112,137707,2,0,B|235:107|249:66|187:64,1,120,2|0,3:0|0:0,0:0:0:0:
104,15,138007,2,0,P|95:67|90:109,1,80,10|10,1:2|0:3,0:0:0:0:
150,295,138307,6,0,P|187:255|147:154,1,160,2|10,3:0|1:2,0:0:0:0:
12,242,138757,1,8,0:3:0:0:
12,242,138907,2,0,P|70:231|116:225,1,80,2|10,3:2|0:3,0:0:0:0:
212,348,139207,2,0,B|269:371|269:371|321:345,1,120,10|0,1:2|0:0,0:0:0:0:
401,365,139507,6,0,L|418:283,1,50,2|0,3:0|0:0,0:0:0:0:
415,379,139657,2,0,L|432:297,1,50,2|0,0:0|0:0,0:0:0:0:
485,245,139807,6,0,L|502:163,1,50,10|0,1:2|0:0,0:0:0:0:
499,259,139957,2,0,L|516:177,1,50,10|0,0:3|0:0,0:0:0:0:
468,53,140106,6,0,L|478:101,1,50,2|0,3:0|0:0,0:0:0:0:
454,67,140256,2,0,L|464:115,1,50,10|0,0:3|0:0,0:0:0:0:
389,188,140407,6,0,L|399:236,1,50,10|0,1:2|0:0,0:0:0:0:
375,202,140557,2,0,L|385:250,1,50,2|0,0:0|0:0,0:0:0:0:
292,358,140707,6,0,L|309:276,1,50,2|0,3:2|0:0,0:0:0:0:
306,372,140857,2,0,L|323:290,1,50,10|0,0:3|0:0,0:0:0:0:
244,219,141007,6,0,L|261:137,1,50,10|0,1:2|0:0,0:0:0:0:
258,233,141157,2,0,L|275:151,1,50,10|0,0:3|0:0,0:0:0:0:
300,20,141307,5,10,3:2:0:0:
375,202,141457,1,10,0:3:0:0:
283,9,141607,5,10,1:2:0:0:
358,191,141757,1,10,0:3:0:0:
148,262,141907,6,0,P|140:217|136:178,1,68.0000012969971,0|2,3:0|0:0,0:0:0:0:
61,139,142207,1,2,1:2:0:0:
61,139,142357,1,10,0:3:0:0:
105,58,142507,2,0,B|164:66|164:66|176:73|176:73|250:85,1,136.000002593994,2|2,3:0|1:2,0:0:0:0:
320,30,142957,5,8,0:3:0:0:
320,30,143107,2,0,B|344:93|344:93|304:160,1,136.000002593994,2|2,3:0|1:2,0:0:0:0:
218,181,143557,1,10,0:3:0:0:
218,181,143707,2,0,L|242:267,1,68.0000012969971,2|10,3:0|0:3,0:0:0:0:
185,333,144007,1,2,1:2:0:0:
367,373,144307,6,0,P|411:345|447:348,1,68.0000012969971,2|8,3:0|0:3,0:0:0:0:
512,384,144607,1,2,1:2:0:0:
512,384,144757,1,10,0:3:0:0:
492,291,144907,2,0,P|462:255|495:164,1,136.000002593994,2|2,3:2|1:2,0:0:0:0:
502,88,145357,5,2,0:0:0:0:
502,88,145507,2,0,P|416:71|404:68,1,68.0000012969971,2|2,3:0|0:0,0:0:0:0:
367,13,145807,2,0,P|281:-4|269:-7,1,68.0000012969971,2|10,1:2|0:3,0:0:0:0:
234,65,146107,2,0,P|200:71|167:77,1,68.0000012969971,2|2,3:0|0:0,0:0:0:0:
94,22,146407,2,0,P|81:24|68:26,4,17.0000003242493,2|0|0|0|8,1:2|0:0|0:0|0:0|0:3,0:0:0:0:
119,166,146707,6,0,P|128:203|114:238,1,68.0000012969971,2|10,3:0|0:3,0:0:0:0:
57,298,147007,1,2,1:2:0:0:
57,298,147157,1,2,0:3:0:0:
104,368,147307,2,0,P|172:353|249:345,1,136.000002593994,2|2,3:0|1:2,0:0:0:0:
338,374,147757,1,10,0:3:0:0:
310,281,147907,6,0,P|278:245|289:167,1,102.000001945496,2|0,3:0|0:0,0:0:0:0:
357,208,148207,2,0,P|413:220|446:225,1,68.0000012969971,2|10,1:2|0:3,0:0:0:0:
512,151,148507,2,0,P|478:144|445:137,1,68.0000012969971,2|8,3:2|0:3,0:0:0:0:
382,40,148807,2,0,P|415:47|448:53,1,68.0000012969971,2|2,1:2|0:0,0:0:0:0:
293,84,149107,5,2,3:0:0:0:
293,84,149257,1,10,0:3:0:0:
213,126,149407,2,0,B|193:88|193:88|209:49,2,68.0000012969971,2|10|0,1:2|0:3|3:0,0:0:0:0:
291,179,149857,1,8,0:3:0:0:
291,179,150007,2,0,B|301:236|298:255|298:255|277:262|257:286,1,102.000001945496,2|0,1:2|0:0,0:0:0:0:
205,305,150307,6,0,P|152:291|110:279,1,68.0000012969971,2|8,3:0|0:3,0:0:0:0:
277,358,150607,2,0,P|330:344|372:332,1,68.0000012969971,2|8,1:2|0:3,0:0:0:0:
206,214,150907,1,2,3:2:0:0:
206,214,151057,1,8,0:3:0:0:
143,384,151207,1,2,1:2:0:0:
286,264,151357,1,8,0:3:0:0:
114,255,151507,6,0,P|105:202|99:161,1,68.0000012969971,0|2,3:0|0:0,0:0:0:0:
26,338,151807,1,2,1:2:0:0:
26,338,151957,1,10,0:3:0:0:
0,217,152107,2,0,P|9:164|15:123,1,68.0000012969971,2|2,3:0|0:0,0:0:0:0:
78,23,152407,2,0,P|83:56|89:90,1,68.0000012969971,2|10,1:2|0:3,0:0:0:0:
175,170,152707,6,0,B|193:147|221:146|221:146|247:164|294:151,1,102.000001945496,2|0,3:0|0:0,0:0:0:0:
266,68,153007,2,0,P|308:63|357:55,1,68.0000012969971,2|8,1:2|0:3,0:0:0:0:
403,6,153307,2,0,P|431:52|400:123,1,136.000002593994,2|2,3:0|1:2,0:0:0:0:
352,207,153757,5,8,0:3:0:0:
352,207,153907,2,0,B|322:246|322:246|348:341,1,136.000002593994,2|2,3:0|1:2,0:0:0:0:
458,384,154357,1,8,0:3:0:0:
458,384,154507,2,0,L|422:233,1,136.000002593994,2|2,3:0|1:2,0:0:0:0:
494,184,154957,1,10,0:3:0:0:
432,111,155107,6,0,P|383:99|344:90,1,68.0000012969971,2|2,3:0|0:2,0:0:0:0:
498,48,155407,1,2,1:2:0:0:
498,48,155557,1,10,0:3:0:0:
383,0,155707,2,0,P|334:12|295:21,1,68.0000012969971,2|10,3:0|0:3,0:0:0:0:
176,31,156007,2,0,B|167:69|146:93|146:93|163:108|171:143,1,102.000001945496,2|0,1:2|0:0,0:0:0:0:
86,157,156307,6,0,P|100:212|108:247,1,68.0000012969971,2|8,3:0|0:3,0:0:0:0:
126,338,156607,1,2,1:2:0:0:
126,338,156757,1,10,0:3:0:0:
201,258,156907,2,0,P|271:256|309:318,1,136.000002593994,0|2,3:0|1:2,0:0:0:0:
378,374,157357,1,10,0:3:0:0:
378,374,157507,6,0,P|401:328|416:263,1,102.000001945496,2|0,3:0|0:0,0:0:0:0:
487,229,157807,1,2,1:2:0:0:
487,229,157957,1,8,0:3:0:0:
438,142,158107,2,0,B|384:138|402:101|330:94,1,102.000001945496,2|0,3:2|0:0,0:0:0:0:
270,48,158407,2,0,P|254:100|269:135,1,68.0000012969971,2|8,1:2|0:3,0:0:0:0:
353,6,158707,5,2,3:0:0:0:
312,178,158857,2,0,P|298:240|291:268,1,68.0000012969971,10|0,0:3|1:0,0:0:0:0:
343,331,159157,1,10,0:3:0:0:
343,331,159307,2,0,P|279:373|208:353,1,136.000002593994,2|2,3:0|1:2,0:0:0:0:
160,302,159757,5,8,0:3:0:0:
160,302,159907,1,2,3:0:0:0:
88,349,160057,2,0,P|39:341|-1:335,1,68.0000012969971,10|2,0:3|1:2,0:0:0:0:
0,248,160357,1,10,0:3:0:0:
0,248,160507,2,0,P|33:253|67:258,1,68.0000012969971,2|10,3:0|0:3,0:0:0:0:
152,149,160807,2,0,B|159:199|159:199|136:220,1,68.0000012969971,2|10,1:2|0:3,0:0:0:0:
231,99,161107,6,0,P|269:122|274:168,1,80,0|8,3:0|0:3,0:0:0:0:
244,248,161407,1,10,1:2:0:0:
244,248,161557,1,8,0:3:0:0:
147,61,161707,2,0,P|170:23|216:18,1,80,0|8,3:0|0:3,0:0:0:0:
345,70,162007,1,10,1:2:0:0:
345,70,162157,1,8,0:3:0:0:
103,147,162307,2,0,P|64:124|60:78,1,80,0|8,3:0|0:3,0:0:0:0:
276,154,162607,5,10,1:2:0:0:
177,333,162757,1,8,0:3:0:0:
103,147,162907,5,8,0:3:0:0:
253,168,163057,1,8,0:3:0:0:
179,302,163207,1,8,0:3:0:0:
123,163,163357,1,8,0:3:0:0:
