osu file format v14

[General]
AudioFilename: audio.ogg
AudioLeadIn: 0
PreviewTime: 69977
Countdown: 0
SampleSet: Soft
StackLeniency: 0.7
Mode: 3
LetterboxInBreaks: 0
SpecialStyle: 0
WidescreenStoryboard: 0

[Editor]
DistanceSpacing: 1
BeatDivisor: 4
GridSize: 8
TimelineZoom: 2.5

[Metadata]
Title:EncorE & cALL
TitleUnicode:EncorE & cALL
Artist:CHUBAY
ArtistUnicode:CHUBAY
Creator:Please_
Version:MAXIMUM
Source:SOUND VOLTEX EXCEED GEAR
Tags:sdvx vi 10th kac オリジナル楽曲コンテスト 追想叙事詩篇 hexa diver konami bemani arcade rhythm video game original song contest mitsuruko-chan ミツル子ちゃん 忠兵衛 electronic instrumental
BeatmapID:4292249
BeatmapSetID:2054460

[Difficulty]
HPDrainRate:8
CircleSize:4
OverallDifficulty:8
ApproachRate:5
SliderMultiplier:1.4
SliderTickRate:1

[Events]
//Background and Video events
0,0,"bg.jpg",0,0
//Break Periods
//Storyboard Layer 0 (Background)
//Storyboard Layer 1 (Fail)
//Storyboard Layer 2 (Pass)
//Storyboard Layer 3 (Foreground)
//Storyboard Layer 4 (Overlay)
//Storyboard Sound Samples

[TimingPoints]
1977,250,4,2,1,40,1,0
25977,-100,4,2,1,40,0,1
33977,-100,4,2,1,40,0,0
69977,-100,4,2,1,40,0,1
81977,-100,4,2,1,40,0,0
99977,-100,4,2,1,40,0,1
113977,-100,4,2,1,40,0,0

[HitObjects]
448,192,1852,5,0,0:0:0:0:
320,192,1977,128,0,2289:0:0:0:0:
192,192,1977,128,0,2789:0:0:0:0:
64,192,1977,128,0,3289:0:0:0:0:
448,192,1977,128,0,3352:0:0:0:0:
320,192,2352,1,0,0:0:0:0:
320,192,2477,128,0,3539:0:0:0:0:
192,192,2852,1,0,0:0:0:0:
192,192,2977,128,0,3664:0:0:0:0:
64,192,3352,1,0,0:0:0:0:
448,192,3414,1,0,0:0:0:0:
64,192,3477,128,0,3789:0:0:0:0:
320,192,3602,1,0,0:0:0:0:
448,192,3602,128,0,3914:0:0:0:0:
192,192,3727,1,0,0:0:0:0:
320,192,3727,128,0,3914:0:0:0:0:
64,192,3852,1,0,0:0:0:0:
192,192,3852,128,0,3914:0:0:0:0:
320,192,3977,128,0,4289:0:0:0:0:
192,192,3977,128,0,4789:0:0:0:0:
64,192,3977,128,0,5289:0:0:0:0:
448,192,3977,128,0,5414:0:0:0:0:
320,192,4352,1,0,0:0:0:0:
320,192,4477,128,0,5477:0:0:0:0:
192,192,4852,1,0,0:0:0:0:
192,192,4977,128,0,5539:0:0:0:0:
64,192,5352,128,0,5602:0:0:0:0:
448,192,5477,128,0,5664:0:0:0:0:
320,192,5539,128,0,5602:0:0:0:0:
192,192,5602,128,0,5789:0:0:0:0:
64,192,5664,128,0,5727:0:0:0:0:
320,192,5727,128,0,5914:0:0:0:0:
448,192,5789,128,0,5852:0:0:0:0:
64,192,5852,128,0,5977:0:0:0:0:
192,192,5914,128,0,5977:0:0:0:0:
320,192,5977,1,0,0:0:0:0:
448,192,5977,1,0,0:0:0:0:
64,192,6102,1,0,0:0:0:0:
320,192,6102,1,0,0:0:0:0:
192,192,6227,1,0,0:0:0:0:
448,192,6227,1,0,0:0:0:0:
64,192,6352,1,0,0:0:0:0:
192,192,6352,1,0,0:0:0:0:
320,192,6477,1,0,0:0:0:0:
448,192,6477,1,0,0:0:0:0:
448,192,6602,1,0,0:0:0:0:
192,192,6602,1,0,0:0:0:0:
64,192,6727,1,0,0:0:0:0:
320,192,6727,1,0,0:0:0:0:
64,192,6852,1,0,0:0:0:0:
192,192,6852,1,0,0:0:0:0:
320,192,6977,1,0,0:0:0:0:
448,192,6977,1,0,0:0:0:0:
64,192,7102,1,0,0:0:0:0:
320,192,7102,1,0,0:0:0:0:
192,192,7227,1,0,0:0:0:0:
448,192,7227,1,0,0:0:0:0:
64,192,7352,1,0,0:0:0:0:
192,192,7352,1,0,0:0:0:0:
448,192,7414,1,0,0:0:0:0:
320,192,7477,1,0,0:0:0:0:
64,192,7477,1,0,0:0:0:0:
192,192,7602,1,0,0:0:0:0:
448,192,7602,1,0,0:0:0:0:
64,192,7664,1,0,0:0:0:0:
448,192,7727,1,0,0:0:0:0:
320,192,7727,1,0,0:0:0:0:
64,192,7852,1,0,0:0:0:0:
192,192,7852,1,0,0:0:0:0:
448,192,7977,1,0,0:0:0:0:
320,192,7977,1,0,0:0:0:0:
192,192,7977,1,0,0:0:0:0:
64,192,8102,1,0,0:0:0:0:
448,192,8102,1,0,0:0:0:0:
64,192,8227,1,0,0:0:0:0:
320,192,8227,1,0,0:0:0:0:
192,192,8352,1,0,0:0:0:0:
320,192,8352,1,0,0:0:0:0:
64,192,8477,1,0,0:0:0:0:
448,192,8477,1,0,0:0:0:0:
192,192,8602,1,0,0:0:0:0:
448,192,8602,1,0,0:0:0:0:
192,192,8727,1,0,0:0:0:0:
320,192,8727,1,0,0:0:0:0:
64,192,8852,1,0,0:0:0:0:
320,192,8852,1,0,0:0:0:0:
448,192,8852,1,0,0:0:0:0:
64,192,9102,1,0,0:0:0:0:
320,192,9102,1,0,0:0:0:0:
448,192,9102,1,0,0:0:0:0:
64,192,9227,1,0,0:0:0:0:
320,192,9227,1,0,0:0:0:0:
448,192,9227,1,0,0:0:0:0:
320,192,9477,128,0,9643:0:0:0:0:
192,192,9560,128,0,9727:0:0:0:0:
64,192,9643,128,0,9810:0:0:0:0:
448,192,9727,128,0,9893:0:0:0:0:
320,192,9810,128,0,9977:0:0:0:0:
192,192,9893,128,0,9977:0:0:0:0:
448,192,9977,1,0,0:0:0:0:
64,192,9977,1,0,0:0:0:0:
320,192,10039,1,0,0:0:0:0:
448,192,10102,1,0,0:0:0:0:
192,192,10164,1,0,0:0:0:0:
320,192,10227,1,0,0:0:0:0:
64,192,10289,1,0,0:0:0:0:
192,192,10352,1,0,0:0:0:0:
448,192,10352,1,0,0:0:0:0:
320,192,10414,1,0,0:0:0:0:
448,192,10477,1,0,0:0:0:0:
192,192,10539,1,0,0:0:0:0:
320,192,10602,1,0,0:0:0:0:
64,192,10664,1,0,0:0:0:0:
192,192,10727,1,0,0:0:0:0:
448,192,10727,1,0,0:0:0:0:
320,192,10789,1,0,0:0:0:0:
448,192,10852,1,0,0:0:0:0:
192,192,10914,1,0,0:0:0:0:
320,192,10977,1,0,0:0:0:0:
64,192,11039,1,0,0:0:0:0:
192,192,11102,1,0,0:0:0:0:
448,192,11102,1,0,0:0:0:0:
320,192,11164,1,0,0:0:0:0:
448,192,11227,1,0,0:0:0:0:
192,192,11289,1,0,0:0:0:0:
64,192,11352,1,0,0:0:0:0:
320,192,11414,1,0,0:0:0:0:
192,192,11477,1,0,0:0:0:0:
448,192,11477,1,0,0:0:0:0:
320,192,11539,1,0,0:0:0:0:
64,192,11602,1,0,0:0:0:0:
192,192,11664,1,0,0:0:0:0:
320,192,11727,1,0,0:0:0:0:
448,192,11727,1,0,0:0:0:0:
64,192,11810,1,0,0:0:0:0:
192,192,11810,1,0,0:0:0:0:
320,192,11893,1,0,0:0:0:0:
448,192,11893,1,0,0:0:0:0:
64,192,11977,1,0,0:0:0:0:
448,192,11977,1,0,0:0:0:0:
192,192,12039,1,0,0:0:0:0:
64,192,12102,1,0,0:0:0:0:
320,192,12164,1,0,0:0:0:0:
192,192,12227,1,0,0:0:0:0:
448,192,12289,1,0,0:0:0:0:
320,192,12352,1,0,0:0:0:0:
64,192,12352,1,0,0:0:0:0:
192,192,12414,1,0,0:0:0:0:
64,192,12477,1,0,0:0:0:0:
320,192,12539,1,0,0:0:0:0:
192,192,12602,1,0,0:0:0:0:
448,192,12664,1,0,0:0:0:0:
320,192,12727,1,0,0:0:0:0:
64,192,12727,1,0,0:0:0:0:
192,192,12789,1,0,0:0:0:0:
64,192,12852,1,0,0:0:0:0:
320,192,12914,1,0,0:0:0:0:
192,192,12977,1,0,0:0:0:0:
448,192,13039,1,0,0:0:0:0:
320,192,13102,1,0,0:0:0:0:
64,192,13102,1,0,0:0:0:0:
192,192,13164,1,0,0:0:0:0:
64,192,13227,1,0,0:0:0:0:
448,192,13289,1,0,0:0:0:0:
320,192,13352,1,0,0:0:0:0:
448,192,13414,1,0,0:0:0:0:
64,192,13477,128,0,13893:0:0:0:0:
192,192,13560,1,0,0:0:0:0:
192,192,13643,128,0,13893:0:0:0:0:
320,192,13727,1,0,0:0:0:0:
320,192,13810,128,0,13893:0:0:0:0:
448,192,13893,1,0,0:0:0:0:
64,192,13977,1,0,0:0:0:0:
192,192,13977,1,0,0:0:0:0:
320,192,13977,1,0,0:0:0:0:
64,192,14227,1,0,0:0:0:0:
192,192,14227,1,0,0:0:0:0:
448,192,14227,1,0,0:0:0:0:
320,192,14289,1,0,0:0:0:0:
448,192,14352,1,0,0:0:0:0:
192,192,14352,1,0,0:0:0:0:
320,192,14414,1,0,0:0:0:0:
64,192,14477,1,0,0:0:0:0:
192,192,14477,1,0,0:0:0:0:
64,192,14602,1,0,0:0:0:0:
448,192,14602,1,0,0:0:0:0:
320,192,14602,1,0,0:0:0:0:
192,192,14664,1,0,0:0:0:0:
448,192,14727,1,0,0:0:0:0:
64,192,14727,1,0,0:0:0:0:
192,192,14789,1,0,0:0:0:0:
448,192,14852,1,0,0:0:0:0:
320,192,14852,1,0,0:0:0:0:
192,192,14977,1,0,0:0:0:0:
320,192,14977,1,0,0:0:0:0:
64,192,14977,1,0,0:0:0:0:
448,192,15039,1,0,0:0:0:0:
64,192,15102,1,0,0:0:0:0:
320,192,15102,1,0,0:0:0:0:
448,192,15164,1,0,0:0:0:0:
192,192,15227,1,0,0:0:0:0:
64,192,15227,1,0,0:0:0:0:
320,192,15352,1,0,0:0:0:0:
192,192,15352,1,0,0:0:0:0:
448,192,15352,1,0,0:0:0:0:
64,192,15414,1,0,0:0:0:0:
448,192,15477,1,0,0:0:0:0:
192,192,15477,1,0,0:0:0:0:
64,192,15539,1,0,0:0:0:0:
320,192,15602,1,0,0:0:0:0:
448,192,15602,1,0,0:0:0:0:
64,192,15727,1,0,0:0:0:0:
192,192,15727,1,0,0:0:0:0:
320,192,15727,1,0,0:0:0:0:
64,192,15977,128,0,16477:0:0:0:0:
192,192,15977,128,0,16977:0:0:0:0:
320,192,15977,128,0,17477:0:0:0:0:
448,192,15977,128,0,17727:0:0:0:0:
64,192,17477,128,0,17539:0:0:0:0:
192,192,17602,128,0,17664:0:0:0:0:
320,192,17727,128,0,17789:0:0:0:0:
448,192,17852,128,0,17914:0:0:0:0:
64,192,17977,1,0,0:0:0:0:
192,192,17977,1,0,0:0:0:0:
448,192,17977,1,0,0:0:0:0:
320,192,18227,1,0,0:0:0:0:
448,192,18477,1,0,0:0:0:0:
64,192,18477,1,0,0:0:0:0:
192,192,18664,1,0,0:0:0:0:
320,192,18664,1,0,0:0:0:0:
320,192,18852,1,0,0:0:0:0:
64,192,18852,1,0,0:0:0:0:
448,192,18977,1,0,0:0:0:0:
192,192,18977,1,0,0:0:0:0:
320,192,19227,1,0,0:0:0:0:
448,192,19268,1,0,0:0:0:0:
64,192,19310,1,0,0:0:0:0:
192,192,19477,1,0,0:0:0:0:
448,192,19727,1,0,0:0:0:0:
192,192,19977,1,0,0:0:0:0:
320,192,19977,1,0,0:0:0:0:
64,192,20227,128,0,20310:0:0:0:0:
192,192,20310,128,0,20393:0:0:0:0:
320,192,20393,128,0,20477:0:0:0:0:
448,192,20477,1,0,0:0:0:0:
192,192,20477,128,0,20560:0:0:0:0:
320,192,20560,128,0,20643:0:0:0:0:
448,192,20643,128,0,20727:0:0:0:0:
64,192,20664,1,0,0:0:0:0:
192,192,20727,128,0,20810:0:0:0:0:
320,192,20810,128,0,20893:0:0:0:0:
448,192,20852,1,0,0:0:0:0:
64,192,20893,128,0,20977:0:0:0:0:
192,192,20977,128,0,21039:0:0:0:0:
320,192,20977,128,0,21102:0:0:0:0:
448,192,20977,128,0,21164:0:0:0:0:
64,192,21352,128,0,21539:0:0:0:0:
192,192,21352,128,0,21477:0:0:0:0:
320,192,21352,128,0,21414:0:0:0:0:
448,192,21727,128,0,21914:0:0:0:0:
64,192,21727,128,0,21852:0:0:0:0:
192,192,21727,128,0,21789:0:0:0:0:
192,192,21977,128,0,22164:0:0:0:0:
320,192,21977,128,0,22227:0:0:0:0:
448,192,21977,128,0,22289:0:0:0:0:
64,192,22227,1,0,0:0:0:0:
192,192,22227,1,0,0:0:0:0:
320,192,22289,1,0,0:0:0:0:
448,192,22352,1,0,0:0:0:0:
192,192,22414,1,0,0:0:0:0:
320,192,22477,1,0,0:0:0:0:
64,192,22477,1,0,0:0:0:0:
448,192,22539,1,0,0:0:0:0:
320,192,22602,1,0,0:0:0:0:
64,192,22664,1,0,0:0:0:0:
192,192,22664,1,0,0:0:0:0:
448,192,22727,1,0,0:0:0:0:
64,192,22789,1,0,0:0:0:0:
192,192,22852,128,0,23039:0:0:0:0:
320,192,22852,128,0,23102:0:0:0:0:
448,192,22852,128,0,23164:0:0:0:0:
192,192,23102,1,0,0:0:0:0:
64,192,23102,1,0,0:0:0:0:
320,192,23164,1,0,0:0:0:0:
64,192,23227,1,0,0:0:0:0:
448,192,23227,1,0,0:0:0:0:
192,192,23289,1,0,0:0:0:0:
320,192,23352,1,0,0:0:0:0:
448,192,23414,1,0,0:0:0:0:
320,192,23477,1,0,0:0:0:0:
192,192,23477,1,0,0:0:0:0:
64,192,23539,1,0,0:0:0:0:
192,192,23602,1,0,0:0:0:0:
320,192,23664,1,0,0:0:0:0:
448,192,23664,1,0,0:0:0:0:
64,192,23727,1,0,0:0:0:0:
448,192,23789,1,0,0:0:0:0:
320,192,23852,128,0,24039:0:0:0:0:
192,192,23852,128,0,24164:0:0:0:0:
64,192,23852,128,0,24289:0:0:0:0:
320,192,24102,1,0,0:0:0:0:
448,192,24102,1,0,0:0:0:0:
192,192,24227,1,0,0:0:0:0:
448,192,24227,1,0,0:0:0:0:
320,192,24289,1,0,0:0:0:0:
64,192,24352,1,0,0:0:0:0:
192,192,24414,1,0,0:0:0:0:
448,192,24477,1,0,0:0:0:0:
320,192,24477,1,0,0:0:0:0:
192,192,24539,1,0,0:0:0:0:
320,192,24602,1,0,0:0:0:0:
64,192,24602,1,0,0:0:0:0:
448,192,24664,1,0,0:0:0:0:
192,192,24727,1,0,0:0:0:0:
64,192,24727,1,0,0:0:0:0:
448,192,24789,1,0,0:0:0:0:
320,192,24852,1,0,0:0:0:0:
192,192,24914,1,0,0:0:0:0:
64,192,24977,1,0,0:0:0:0:
320,192,24977,1,0,0:0:0:0:
448,192,25039,1,0,0:0:0:0:
320,192,25102,1,0,0:0:0:0:
64,192,25102,1,0,0:0:0:0:
448,192,25164,1,0,0:0:0:0:
64,192,25227,1,0,0:0:0:0:
192,192,25227,1,0,0:0:0:0:
320,192,25289,1,0,0:0:0:0:
192,192,25352,1,0,0:0:0:0:
64,192,25414,1,0,0:0:0:0:
320,192,25477,1,0,0:0:0:0:
192,192,25477,1,0,0:0:0:0:
64,192,25602,1,0,0:0:0:0:
320,192,25602,1,0,0:0:0:0:
448,192,25602,1,0,0:0:0:0:
64,192,25852,1,0,0:0:0:0:
192,192,25852,1,0,0:0:0:0:
320,192,25914,1,0,0:0:0:0:
448,192,25914,1,0,0:0:0:0:
64,192,25977,128,0,26102:0:0:0:0:
448,192,25977,128,0,26164:0:0:0:0:
192,192,26102,1,0,0:0:0:0:
320,192,26164,1,0,0:0:0:0:
64,192,26164,1,0,0:0:0:0:
448,192,26227,1,0,0:0:0:0:
320,192,26289,1,0,0:0:0:0:
64,192,26352,128,0,26477:0:0:0:0:
192,192,26352,128,0,26602:0:0:0:0:
320,192,26477,128,0,26852:0:0:0:0:
448,192,26477,1,0,0:0:0:0:
448,192,26602,128,0,26727:0:0:0:0:
192,192,26727,128,0,26977:0:0:0:0:
64,192,26727,1,0,0:0:0:0:
64,192,26852,128,0,27102:0:0:0:0:
320,192,26977,128,0,27227:0:0:0:0:
448,192,26977,1,0,0:0:0:0:
448,192,27102,128,0,27352:0:0:0:0:
192,192,27227,1,0,0:0:0:0:
64,192,27227,128,0,27727:0:0:0:0:
192,192,27352,128,0,27602:0:0:0:0:
320,192,27477,1,0,0:0:0:0:
448,192,27477,1,0,0:0:0:0:
448,192,27602,128,0,27664:0:0:0:0:
320,192,27664,128,0,27727:0:0:0:0:
448,192,27727,1,0,0:0:0:0:
192,192,27727,128,0,27789:0:0:0:0:
64,192,27789,128,0,27852:0:0:0:0:
192,192,27852,128,0,27914:0:0:0:0:
320,192,27914,128,0,27977:0:0:0:0:
448,192,27977,128,0,28102:0:0:0:0:
64,192,27977,128,0,28164:0:0:0:0:
320,192,28102,1,0,0:0:0:0:
448,192,28164,1,0,0:0:0:0:
192,192,28164,1,0,0:0:0:0:
64,192,28227,1,0,0:0:0:0:
192,192,28289,1,0,0:0:0:0:
448,192,28352,128,0,28602:0:0:0:0:
320,192,28352,128,0,28477:0:0:0:0:
64,192,28477,1,0,0:0:0:0:
192,192,28477,1,0,0:0:0:0:
64,192,28602,128,0,28727:0:0:0:0:
320,192,28602,128,0,28727:0:0:0:0:
192,192,28727,128,0,28852:0:0:0:0:
448,192,28727,128,0,28852:0:0:0:0:
64,192,28852,128,0,28977:0:0:0:0:
320,192,28852,128,0,28977:0:0:0:0:
448,192,28977,1,0,0:0:0:0:
192,192,28977,128,0,29039:0:0:0:0:
64,192,29039,128,0,29102:0:0:0:0:
320,192,29102,128,0,29164:0:0:0:0:
192,192,29164,128,0,29227:0:0:0:0:
448,192,29227,128,0,29289:0:0:0:0:
64,192,29227,1,0,0:0:0:0:
192,192,29289,128,0,29352:0:0:0:0:
320,192,29352,128,0,29414:0:0:0:0:
64,192,29414,128,0,29477:0:0:0:0:
320,192,29477,128,0,29539:0:0:0:0:
192,192,29477,1,0,0:0:0:0:
448,192,29539,128,0,29602:0:0:0:0:
192,192,29602,128,0,29664:0:0:0:0:
320,192,29664,128,0,29727:0:0:0:0:
64,192,29727,128,0,29789:0:0:0:0:
448,192,29727,1,0,0:0:0:0:
320,192,29789,128,0,29852:0:0:0:0:
192,192,29852,128,0,29914:0:0:0:0:
64,192,29914,128,0,29977:0:0:0:0:
448,192,29977,128,0,30102:0:0:0:0:
320,192,29977,128,0,30227:0:0:0:0:
192,192,30102,128,0,30227:0:0:0:0:
64,192,30227,128,0,30352:0:0:0:0:
448,192,30227,1,0,0:0:0:0:
192,192,30289,128,0,30414:0:0:0:0:
320,192,30352,128,0,30539:0:0:0:0:
448,192,30414,128,0,30477:0:0:0:0:
64,192,30477,128,0,30664:0:0:0:0:
192,192,30477,128,0,30602:0:0:0:0:
320,192,30602,1,0,0:0:0:0:
192,192,30664,1,0,0:0:0:0:
448,192,30664,1,0,0:0:0:0:
64,192,30727,1,0,0:0:0:0:
192,192,30789,1,0,0:0:0:0:
320,192,30852,128,0,30977:0:0:0:0:
448,192,30852,128,0,31102:0:0:0:0:
64,192,30977,1,0,0:0:0:0:
192,192,30977,1,0,0:0:0:0:
320,192,31102,1,0,0:0:0:0:
448,192,31227,128,0,31852:0:0:0:0:
64,192,31227,1,0,0:0:0:0:
320,192,31352,128,0,31727:0:0:0:0:
64,192,31477,1,0,0:0:0:0:
192,192,31477,128,0,31602:0:0:0:0:
64,192,31602,128,0,31852:0:0:0:0:
192,192,31727,128,0,31977:0:0:0:0:
320,192,31852,128,0,32102:0:0:0:0:
448,192,31977,128,0,32227:0:0:0:0:
64,192,31977,1,0,0:0:0:0:
192,192,32102,1,0,0:0:0:0:
320,192,32227,1,0,0:0:0:0:
64,192,32227,1,0,0:0:0:0:
448,192,32352,1,0,0:0:0:0:
64,192,32477,1,0,0:0:0:0:
320,192,32477,1,0,0:0:0:0:
192,192,32602,1,0,0:0:0:0:
64,192,32727,1,0,0:0:0:0:
448,192,32727,1,0,0:0:0:0:
320,192,32852,1,0,0:0:0:0:
192,192,32852,1,0,0:0:0:0:
64,192,32977,1,0,0:0:0:0:
448,192,32977,1,0,0:0:0:0:
320,192,33039,1,0,0:0:0:0:
192,192,33102,1,0,0:0:0:0:
448,192,33102,1,0,0:0:0:0:
320,192,33164,1,0,0:0:0:0:
192,192,33227,1,0,0:0:0:0:
64,192,33227,1,0,0:0:0:0:
64,192,33352,1,0,0:0:0:0:
448,192,33352,1,0,0:0:0:0:
448,192,33477,1,0,0:0:0:0:
320,192,33477,1,0,0:0:0:0:
448,192,33602,128,0,33664:0:0:0:0:
320,192,33602,128,0,33727:0:0:0:0:
192,192,33664,128,0,33789:0:0:0:0:
64,192,33727,128,0,33789:0:0:0:0:
192,192,33852,1,0,0:0:0:0:
64,192,33852,1,0,0:0:0:0:
64,192,33977,128,0,34268:0:0:0:0:
192,192,34018,128,0,34227:0:0:0:0:
320,192,34060,128,0,34185:0:0:0:0:
448,192,34102,128,0,34143:0:0:0:0:
448,192,34227,128,0,34393:0:0:0:0:
320,192,34268,128,0,34393:0:0:0:0:
192,192,34310,128,0,34393:0:0:0:0:
64,192,34352,128,0,34393:0:0:0:0:
64,192,34477,1,0,0:0:0:0:
448,192,34477,1,0,0:0:0:0:
64,192,34560,128,0,34977:0:0:0:0:
192,192,34643,1,0,0:0:0:0:
192,192,34727,128,0,34977:0:0:0:0:
320,192,34810,1,0,0:0:0:0:
320,192,34893,128,0,34977:0:0:0:0:
448,192,34977,1,0,0:0:0:0:
320,192,35039,1,0,0:0:0:0:
64,192,35102,1,0,0:0:0:0:
192,192,35164,1,0,0:0:0:0:
448,192,35227,1,0,0:0:0:0:
320,192,35227,1,0,0:0:0:0:
64,192,35289,1,0,0:0:0:0:
448,192,35352,1,0,0:0:0:0:
192,192,35414,1,0,0:0:0:0:
64,192,35477,1,0,0:0:0:0:
320,192,35477,1,0,0:0:0:0:
448,192,35539,1,0,0:0:0:0:
192,192,35602,1,0,0:0:0:0:
64,192,35664,1,0,0:0:0:0:
320,192,35727,1,0,0:0:0:0:
64,192,35789,1,0,0:0:0:0:
320,192,35852,1,0,0:0:0:0:
448,192,35914,1,0,0:0:0:0:
64,192,35977,128,0,36102:0:0:0:0:
192,192,36039,128,0,36227:0:0:0:0:
320,192,36102,128,0,36164:0:0:0:0:
64,192,36164,128,0,36289:0:0:0:0:
448,192,36227,128,0,36289:0:0:0:0:
320,192,36289,128,0,36352:0:0:0:0:
192,192,36352,128,0,36414:0:0:0:0:
64,192,36414,128,0,36477:0:0:0:0:
448,192,36477,128,0,36602:0:0:0:0:
320,192,36539,128,0,36727:0:0:0:0:
192,192,36602,128,0,36664:0:0:0:0:
448,192,36664,128,0,36789:0:0:0:0:
64,192,36727,128,0,36789:0:0:0:0:
192,192,36789,128,0,36852:0:0:0:0:
320,192,36852,128,0,36914:0:0:0:0:
448,192,36914,128,0,36977:0:0:0:0:
192,192,36977,128,0,37352:0:0:0:0:
64,192,36977,128,0,37102:0:0:0:0:
320,192,37164,128,0,37539:0:0:0:0:
64,192,37164,128,0,37289:0:0:0:0:
448,192,37352,128,0,37477:0:0:0:0:
64,192,37352,128,0,37727:0:0:0:0:
192,192,37539,128,0,37914:0:0:0:0:
448,192,37539,128,0,37664:0:0:0:0:
320,192,37727,128,0,37914:0:0:0:0:
448,192,37727,128,0,37914:0:0:0:0:
320,192,37977,1,0,0:0:0:0:
448,192,37977,1,0,0:0:0:0:
192,192,37977,1,0,0:0:0:0:
448,192,38227,1,0,0:0:0:0:
64,192,38227,1,0,0:0:0:0:
192,192,38227,1,0,0:0:0:0:
448,192,38310,128,0,38560:0:0:0:0:
320,192,38393,1,0,0:0:0:0:
320,192,38477,128,0,38727:0:0:0:0:
192,192,38560,1,0,0:0:0:0:
192,192,38643,128,0,38977:0:0:0:0:
64,192,38727,1,0,0:0:0:0:
448,192,38727,1,0,0:0:0:0:
320,192,38810,128,0,38977:0:0:0:0:
448,192,38893,128,0,38977:0:0:0:0:
64,192,38977,1,0,0:0:0:0:
192,192,39039,1,0,0:0:0:0:
448,192,39102,1,0,0:0:0:0:
320,192,39164,1,0,0:0:0:0:
64,192,39227,1,0,0:0:0:0:
192,192,39227,1,0,0:0:0:0:
448,192,39289,1,0,0:0:0:0:
64,192,39352,1,0,0:0:0:0:
320,192,39414,1,0,0:0:0:0:
192,192,39477,1,0,0:0:0:0:
448,192,39477,1,0,0:0:0:0:
64,192,39539,1,0,0:0:0:0:
320,192,39602,1,0,0:0:0:0:
448,192,39664,1,0,0:0:0:0:
192,192,39727,1,0,0:0:0:0:
448,192,39789,1,0,0:0:0:0:
192,192,39852,1,0,0:0:0:0:
64,192,39914,1,0,0:0:0:0:
448,192,39977,128,0,40102:0:0:0:0:
320,192,40039,128,0,40227:0:0:0:0:
192,192,40102,128,0,40164:0:0:0:0:
448,192,40164,128,0,40289:0:0:0:0:
64,192,40227,128,0,40289:0:0:0:0:
192,192,40289,128,0,40352:0:0:0:0:
320,192,40352,128,0,40414:0:0:0:0:
448,192,40414,128,0,40477:0:0:0:0:
64,192,40477,128,0,40602:0:0:0:0:
192,192,40539,128,0,40727:0:0:0:0:
320,192,40602,128,0,40664:0:0:0:0:
64,192,40664,128,0,40789:0:0:0:0:
448,192,40727,128,0,40789:0:0:0:0:
320,192,40789,128,0,40852:0:0:0:0:
192,192,40852,128,0,40914:0:0:0:0:
64,192,40914,128,0,40977:0:0:0:0:
320,192,40977,128,0,41352:0:0:0:0:
448,192,40977,128,0,41102:0:0:0:0:
192,192,41164,128,0,41539:0:0:0:0:
448,192,41164,128,0,41289:0:0:0:0:
448,192,41352,128,0,41727:0:0:0:0:
64,192,41352,128,0,41477:0:0:0:0:
320,192,41539,128,0,41914:0:0:0:0:
64,192,41539,128,0,41664:0:0:0:0:
192,192,41727,128,0,41914:0:0:0:0:
64,192,41727,128,0,41914:0:0:0:0:
64,192,41977,1,0,0:0:0:0:
320,192,41977,1,0,0:0:0:0:
192,192,41977,1,0,0:0:0:0:
320,192,42227,128,0,42289:0:0:0:0:
192,192,42227,128,0,42414:0:0:0:0:
448,192,42227,128,0,42664:0:0:0:0:
64,192,42227,128,0,42539:0:0:0:0:
320,192,42352,128,0,42914:0:0:0:0:
192,192,42477,128,0,42789:0:0:0:0:
64,192,42602,128,0,42977:0:0:0:0:
448,192,42727,128,0,43039:0:0:0:0:
192,192,42852,128,0,43102:0:0:0:0:
320,192,42977,128,0,43227:0:0:0:0:
448,192,43102,128,0,43352:0:0:0:0:
64,192,43227,128,0,43602:0:0:0:0:
192,192,43352,128,0,43477:0:0:0:0:
448,192,43477,128,0,43852:0:0:0:0:
192,192,43539,1,0,0:0:0:0:
320,192,43602,128,0,43727:0:0:0:0:
64,192,43727,128,0,43977:0:0:0:0:
192,192,43852,128,0,43977:0:0:0:0:
320,192,43977,128,0,44227:0:0:0:0:
192,192,44060,128,0,44143:0:0:0:0:
448,192,44143,128,0,44310:0:0:0:0:
192,192,44227,128,0,44477:0:0:0:0:
320,192,44310,128,0,44393:0:0:0:0:
64,192,44393,128,0,44477:0:0:0:0:
448,192,44477,128,0,44539:0:0:0:0:
320,192,44539,128,0,44602:0:0:0:0:
64,192,44602,128,0,44664:0:0:0:0:
192,192,44664,128,0,44727:0:0:0:0:
320,192,44727,128,0,44789:0:0:0:0:
448,192,44789,128,0,44852:0:0:0:0:
192,192,44852,128,0,44914:0:0:0:0:
64,192,44914,128,0,44977:0:0:0:0:
192,192,44977,128,0,45164:0:0:0:0:
320,192,44977,128,0,45102:0:0:0:0:
448,192,44977,128,0,45039:0:0:0:0:
320,192,45352,128,0,45539:0:0:0:0:
64,192,45352,128,0,45414:0:0:0:0:
192,192,45352,128,0,45477:0:0:0:0:
448,192,45727,128,0,46664:0:0:0:0:
192,192,45727,128,0,46914:0:0:0:0:
320,192,45727,128,0,47039:0:0:0:0:
64,192,45727,128,0,47289:0:0:0:0:
448,192,46727,128,0,46789:0:0:0:0:
192,192,46977,128,0,47039:0:0:0:0:
320,192,47102,128,0,47164:0:0:0:0:
448,192,47227,128,0,47289:0:0:0:0:
64,192,47352,128,0,47414:0:0:0:0:
320,192,47477,128,0,47539:0:0:0:0:
192,192,47602,128,0,47664:0:0:0:0:
64,192,47727,128,0,47789:0:0:0:0:
448,192,47852,128,0,47914:0:0:0:0:
64,192,47977,128,0,48039:0:0:0:0:
192,192,47977,128,0,48039:0:0:0:0:
320,192,48977,128,0,49039:0:0:0:0:
448,192,48977,128,0,49039:0:0:0:0:
64,192,49977,1,0,0:0:0:0:
448,192,49977,1,0,0:0:0:0:
192,192,50102,1,0,0:0:0:0:
448,192,50164,1,0,0:0:0:0:
64,192,50227,1,0,0:0:0:0:
320,192,50227,1,0,0:0:0:0:
448,192,50352,1,0,0:0:0:0:
192,192,50352,1,0,0:0:0:0:
64,192,50602,1,0,0:0:0:0:
320,192,50727,1,0,0:0:0:0:
192,192,50852,1,0,0:0:0:0:
448,192,50977,1,0,0:0:0:0:
64,192,50977,128,0,51102:0:0:0:0:
64,192,51227,1,0,0:0:0:0:
64,192,51477,1,0,0:0:0:0:
448,192,51477,128,0,51602:0:0:0:0:
448,192,51664,1,0,0:0:0:0:
192,192,51664,1,0,0:0:0:0:
64,192,51852,1,0,0:0:0:0:
320,192,51852,1,0,0:0:0:0:
64,192,51977,1,0,0:0:0:0:
448,192,51977,128,0,52102:0:0:0:0:
320,192,52102,128,0,52227:0:0:0:0:
192,192,52227,128,0,52352:0:0:0:0:
64,192,52352,128,0,52477:0:0:0:0:
448,192,52602,1,0,0:0:0:0:
320,192,52602,1,0,0:0:0:0:
192,192,52789,1,0,0:0:0:0:
64,192,52789,1,0,0:0:0:0:
448,192,52977,1,0,0:0:0:0:
64,192,52977,128,0,53102:0:0:0:0:
192,192,53102,128,0,53227:0:0:0:0:
320,192,53227,128,0,53352:0:0:0:0:
448,192,53352,128,0,53477:0:0:0:0:
192,192,53727,1,0,0:0:0:0:
320,192,53852,1,0,0:0:0:0:
64,192,53977,1,0,0:0:0:0:
448,192,53977,128,0,54102:0:0:0:0:
320,192,54102,128,0,54227:0:0:0:0:
192,192,54227,128,0,54352:0:0:0:0:
64,192,54352,128,0,54477:0:0:0:0:
320,192,54727,1,0,0:0:0:0:
192,192,54852,1,0,0:0:0:0:
448,192,54977,1,0,0:0:0:0:
64,192,54977,128,0,55227:0:0:0:0:
192,192,55102,128,0,55227:0:0:0:0:
320,192,55227,128,0,55477:0:0:0:0:
448,192,55352,128,0,55477:0:0:0:0:
64,192,55477,1,0,0:0:0:0:
64,192,55664,1,0,0:0:0:0:
192,192,55664,1,0,0:0:0:0:
320,192,55852,1,0,0:0:0:0:
448,192,55852,1,0,0:0:0:0:
64,192,55977,1,0,0:0:0:0:
448,192,55977,128,0,56227:0:0:0:0:
320,192,56102,128,0,56352:0:0:0:0:
192,192,56227,128,0,56477:0:0:0:0:
448,192,56289,1,0,0:0:0:0:
64,192,56352,128,0,56602:0:0:0:0:
320,192,56414,1,0,0:0:0:0:
448,192,56477,1,0,0:0:0:0:
192,192,56727,1,0,0:0:0:0:
64,192,56727,1,0,0:0:0:0:
448,192,56977,1,0,0:0:0:0:
64,192,56977,128,0,57227:0:0:0:0:
192,192,57102,128,0,57352:0:0:0:0:
320,192,57227,128,0,57477:0:0:0:0:
448,192,57352,128,0,57602:0:0:0:0:
192,192,57414,1,0,0:0:0:0:
64,192,57477,1,0,0:0:0:0:
64,192,57602,1,0,0:0:0:0:
192,192,57602,1,0,0:0:0:0:
320,192,57664,1,0,0:0:0:0:
448,192,57664,1,0,0:0:0:0:
192,192,57727,128,0,57789:0:0:0:0:
64,192,57727,128,0,57852:0:0:0:0:
448,192,57789,128,0,57914:0:0:0:0:
320,192,57852,128,0,57914:0:0:0:0:
192,192,57914,1,0,0:0:0:0:
64,192,57977,1,0,0:0:0:0:
320,192,57977,1,0,0:0:0:0:
448,192,57977,1,0,0:0:0:0:
448,192,58102,128,0,58289:0:0:0:0:
320,192,58102,128,0,58289:0:0:0:0:
64,192,58102,128,0,58289:0:0:0:0:
320,192,58352,1,0,0:0:0:0:
192,192,58352,1,0,0:0:0:0:
64,192,58352,1,0,0:0:0:0:
448,192,58414,1,0,0:0:0:0:
64,192,58477,128,0,58977:0:0:0:0:
192,192,58477,128,0,59060:0:0:0:0:
320,192,58477,128,0,59143:0:0:0:0:
64,192,59060,128,0,59477:0:0:0:0:
192,192,59143,128,0,59393:0:0:0:0:
320,192,59227,128,0,59310:0:0:0:0:
448,192,59310,128,0,59560:0:0:0:0:
320,192,59393,128,0,59477:0:0:0:0:
192,192,59477,128,0,59727:0:0:0:0:
320,192,59560,128,0,59727:0:0:0:0:
448,192,59643,128,0,59727:0:0:0:0:
64,192,59727,1,0,0:0:0:0:
192,192,59789,1,0,0:0:0:0:
320,192,59852,1,0,0:0:0:0:
64,192,59914,1,0,0:0:0:0:
448,192,59977,1,0,0:0:0:0:
192,192,61352,128,0,61539:0:0:0:0:
64,192,61414,128,0,61477:0:0:0:0:
320,192,61477,128,0,61664:0:0:0:0:
448,192,61539,128,0,61602:0:0:0:0:
64,192,61602,128,0,61789:0:0:0:0:
192,192,61664,128,0,61727:0:0:0:0:
448,192,61727,128,0,61914:0:0:0:0:
320,192,61789,128,0,61852:0:0:0:0:
64,192,61852,128,0,61914:0:0:0:0:
192,192,61914,1,0,0:0:0:0:
192,192,61977,128,0,62289:0:0:0:0:
64,192,61977,128,0,62164:0:0:0:0:
448,192,61977,128,0,62102:0:0:0:0:
320,192,61977,128,0,62039:0:0:0:0:
320,192,62102,128,0,62602:0:0:0:0:
448,192,62164,128,0,62414:0:0:0:0:
64,192,62227,128,0,62914:0:0:0:0:
192,192,62352,128,0,62789:0:0:0:0:
448,192,62477,128,0,62914:0:0:0:0:
320,192,62664,128,0,62914:0:0:0:0:
192,192,62852,128,0,62914:0:0:0:0:
64,192,62977,1,0,0:0:0:0:
192,192,62977,1,0,0:0:0:0:
320,192,62977,1,0,0:0:0:0:
448,192,62977,1,0,0:0:0:0:
192,192,63102,1,0,0:0:0:0:
448,192,63164,1,0,0:0:0:0:
192,192,63227,1,0,0:0:0:0:
64,192,63352,1,0,0:0:0:0:
320,192,63477,1,0,0:0:0:0:
192,192,63539,1,0,0:0:0:0:
448,192,63602,1,0,0:0:0:0:
64,192,63727,1,0,0:0:0:0:
192,192,63727,1,0,0:0:0:0:
320,192,63789,1,0,0:0:0:0:
448,192,63789,1,0,0:0:0:0:
64,192,63852,1,0,0:0:0:0:
192,192,63852,1,0,0:0:0:0:
320,192,63914,1,0,0:0:0:0:
448,192,63914,1,0,0:0:0:0:
192,192,63977,128,0,64039:0:0:0:0:
320,192,63977,128,0,64102:0:0:0:0:
448,192,63977,128,0,64414:0:0:0:0:
64,192,63977,128,0,64164:0:0:0:0:
192,192,64102,128,0,64289:0:0:0:0:
320,192,64164,128,0,64414:0:0:0:0:
64,192,64227,128,0,64789:0:0:0:0:
192,192,64352,128,0,64602:0:0:0:0:
320,192,64477,128,0,64602:0:0:0:0:
448,192,64477,128,0,64914:0:0:0:0:
320,192,64664,128,0,64914:0:0:0:0:
192,192,64664,128,0,64789:0:0:0:0:
192,192,64852,128,0,64914:0:0:0:0:
64,192,64852,128,0,64914:0:0:0:0:
64,192,64977,1,0,0:0:0:0:
192,192,64977,1,0,0:0:0:0:
320,192,64977,1,0,0:0:0:0:
448,192,64977,1,0,0:0:0:0:
192,192,65102,1,0,0:0:0:0:
64,192,65164,1,0,0:0:0:0:
320,192,65227,1,0,0:0:0:0:
320,192,65352,1,0,0:0:0:0:
320,192,65477,1,0,0:0:0:0:
192,192,65477,1,0,0:0:0:0:
64,192,65539,1,0,0:0:0:0:
320,192,65602,1,0,0:0:0:0:
448,192,65602,1,0,0:0:0:0:
448,192,65727,1,0,0:0:0:0:
64,192,65727,1,0,0:0:0:0:
192,192,65789,1,0,0:0:0:0:
320,192,65852,1,0,0:0:0:0:
448,192,65914,1,0,0:0:0:0:
192,192,65977,1,0,0:0:0:0:
64,192,65977,1,0,0:0:0:0:
320,192,66102,1,0,0:0:0:0:
192,192,66164,1,0,0:0:0:0:
448,192,66227,1,0,0:0:0:0:
64,192,66227,1,0,0:0:0:0:
192,192,66352,1,0,0:0:0:0:
320,192,66477,1,0,0:0:0:0:
448,192,66477,1,0,0:0:0:0:
64,192,66602,1,0,0:0:0:0:
320,192,66664,1,0,0:0:0:0:
448,192,66727,1,0,0:0:0:0:
192,192,66727,1,0,0:0:0:0:
320,192,66852,1,0,0:0:0:0:
64,192,66977,1,0,0:0:0:0:
192,192,66977,1,0,0:0:0:0:
448,192,67102,1,0,0:0:0:0:
320,192,67164,1,0,0:0:0:0:
448,192,67227,1,0,0:0:0:0:
64,192,67227,1,0,0:0:0:0:
192,192,67352,1,0,0:0:0:0:
448,192,67477,1,0,0:0:0:0:
320,192,67477,1,0,0:0:0:0:
192,192,67539,1,0,0:0:0:0:
448,192,67602,1,0,0:0:0:0:
64,192,67602,1,0,0:0:0:0:
64,192,67727,1,0,0:0:0:0:
192,192,67727,1,0,0:0:0:0:
320,192,67789,1,0,0:0:0:0:
192,192,67852,1,0,0:0:0:0:
64,192,67852,1,0,0:0:0:0:
448,192,67914,1,0,0:0:0:0:
320,192,67977,128,0,68039:0:0:0:0:
192,192,67977,128,0,68102:0:0:0:0:
64,192,67977,128,0,68164:0:0:0:0:
448,192,68102,128,0,68289:0:0:0:0:
320,192,68164,128,0,68289:0:0:0:0:
192,192,68227,128,0,68289:0:0:0:0:
64,192,68352,1,0,0:0:0:0:
192,192,68352,1,0,0:0:0:0:
320,192,68414,1,0,0:0:0:0:
448,192,68414,1,0,0:0:0:0:
192,192,68477,128,0,68852:0:0:0:0:
64,192,68477,1,0,0:0:0:0:
320,192,68664,128,0,68789:0:0:0:0:
448,192,68727,1,0,0:0:0:0:
64,192,68727,128,0,68914:0:0:0:0:
448,192,68852,128,0,68977:0:0:0:0:
320,192,68914,128,0,68977:0:0:0:0:
64,192,68977,1,0,0:0:0:0:
192,192,68977,1,0,0:0:0:0:
320,192,69039,1,0,0:0:0:0:
64,192,69102,1,0,0:0:0:0:
192,192,69102,1,0,0:0:0:0:
448,192,69164,1,0,0:0:0:0:
64,192,69227,1,0,0:0:0:0:
320,192,69227,1,0,0:0:0:0:
192,192,69289,1,0,0:0:0:0:
320,192,69352,1,0,0:0:0:0:
448,192,69352,1,0,0:0:0:0:
64,192,69477,1,0,0:0:0:0:
192,192,69477,1,0,0:0:0:0:
320,192,69477,1,0,0:0:0:0:
448,192,69602,1,0,0:0:0:0:
320,192,69643,1,0,0:0:0:0:
192,192,69685,1,0,0:0:0:0:
64,192,69727,1,0,0:0:0:0:
448,192,69768,1,0,0:0:0:0:
320,192,69810,1,0,0:0:0:0:
192,192,69852,1,0,0:0:0:0:
64,192,69893,1,0,0:0:0:0:
320,192,69935,1,0,0:0:0:0:
448,192,69977,1,0,0:0:0:0:
192,192,69977,1,0,0:0:0:0:
320,192,70102,1,0,0:0:0:0:
192,192,70164,1,0,0:0:0:0:
64,192,70227,1,0,0:0:0:0:
448,192,70227,1,0,0:0:0:0:
64,192,70352,1,0,0:0:0:0:
320,192,70352,1,0,0:0:0:0:
448,192,70477,128,0,70602:0:0:0:0:
192,192,70477,128,0,70664:0:0:0:0:
320,192,70602,1,0,0:0:0:0:
448,192,70664,128,0,70852:0:0:0:0:
64,192,70664,128,0,70789:0:0:0:0:
192,192,70727,1,0,0:0:0:0:
320,192,70852,128,0,70977:0:0:0:0:
64,192,70852,128,0,70977:0:0:0:0:
448,192,70977,1,0,0:0:0:0:
192,192,70977,1,0,0:0:0:0:
64,192,71102,1,0,0:0:0:0:
192,192,71164,1,0,0:0:0:0:
448,192,71227,1,0,0:0:0:0:
320,192,71227,1,0,0:0:0:0:
64,192,71352,1,0,0:0:0:0:
192,192,71352,1,0,0:0:0:0:
192,192,71477,1,0,0:0:0:0:
448,192,71477,1,0,0:0:0:0:
320,192,71539,1,0,0:0:0:0:
448,192,71602,1,0,0:0:0:0:
64,192,71664,1,0,0:0:0:0:
448,192,71727,1,0,0:0:0:0:
192,192,71727,1,0,0:0:0:0:
320,192,71789,1,0,0:0:0:0:
192,192,71852,1,0,0:0:0:0:
64,192,71914,1,0,0:0:0:0:
320,192,71977,1,0,0:0:0:0:
448,192,71977,128,0,72414:0:0:0:0:
320,192,72102,128,0,72289:0:0:0:0:
192,192,72164,128,0,72227:0:0:0:0:
64,192,72227,128,0,72602:0:0:0:0:
192,192,72352,128,0,72477:0:0:0:0:
448,192,72477,1,0,0:0:0:0:
320,192,72477,128,0,72852:0:0:0:0:
448,192,72602,128,0,72727:0:0:0:0:
64,192,72727,1,0,0:0:0:0:
192,192,72727,128,0,73102:0:0:0:0:
64,192,72852,128,0,72977:0:0:0:0:
320,192,72977,128,0,73227:0:0:0:0:
448,192,72977,128,0,73352:0:0:0:0:
64,192,73102,1,0,0:0:0:0:
192,192,73164,1,0,0:0:0:0:
64,192,73227,1,0,0:0:0:0:
320,192,73289,1,0,0:0:0:0:
192,192,73352,1,0,0:0:0:0:
448,192,73414,1,0,0:0:0:0:
320,192,73477,1,0,0:0:0:0:
64,192,73477,1,0,0:0:0:0:
192,192,73539,1,0,0:0:0:0:
64,192,73602,1,0,0:0:0:0:
320,192,73664,1,0,0:0:0:0:
448,192,73727,1,0,0:0:0:0:
64,192,73727,1,0,0:0:0:0:
320,192,73789,1,0,0:0:0:0:
64,192,73852,1,0,0:0:0:0:
192,192,73914,1,0,0:0:0:0:
320,192,73977,128,0,74102:0:0:0:0:
448,192,73977,128,0,74102:0:0:0:0:
64,192,74102,1,0,0:0:0:0:
320,192,74164,128,0,74289:0:0:0:0:
192,192,74164,128,0,74289:0:0:0:0:
448,192,74227,1,0,0:0:0:0:
64,192,74227,1,0,0:0:0:0:
320,192,74352,128,0,74477:0:0:0:0:
448,192,74352,128,0,74477:0:0:0:0:
64,192,74477,1,0,0:0:0:0:
192,192,74477,1,0,0:0:0:0:
320,192,74602,128,0,74789:0:0:0:0:
192,192,74664,128,0,74727:0:0:0:0:
448,192,74727,128,0,74852:0:0:0:0:
64,192,74727,128,0,74852:0:0:0:0:
192,192,74789,128,0,74852:0:0:0:0:
320,192,74852,128,0,74977:0:0:0:0:
448,192,74914,128,0,74977:0:0:0:0:
192,192,74977,128,0,75102:0:0:0:0:
64,192,74977,128,0,75102:0:0:0:0:
448,192,75102,1,0,0:0:0:0:
192,192,75164,128,0,75289:0:0:0:0:
320,192,75164,128,0,75289:0:0:0:0:
448,192,75227,1,0,0:0:0:0:
64,192,75227,1,0,0:0:0:0:
64,192,75352,128,0,75477:0:0:0:0:
192,192,75352,128,0,75477:0:0:0:0:
320,192,75477,1,0,0:0:0:0:
448,192,75477,1,0,0:0:0:0:
192,192,75602,128,0,75789:0:0:0:0:
320,192,75664,128,0,75727:0:0:0:0:
64,192,75727,128,0,75852:0:0:0:0:
448,192,75727,128,0,75852:0:0:0:0:
320,192,75789,128,0,75852:0:0:0:0:
192,192,75852,128,0,75977:0:0:0:0:
64,192,75914,128,0,75977:0:0:0:0:
320,192,75977,128,0,76289:0:0:0:0:
448,192,75977,128,0,76352:0:0:0:0:
192,192,76102,128,0,76227:0:0:0:0:
64,192,76102,128,0,76164:0:0:0:0:
64,192,76227,128,0,76352:0:0:0:0:
192,192,76289,128,0,76352:0:0:0:0:
320,192,76352,128,0,76477:0:0:0:0:
448,192,76414,128,0,76477:0:0:0:0:
64,192,76477,1,0,0:0:0:0:
192,192,76477,128,0,76977:0:0:0:0:
64,192,76602,128,0,76852:0:0:0:0:
320,192,76727,1,0,0:0:0:0:
448,192,76727,1,0,0:0:0:0:
448,192,76852,1,0,0:0:0:0:
320,192,76852,128,0,77102:0:0:0:0:
448,192,76977,128,0,77227:0:0:0:0:
64,192,76977,1,0,0:0:0:0:
192,192,77102,1,0,0:0:0:0:
64,192,77227,1,0,0:0:0:0:
320,192,77227,1,0,0:0:0:0:
448,192,77352,1,0,0:0:0:0:
192,192,77477,1,0,0:0:0:0:
64,192,77477,1,0,0:0:0:0:
448,192,77539,1,0,0:0:0:0:
320,192,77539,1,0,0:0:0:0:
192,192,77602,1,0,0:0:0:0:
64,192,77602,1,0,0:0:0:0:
64,192,77727,1,0,0:0:0:0:
448,192,77727,1,0,0:0:0:0:
192,192,77852,1,0,0:0:0:0:
320,192,77852,1,0,0:0:0:0:
448,192,77977,1,0,0:0:0:0:
64,192,77977,1,0,0:0:0:0:
320,192,77977,1,0,0:0:0:0:
192,192,78102,1,0,0:0:0:0:
320,192,78164,1,0,0:0:0:0:
64,192,78164,1,0,0:0:0:0:
448,192,78227,1,0,0:0:0:0:
192,192,78227,1,0,0:0:0:0:
64,192,78352,1,0,0:0:0:0:
448,192,78352,1,0,0:0:0:0:
320,192,78477,1,0,0:0:0:0:
192,192,78477,1,0,0:0:0:0:
64,192,78539,1,0,0:0:0:0:
448,192,78539,1,0,0:0:0:0:
320,192,78602,1,0,0:0:0:0:
448,192,78727,1,0,0:0:0:0:
64,192,78727,1,0,0:0:0:0:
320,192,78789,1,0,0:0:0:0:
448,192,78852,1,0,0:0:0:0:
192,192,78852,1,0,0:0:0:0:
320,192,78914,1,0,0:0:0:0:
192,192,78977,1,0,0:0:0:0:
64,192,78977,1,0,0:0:0:0:
448,192,79102,1,0,0:0:0:0:
320,192,79164,1,0,0:0:0:0:
64,192,79164,1,0,0:0:0:0:
448,192,79227,1,0,0:0:0:0:
192,192,79227,1,0,0:0:0:0:
320,192,79352,1,0,0:0:0:0:
448,192,79477,1,0,0:0:0:0:
64,192,79477,1,0,0:0:0:0:
192,192,79539,1,0,0:0:0:0:
320,192,79539,1,0,0:0:0:0:
64,192,79602,1,0,0:0:0:0:
192,192,79727,1,0,0:0:0:0:
320,192,79727,1,0,0:0:0:0:
64,192,79789,1,0,0:0:0:0:
192,192,79852,1,0,0:0:0:0:
448,192,79852,1,0,0:0:0:0:
64,192,79914,1,0,0:0:0:0:
320,192,79977,1,0,0:0:0:0:
448,192,79977,1,0,0:0:0:0:
192,192,80102,1,0,0:0:0:0:
64,192,80164,1,0,0:0:0:0:
448,192,80164,1,0,0:0:0:0:
192,192,80227,1,0,0:0:0:0:
320,192,80227,1,0,0:0:0:0:
64,192,80352,1,0,0:0:0:0:
320,192,80352,1,0,0:0:0:0:
448,192,80477,1,0,0:0:0:0:
192,192,80477,1,0,0:0:0:0:
64,192,80602,1,0,0:0:0:0:
448,192,80602,1,0,0:0:0:0:
192,192,80727,1,0,0:0:0:0:
320,192,80727,1,0,0:0:0:0:
64,192,80789,1,0,0:0:0:0:
320,192,80852,1,0,0:0:0:0:
448,192,80852,1,0,0:0:0:0:
64,192,80914,1,0,0:0:0:0:
192,192,80977,128,0,81227:0:0:0:0:
320,192,80977,128,0,81477:0:0:0:0:
448,192,80977,128,0,81727:0:0:0:0:
64,192,81477,128,0,81977:0:0:0:0:
192,192,81727,128,0,81977:0:0:0:0:
320,192,81977,1,0,0:0:0:0:
448,192,81977,1,0,0:0:0:0:
320,192,82227,1,0,0:0:0:0:
64,192,82227,1,0,0:0:0:0:
448,192,82310,1,0,0:0:0:0:
192,192,82310,1,0,0:0:0:0:
64,192,82393,1,0,0:0:0:0:
448,192,82393,1,0,0:0:0:0:
192,192,82477,1,0,0:0:0:0:
320,192,82477,1,0,0:0:0:0:
448,192,82727,1,0,0:0:0:0:
192,192,82727,1,0,0:0:0:0:
64,192,82810,1,0,0:0:0:0:
320,192,82810,1,0,0:0:0:0:
448,192,82893,1,0,0:0:0:0:
64,192,82893,1,0,0:0:0:0:
320,192,82977,1,0,0:0:0:0:
192,192,82977,1,0,0:0:0:0:
320,192,83227,1,0,0:0:0:0:
64,192,83227,1,0,0:0:0:0:
448,192,83310,1,0,0:0:0:0:
192,192,83310,1,0,0:0:0:0:
448,192,83393,1,0,0:0:0:0:
64,192,83393,1,0,0:0:0:0:
320,192,83477,128,0,83727:0:0:0:0:
192,192,83477,128,0,83727:0:0:0:0:
448,192,83727,128,0,83893:0:0:0:0:
64,192,83727,128,0,83893:0:0:0:0:
448,192,83977,128,0,84789:0:0:0:0:
64,192,83977,128,0,84164:0:0:0:0:
192,192,83977,128,0,84289:0:0:0:0:
320,192,83977,128,0,84414:0:0:0:0:
64,192,84227,128,0,84789:0:0:0:0:
192,192,84352,128,0,84539:0:0:0:0:
320,192,84477,128,0,84664:0:0:0:0:
192,192,84602,128,0,84789:0:0:0:0:
320,192,84727,128,0,84789:0:0:0:0:
448,192,84852,1,0,0:0:0:0:
64,192,84852,1,0,0:0:0:0:
192,192,84852,1,0,0:0:0:0:
320,192,84852,1,0,0:0:0:0:
448,192,84977,128,0,85164:0:0:0:0:
320,192,84977,128,0,85227:0:0:0:0:
192,192,84977,128,0,85289:0:0:0:0:
64,192,84977,128,0,85352:0:0:0:0:
448,192,85227,128,0,85414:0:0:0:0:
320,192,85289,128,0,85477:0:0:0:0:
192,192,85352,128,0,85539:0:0:0:0:
64,192,85414,128,0,85602:0:0:0:0:
448,192,85477,128,0,85664:0:0:0:0:
320,192,85539,128,0,85852:0:0:0:0:
192,192,85602,128,0,85789:0:0:0:0:
64,192,85664,128,0,85727:0:0:0:0:
448,192,85727,128,0,85914:0:0:0:0:
192,192,85852,128,0,87289:0:0:0:0:
320,192,85914,128,0,86789:0:0:0:0:
448,192,85977,128,0,86289:0:0:0:0:
64,192,85977,128,0,87789:0:0:0:0:
448,192,86352,1,0,0:0:0:0:
448,192,86477,128,0,86602:0:0:0:0:
320,192,86852,1,0,0:0:0:0:
320,192,86977,128,0,87102:0:0:0:0:
192,192,87352,1,0,0:0:0:0:
320,192,87414,1,0,0:0:0:0:
192,192,87477,128,0,87602:0:0:0:0:
192,192,87852,1,0,0:0:0:0:
64,192,87852,1,0,0:0:0:0:
448,192,87977,128,0,88227:0:0:0:0:
64,192,87977,128,0,88227:0:0:0:0:
192,192,88352,1,0,0:0:0:0:
448,192,88352,1,0,0:0:0:0:
192,192,88477,128,0,88727:0:0:0:0:
448,192,88477,128,0,88727:0:0:0:0:
64,192,88852,1,0,0:0:0:0:
320,192,88852,1,0,0:0:0:0:
320,192,88977,128,0,89227:0:0:0:0:
64,192,88977,128,0,89227:0:0:0:0:
64,192,89352,1,0,0:0:0:0:
448,192,89352,1,0,0:0:0:0:
320,192,89477,1,0,0:0:0:0:
192,192,89539,1,0,0:0:0:0:
320,192,89602,1,0,0:0:0:0:
64,192,89664,1,0,0:0:0:0:
448,192,89727,1,0,0:0:0:0:
192,192,89789,1,0,0:0:0:0:
64,192,89852,1,0,0:0:0:0:
320,192,89914,1,0,0:0:0:0:
64,192,89977,128,0,90227:0:0:0:0:
448,192,89977,128,0,90227:0:0:0:0:
192,192,90352,1,0,0:0:0:0:
448,192,90352,1,0,0:0:0:0:
448,192,90477,128,0,90727:0:0:0:0:
192,192,90477,128,0,90727:0:0:0:0:
320,192,90852,1,0,0:0:0:0:
64,192,90852,1,0,0:0:0:0:
64,192,90977,128,0,91227:0:0:0:0:
320,192,90977,128,0,91227:0:0:0:0:
64,192,91352,1,0,0:0:0:0:
448,192,91352,1,0,0:0:0:0:
320,192,91477,1,0,0:0:0:0:
192,192,91539,1,0,0:0:0:0:
320,192,91602,1,0,0:0:0:0:
64,192,91664,1,0,0:0:0:0:
448,192,91727,1,0,0:0:0:0:
192,192,91727,1,0,0:0:0:0:
64,192,91852,1,0,0:0:0:0:
320,192,91852,1,0,0:0:0:0:
448,192,91977,128,0,92227:0:0:0:0:
64,192,91977,128,0,92727:0:0:0:0:
192,192,92352,1,0,0:0:0:0:
448,192,92352,1,0,0:0:0:0:
192,192,92477,128,0,93164:0:0:0:0:
448,192,92477,128,0,93289:0:0:0:0:
64,192,92852,1,0,0:0:0:0:
320,192,92852,1,0,0:0:0:0:
64,192,92977,128,0,93164:0:0:0:0:
320,192,92977,128,0,93289:0:0:0:0:
192,192,93227,128,0,93414:0:0:0:0:
64,192,93227,128,0,93602:0:0:0:0:
320,192,93352,128,0,93539:0:0:0:0:
448,192,93352,128,0,93664:0:0:0:0:
192,192,93477,128,0,93727:0:0:0:0:
320,192,93602,128,0,93852:0:0:0:0:
448,192,93727,128,0,93977:0:0:0:0:
64,192,93977,128,0,94164:0:0:0:0:
192,192,93977,128,0,94102:0:0:0:0:
320,192,93977,128,0,94039:0:0:0:0:
448,192,94039,1,0,0:0:0:0:
320,192,94102,1,0,0:0:0:0:
192,192,94164,1,0,0:0:0:0:
64,192,94227,1,0,0:0:0:0:
192,192,94352,128,0,94414:0:0:0:0:
320,192,94352,128,0,94477:0:0:0:0:
448,192,94352,128,0,94539:0:0:0:0:
64,192,94414,1,0,0:0:0:0:
192,192,94477,1,0,0:0:0:0:
320,192,94539,1,0,0:0:0:0:
448,192,94602,1,0,0:0:0:0:
320,192,94727,128,0,94789:0:0:0:0:
192,192,94727,128,0,94852:0:0:0:0:
64,192,94727,128,0,94914:0:0:0:0:
448,192,94789,1,0,0:0:0:0:
320,192,94852,1,0,0:0:0:0:
192,192,94914,1,0,0:0:0:0:
64,192,94977,128,0,95539:0:0:0:0:
448,192,94977,1,0,0:0:0:0:
192,192,95164,128,0,95539:0:0:0:0:
448,192,95164,1,0,0:0:0:0:
448,192,95352,1,0,0:0:0:0:
320,192,95352,128,0,95539:0:0:0:0:
448,192,95477,128,0,95539:0:0:0:0:
448,192,95602,1,0,0:0:0:0:
64,192,95602,1,0,0:0:0:0:
320,192,95664,1,0,0:0:0:0:
192,192,95664,1,0,0:0:0:0:
64,192,95727,1,0,0:0:0:0:
448,192,95727,1,0,0:0:0:0:
320,192,95977,1,0,0:0:0:0:
448,192,95977,1,0,0:0:0:0:
64,192,95977,1,0,0:0:0:0:
192,192,96102,1,0,0:0:0:0:
320,192,96227,1,0,0:0:0:0:
448,192,96227,1,0,0:0:0:0:
64,192,96352,1,0,0:0:0:0:
320,192,96414,1,0,0:0:0:0:
192,192,96477,1,0,0:0:0:0:
448,192,96477,1,0,0:0:0:0:
320,192,96602,1,0,0:0:0:0:
192,192,96664,1,0,0:0:0:0:
64,192,96727,1,0,0:0:0:0:
448,192,96727,1,0,0:0:0:0:
192,192,96852,1,0,0:0:0:0:
448,192,96977,1,0,0:0:0:0:
320,192,96977,1,0,0:0:0:0:
192,192,97102,1,0,0:0:0:0:
64,192,97227,1,0,0:0:0:0:
448,192,97227,1,0,0:0:0:0:
320,192,97352,1,0,0:0:0:0:
320,192,97477,1,0,0:0:0:0:
64,192,97477,1,0,0:0:0:0:
192,192,97602,1,0,0:0:0:0:
448,192,97727,1,0,0:0:0:0:
64,192,97727,1,0,0:0:0:0:
320,192,97852,1,0,0:0:0:0:
192,192,97977,1,0,0:0:0:0:
64,192,97977,1,0,0:0:0:0:
448,192,98039,1,0,0:0:0:0:
64,192,98102,1,0,0:0:0:0:
320,192,98164,1,0,0:0:0:0:
448,192,98227,1,0,0:0:0:0:
192,192,98227,1,0,0:0:0:0:
64,192,98289,1,0,0:0:0:0:
448,192,98352,1,0,0:0:0:0:
192,192,98414,1,0,0:0:0:0:
320,192,98477,1,0,0:0:0:0:
64,192,98477,1,0,0:0:0:0:
448,192,98539,1,0,0:0:0:0:
320,192,98602,1,0,0:0:0:0:
64,192,98602,1,0,0:0:0:0:
448,192,98664,1,0,0:0:0:0:
64,192,98727,1,0,0:0:0:0:
192,192,98727,1,0,0:0:0:0:
320,192,98789,1,0,0:0:0:0:
448,192,98852,1,0,0:0:0:0:
192,192,98852,1,0,0:0:0:0:
64,192,98914,1,0,0:0:0:0:
448,192,98977,1,0,0:0:0:0:
320,192,98977,1,0,0:0:0:0:
192,192,99102,1,0,0:0:0:0:
64,192,99102,1,0,0:0:0:0:
320,192,99102,1,0,0:0:0:0:
320,192,99352,128,0,99539:0:0:0:0:
448,192,99414,128,0,99477:0:0:0:0:
192,192,99477,128,0,99664:0:0:0:0:
64,192,99539,128,0,99602:0:0:0:0:
448,192,99602,128,0,99789:0:0:0:0:
320,192,99664,128,0,99727:0:0:0:0:
64,192,99727,128,0,99914:0:0:0:0:
192,192,99789,128,0,99852:0:0:0:0:
448,192,99852,128,0,99914:0:0:0:0:
320,192,99914,128,0,99977:0:0:0:0:
64,192,99977,1,0,0:0:0:0:
448,192,99977,1,0,0:0:0:0:
192,192,99977,1,0,0:0:0:0:
64,192,100102,1,0,0:0:0:0:
192,192,100102,1,0,0:0:0:0:
448,192,100164,1,0,0:0:0:0:
64,192,100227,1,0,0:0:0:0:
320,192,100227,1,0,0:0:0:0:
448,192,100352,1,0,0:0:0:0:
192,192,100352,1,0,0:0:0:0:
448,192,100477,128,0,100602:0:0:0:0:
64,192,100477,128,0,100664:0:0:0:0:
448,192,100664,1,0,0:0:0:0:
320,192,100664,1,0,0:0:0:0:
192,192,100727,1,0,0:0:0:0:
64,192,100727,1,0,0:0:0:0:
192,192,100852,1,0,0:0:0:0:
320,192,100852,1,0,0:0:0:0:
448,192,100852,1,0,0:0:0:0:
192,192,100977,1,0,0:0:0:0:
64,192,100977,1,0,0:0:0:0:
320,192,101102,1,0,0:0:0:0:
448,192,101102,1,0,0:0:0:0:
192,192,101164,1,0,0:0:0:0:
320,192,101227,1,0,0:0:0:0:
64,192,101227,1,0,0:0:0:0:
192,192,101352,1,0,0:0:0:0:
448,192,101352,1,0,0:0:0:0:
64,192,101477,1,0,0:0:0:0:
320,192,101477,1,0,0:0:0:0:
192,192,101539,1,0,0:0:0:0:
448,192,101602,1,0,0:0:0:0:
320,192,101602,1,0,0:0:0:0:
64,192,101727,1,0,0:0:0:0:
192,192,101727,1,0,0:0:0:0:
448,192,101789,1,0,0:0:0:0:
64,192,101852,1,0,0:0:0:0:
320,192,101852,1,0,0:0:0:0:
192,192,101914,1,0,0:0:0:0:
320,192,101977,1,0,0:0:0:0:
448,192,101977,1,0,0:0:0:0:
320,192,102102,1,0,0:0:0:0:
448,192,102102,1,0,0:0:0:0:
64,192,102164,1,0,0:0:0:0:
192,192,102227,1,0,0:0:0:0:
448,192,102227,1,0,0:0:0:0:
320,192,102352,1,0,0:0:0:0:
64,192,102352,1,0,0:0:0:0:
64,192,102477,128,0,102602:0:0:0:0:
448,192,102477,128,0,102664:0:0:0:0:
192,192,102664,1,0,0:0:0:0:
64,192,102664,1,0,0:0:0:0:
448,192,102727,1,0,0:0:0:0:
320,192,102727,1,0,0:0:0:0:
320,192,102852,1,0,0:0:0:0:
192,192,102852,1,0,0:0:0:0:
64,192,102852,1,0,0:0:0:0:
320,192,102977,1,0,0:0:0:0:
448,192,102977,1,0,0:0:0:0:
192,192,103102,1,0,0:0:0:0:
64,192,103102,1,0,0:0:0:0:
320,192,103164,1,0,0:0:0:0:
192,192,103227,1,0,0:0:0:0:
448,192,103227,1,0,0:0:0:0:
64,192,103352,1,0,0:0:0:0:
320,192,103352,1,0,0:0:0:0:
448,192,103477,1,0,0:0:0:0:
192,192,103477,1,0,0:0:0:0:
320,192,103539,1,0,0:0:0:0:
192,192,103602,1,0,0:0:0:0:
64,192,103602,1,0,0:0:0:0:
320,192,103727,1,0,0:0:0:0:
448,192,103727,1,0,0:0:0:0:
64,192,103789,1,0,0:0:0:0:
192,192,103852,1,0,0:0:0:0:
320,192,103852,1,0,0:0:0:0:
448,192,103914,1,0,0:0:0:0:
64,192,103977,1,0,0:0:0:0:
192,192,103977,1,0,0:0:0:0:
320,192,104102,1,0,0:0:0:0:
192,192,104164,1,0,0:0:0:0:
448,192,104227,1,0,0:0:0:0:
64,192,104227,1,0,0:0:0:0:
64,192,104352,1,0,0:0:0:0:
320,192,104352,1,0,0:0:0:0:
448,192,104477,128,0,104602:0:0:0:0:
192,192,104477,128,0,104664:0:0:0:0:
320,192,104602,1,0,0:0:0:0:
64,192,104664,128,0,104789:0:0:0:0:
448,192,104664,128,0,104852:0:0:0:0:
192,192,104727,1,0,0:0:0:0:
64,192,104852,128,0,104977:0:0:0:0:
320,192,104852,128,0,104977:0:0:0:0:
192,192,104977,1,0,0:0:0:0:
448,192,104977,1,0,0:0:0:0:
64,192,105102,1,0,0:0:0:0:
448,192,105164,1,0,0:0:0:0:
64,192,105227,1,0,0:0:0:0:
320,192,105227,1,0,0:0:0:0:
448,192,105352,1,0,0:0:0:0:
192,192,105352,1,0,0:0:0:0:
64,192,105477,1,0,0:0:0:0:
448,192,105477,1,0,0:0:0:0:
192,192,105539,1,0,0:0:0:0:
320,192,105602,1,0,0:0:0:0:
192,192,105727,1,0,0:0:0:0:
448,192,105727,1,0,0:0:0:0:
320,192,105789,1,0,0:0:0:0:
64,192,105852,1,0,0:0:0:0:
192,192,105914,1,0,0:0:0:0:
448,192,105977,1,0,0:0:0:0:
320,192,105977,1,0,0:0:0:0:
448,192,106102,1,0,0:0:0:0:
320,192,106164,1,0,0:0:0:0:
448,192,106227,1,0,0:0:0:0:
192,192,106227,1,0,0:0:0:0:
192,192,106352,1,0,0:0:0:0:
64,192,106352,1,0,0:0:0:0:
448,192,106414,1,0,0:0:0:0:
64,192,106477,128,0,106602:0:0:0:0:
320,192,106477,128,0,106664:0:0:0:0:
192,192,106602,1,0,0:0:0:0:
448,192,106664,128,0,106789:0:0:0:0:
64,192,106664,128,0,106852:0:0:0:0:
320,192,106727,1,0,0:0:0:0:
448,192,106852,128,0,106977:0:0:0:0:
192,192,106852,128,0,106977:0:0:0:0:
320,192,106977,1,0,0:0:0:0:
64,192,106977,1,0,0:0:0:0:
448,192,107102,1,0,0:0:0:0:
64,192,107102,1,0,0:0:0:0:
320,192,107164,1,0,0:0:0:0:
448,192,107227,1,0,0:0:0:0:
192,192,107227,1,0,0:0:0:0:
64,192,107289,1,0,0:0:0:0:
192,192,107352,1,0,0:0:0:0:
320,192,107352,1,0,0:0:0:0:
448,192,107477,1,0,0:0:0:0:
320,192,107477,1,0,0:0:0:0:
192,192,107539,1,0,0:0:0:0:
64,192,107539,1,0,0:0:0:0:
448,192,107602,1,0,0:0:0:0:
320,192,107643,1,0,0:0:0:0:
64,192,107685,1,0,0:0:0:0:
192,192,107727,1,0,0:0:0:0:
320,192,107768,1,0,0:0:0:0:
448,192,107810,1,0,0:0:0:0:
192,192,107852,1,0,0:0:0:0:
64,192,107893,1,0,0:0:0:0:
320,192,107935,1,0,0:0:0:0:
448,192,107977,1,0,0:0:0:0:
192,192,107977,1,0,0:0:0:0:
320,192,108102,1,0,0:0:0:0:
192,192,108164,1,0,0:0:0:0:
448,192,108227,1,0,0:0:0:0:
64,192,108227,1,0,0:0:0:0:
320,192,108352,1,0,0:0:0:0:
64,192,108352,1,0,0:0:0:0:
320,192,108477,128,0,108602:0:0:0:0:
448,192,108477,128,0,108664:0:0:0:0:
64,192,108602,1,0,0:0:0:0:
320,192,108664,128,0,108852:0:0:0:0:
192,192,108664,128,0,108789:0:0:0:0:
448,192,108727,1,0,0:0:0:0:
192,192,108852,128,0,108977:0:0:0:0:
64,192,108852,128,0,108977:0:0:0:0:
448,192,108977,1,0,0:0:0:0:
64,192,109102,128,0,109477:0:0:0:0:
192,192,109227,128,0,109602:0:0:0:0:
320,192,109352,128,0,109727:0:0:0:0:
448,192,109477,1,0,0:0:0:0:
64,192,109539,1,0,0:0:0:0:
448,192,109602,1,0,0:0:0:0:
192,192,109664,1,0,0:0:0:0:
448,192,109727,1,0,0:0:0:0:
320,192,109789,1,0,0:0:0:0:
448,192,109852,1,0,0:0:0:0:
192,192,109914,1,0,0:0:0:0:
64,192,109977,1,0,0:0:0:0:
320,192,109977,1,0,0:0:0:0:
192,192,110102,1,0,0:0:0:0:
320,192,110164,1,0,0:0:0:0:
64,192,110227,1,0,0:0:0:0:
448,192,110227,1,0,0:0:0:0:
448,192,110352,1,0,0:0:0:0:
192,192,110352,1,0,0:0:0:0:
192,192,110477,128,0,110602:0:0:0:0:
64,192,110477,128,0,110664:0:0:0:0:
448,192,110602,1,0,0:0:0:0:
192,192,110664,128,0,110852:0:0:0:0:
320,192,110664,128,0,110789:0:0:0:0:
64,192,110727,1,0,0:0:0:0:
320,192,110852,128,0,110977:0:0:0:0:
448,192,110852,128,0,110977:0:0:0:0:
192,192,110977,1,0,0:0:0:0:
64,192,110977,1,0,0:0:0:0:
448,192,111060,1,0,0:0:0:0:
320,192,111060,1,0,0:0:0:0:
192,192,111143,1,0,0:0:0:0:
64,192,111143,1,0,0:0:0:0:
448,192,111227,1,0,0:0:0:0:
64,192,111227,1,0,0:0:0:0:
320,192,111268,1,0,0:0:0:0:
192,192,111310,1,0,0:0:0:0:
320,192,111352,1,0,0:0:0:0:
192,192,111393,1,0,0:0:0:0:
64,192,111435,1,0,0:0:0:0:
320,192,111477,1,0,0:0:0:0:
448,192,111477,1,0,0:0:0:0:
448,192,111727,128,0,111914:0:0:0:0:
320,192,111727,128,0,111914:0:0:0:0:
192,192,111852,128,0,111914:0:0:0:0:
64,192,111852,128,0,111914:0:0:0:0:
64,192,111977,1,0,0:0:0:0:
192,192,111977,1,0,0:0:0:0:
320,192,111977,1,0,0:0:0:0:
448,192,111977,1,0,0:0:0:0:
64,192,112102,1,0,0:0:0:0:
192,192,112102,1,0,0:0:0:0:
192,192,112227,1,0,0:0:0:0:
320,192,112227,1,0,0:0:0:0:
448,192,112227,1,0,0:0:0:0:
320,192,112352,1,0,0:0:0:0:
448,192,112352,1,0,0:0:0:0:
64,192,112477,1,0,0:0:0:0:
192,192,112477,1,0,0:0:0:0:
320,192,112477,1,0,0:0:0:0:
448,192,112539,1,0,0:0:0:0:
64,192,112602,1,0,0:0:0:0:
192,192,112602,1,0,0:0:0:0:
320,192,112664,1,0,0:0:0:0:
448,192,112727,1,0,0:0:0:0:
192,192,112727,1,0,0:0:0:0:
64,192,112789,1,0,0:0:0:0:
320,192,112852,1,0,0:0:0:0:
448,192,112852,1,0,0:0:0:0:
192,192,112914,1,0,0:0:0:0:
320,192,112977,1,0,0:0:0:0:
64,192,112977,1,0,0:0:0:0:
448,192,112977,1,0,0:0:0:0:
320,192,113102,1,0,0:0:0:0:
64,192,113227,1,0,0:0:0:0:
192,192,113227,1,0,0:0:0:0:
448,192,113227,1,0,0:0:0:0:
320,192,113352,1,0,0:0:0:0:
448,192,113352,1,0,0:0:0:0:
192,192,113414,1,0,0:0:0:0:
64,192,113414,1,0,0:0:0:0:
64,192,113477,1,0,0:0:0:0:
320,192,113477,1,0,0:0:0:0:
448,192,113477,1,0,0:0:0:0:
320,192,113602,1,0,0:0:0:0:
192,192,113664,1,0,0:0:0:0:
64,192,113664,1,0,0:0:0:0:
448,192,113664,1,0,0:0:0:0:
448,192,113852,1,0,0:0:0:0:
64,192,113852,1,0,0:0:0:0:
320,192,113852,1,0,0:0:0:0:
192,192,113852,1,0,0:0:0:0:
320,192,113977,128,0,114477:0:0:0:0:
192,192,113977,128,0,114977:0:0:0:0:
64,192,113977,128,0,115477:0:0:0:0:
448,192,113977,128,0,115977:0:0:0:0:
64,192,115977,128,0,116164:0:0:0:0:
192,192,116039,128,0,116227:0:0:0:0:
320,192,116102,128,0,116289:0:0:0:0:
448,192,116164,128,0,116352:0:0:0:0:
64,192,116227,128,0,116414:0:0:0:0:
192,192,116289,128,0,116477:0:0:0:0:
320,192,116352,128,0,116539:0:0:0:0:
448,192,116414,128,0,116602:0:0:0:0:
64,192,116477,128,0,116664:0:0:0:0:
192,192,116539,128,0,116727:0:0:0:0:
320,192,116602,128,0,116789:0:0:0:0:
448,192,116664,128,0,116852:0:0:0:0:
64,192,116727,128,0,116914:0:0:0:0:
192,192,116789,128,0,116914:0:0:0:0:
320,192,116852,128,0,116914:0:0:0:0:
448,192,116914,1,0,0:0:0:0:
192,192,116977,1,0,0:0:0:0:
64,192,116977,1,0,0:0:0:0:
192,192,117039,1,0,0:0:0:0:
64,192,117039,1,0,0:0:0:0:
448,192,117102,1,0,0:0:0:0:
320,192,117102,1,0,0:0:0:0:
448,192,117352,1,0,0:0:0:0:
320,192,117352,1,0,0:0:0:0:
320,192,117414,1,0,0:0:0:0:
448,192,117414,1,0,0:0:0:0:
192,192,117477,1,0,0:0:0:0:
64,192,117477,1,0,0:0:0:0:
