osu file format v14

[General]
AudioFilename: audio.ogg
AudioLeadIn: 0
PreviewTime: 69977
Countdown: 0
SampleSet: Soft
StackLeniency: 0.7
Mode: 3
LetterboxInBreaks: 0
SpecialStyle: 0
WidescreenStoryboard: 1

[Editor]
DistanceSpacing: 1
BeatDivisor: 4
GridSize: 8
TimelineZoom: 2.4

[Metadata]
Title:EncorE & cALL
TitleUnicode:EncorE & cALL
Artist:CHUBAY
ArtistUnicode:CHUBAY
Creator:Please_
Version:ADVANCED
Source:SOUND VOLTEX EXCEED GEAR
Tags:sdvx vi 10th kac オリジナル楽曲コンテスト 追想叙事詩篇 hexa diver konami bemani arcade rhythm video game original song contest mitsuruko-chan ミツル子ちゃん 忠兵衛 electronic instrumental
BeatmapID:4293402
BeatmapSetID:2054460

[Difficulty]
HPDrainRate:7
CircleSize:4
OverallDifficulty:7
ApproachRate:5
SliderMultiplier:1.4
SliderTickRate:1

[Events]
//Background and Video events
0,0,"bg.jpg",0,0
//Break Periods
//Storyboard Layer 0 (Background)
//Storyboard Layer 1 (Fail)
//Storyboard Layer 2 (Pass)
//Storyboard Layer 3 (Foreground)
//Storyboard Layer 4 (Overlay)
//Storyboard Sound Samples

[TimingPoints]
1977,250,4,2,1,40,1,0
25977,-100,4,2,1,40,0,1
33977,-100,4,2,1,40,0,0
69977,-100,4,2,1,40,0,1
81977,-100,4,2,1,40,0,0
99977,-100,4,2,1,40,0,1
113977,-100,4,2,1,40,0,0

[HitObjects]
448,192,1852,5,0,0:0:0:0:
448,192,1977,128,0,2352:0:0:0:0:
64,192,1977,1,0,0:0:0:0:
320,192,2352,1,0,0:0:0:0:
320,192,2477,128,0,2852:0:0:0:0:
192,192,2852,1,0,0:0:0:0:
192,192,2977,128,0,3352:0:0:0:0:
64,192,3352,1,0,0:0:0:0:
448,192,3414,1,0,0:0:0:0:
64,192,3477,128,0,3852:0:0:0:0:
320,192,3602,1,0,0:0:0:0:
448,192,3727,1,0,0:0:0:0:
192,192,3852,1,0,0:0:0:0:
448,192,3977,128,0,4352:0:0:0:0:
64,192,3977,1,0,0:0:0:0:
320,192,4352,1,0,0:0:0:0:
320,192,4477,128,0,4852:0:0:0:0:
192,192,4852,1,0,0:0:0:0:
192,192,4977,128,0,5352:0:0:0:0:
64,192,5352,128,0,5477:0:0:0:0:
448,192,5477,128,0,5602:0:0:0:0:
192,192,5602,128,0,5727:0:0:0:0:
320,192,5727,128,0,5852:0:0:0:0:
64,192,5852,128,0,5977:0:0:0:0:
448,192,5977,1,0,0:0:0:0:
192,192,6102,1,0,0:0:0:0:
320,192,6227,1,0,0:0:0:0:
448,192,6352,1,0,0:0:0:0:
64,192,6477,1,0,0:0:0:0:
320,192,6602,1,0,0:0:0:0:
192,192,6727,1,0,0:0:0:0:
64,192,6852,1,0,0:0:0:0:
320,192,6977,1,0,0:0:0:0:
192,192,7102,1,0,0:0:0:0:
448,192,7227,1,0,0:0:0:0:
192,192,7352,1,0,0:0:0:0:
320,192,7414,1,0,0:0:0:0:
448,192,7477,1,0,0:0:0:0:
320,192,7602,1,0,0:0:0:0:
192,192,7664,1,0,0:0:0:0:
64,192,7727,1,0,0:0:0:0:
448,192,7852,1,0,0:0:0:0:
192,192,7977,1,0,0:0:0:0:
320,192,7977,1,0,0:0:0:0:
192,192,8102,1,0,0:0:0:0:
64,192,8102,1,0,0:0:0:0:
320,192,8227,1,0,0:0:0:0:
448,192,8227,1,0,0:0:0:0:
320,192,8477,1,0,0:0:0:0:
448,192,8477,1,0,0:0:0:0:
64,192,8602,1,0,0:0:0:0:
192,192,8602,1,0,0:0:0:0:
448,192,8852,1,0,0:0:0:0:
64,192,8852,1,0,0:0:0:0:
64,192,9102,1,0,0:0:0:0:
448,192,9102,1,0,0:0:0:0:
64,192,9227,1,0,0:0:0:0:
448,192,9227,1,0,0:0:0:0:
448,192,9477,128,0,9643:0:0:0:0:
320,192,9643,128,0,9810:0:0:0:0:
192,192,9810,128,0,9977:0:0:0:0:
64,192,9977,1,0,0:0:0:0:
448,192,9977,1,0,0:0:0:0:
320,192,10102,1,0,0:0:0:0:
64,192,10227,1,0,0:0:0:0:
448,192,10352,1,0,0:0:0:0:
320,192,10352,1,0,0:0:0:0:
192,192,10477,1,0,0:0:0:0:
448,192,10602,1,0,0:0:0:0:
64,192,10727,1,0,0:0:0:0:
192,192,10727,1,0,0:0:0:0:
320,192,10852,1,0,0:0:0:0:
64,192,10977,1,0,0:0:0:0:
448,192,11102,1,0,0:0:0:0:
320,192,11102,1,0,0:0:0:0:
192,192,11227,1,0,0:0:0:0:
448,192,11352,1,0,0:0:0:0:
192,192,11477,1,0,0:0:0:0:
64,192,11539,1,0,0:0:0:0:
320,192,11602,1,0,0:0:0:0:
448,192,11664,1,0,0:0:0:0:
192,192,11727,1,0,0:0:0:0:
320,192,11810,1,0,0:0:0:0:
192,192,11893,1,0,0:0:0:0:
64,192,11977,1,0,0:0:0:0:
448,192,11977,1,0,0:0:0:0:
320,192,12102,1,0,0:0:0:0:
64,192,12227,1,0,0:0:0:0:
448,192,12352,1,0,0:0:0:0:
320,192,12352,1,0,0:0:0:0:
192,192,12477,1,0,0:0:0:0:
448,192,12602,1,0,0:0:0:0:
64,192,12727,1,0,0:0:0:0:
192,192,12727,1,0,0:0:0:0:
320,192,12852,1,0,0:0:0:0:
64,192,12977,1,0,0:0:0:0:
448,192,13102,1,0,0:0:0:0:
320,192,13102,1,0,0:0:0:0:
192,192,13227,1,0,0:0:0:0:
448,192,13352,1,0,0:0:0:0:
192,192,13477,1,0,0:0:0:0:
64,192,13477,1,0,0:0:0:0:
64,192,13643,1,0,0:0:0:0:
192,192,13643,1,0,0:0:0:0:
320,192,13810,1,0,0:0:0:0:
448,192,13810,1,0,0:0:0:0:
320,192,13977,1,0,0:0:0:0:
448,192,13977,1,0,0:0:0:0:
448,192,14227,1,0,0:0:0:0:
192,192,14289,1,0,0:0:0:0:
448,192,14352,1,0,0:0:0:0:
64,192,14414,1,0,0:0:0:0:
320,192,14477,1,0,0:0:0:0:
64,192,14602,1,0,0:0:0:0:
320,192,14664,1,0,0:0:0:0:
64,192,14727,1,0,0:0:0:0:
448,192,14789,1,0,0:0:0:0:
192,192,14852,1,0,0:0:0:0:
320,192,14977,1,0,0:0:0:0:
192,192,15039,1,0,0:0:0:0:
320,192,15102,1,0,0:0:0:0:
64,192,15164,1,0,0:0:0:0:
448,192,15227,1,0,0:0:0:0:
192,192,15352,1,0,0:0:0:0:
320,192,15414,1,0,0:0:0:0:
192,192,15477,1,0,0:0:0:0:
448,192,15539,1,0,0:0:0:0:
64,192,15602,1,0,0:0:0:0:
320,192,15727,1,0,0:0:0:0:
192,192,15727,1,0,0:0:0:0:
64,192,15977,128,0,16977:0:0:0:0:
448,192,15977,128,0,17477:0:0:0:0:
64,192,17477,1,0,0:0:0:0:
192,192,17602,1,0,0:0:0:0:
320,192,17727,1,0,0:0:0:0:
448,192,17852,1,0,0:0:0:0:
320,192,17977,1,0,0:0:0:0:
64,192,17977,1,0,0:0:0:0:
192,192,18227,1,0,0:0:0:0:
320,192,18477,1,0,0:0:0:0:
64,192,18664,1,0,0:0:0:0:
320,192,18852,1,0,0:0:0:0:
448,192,18977,1,0,0:0:0:0:
320,192,19227,128,0,19310:0:0:0:0:
192,192,19477,1,0,0:0:0:0:
64,192,19727,1,0,0:0:0:0:
448,192,19977,1,0,0:0:0:0:
192,192,20227,128,0,20477:0:0:0:0:
64,192,20477,128,0,20643:0:0:0:0:
320,192,20643,128,0,20810:0:0:0:0:
448,192,20810,128,0,20977:0:0:0:0:
64,192,20977,1,0,0:0:0:0:
192,192,20977,1,0,0:0:0:0:
320,192,21352,1,0,0:0:0:0:
448,192,21352,1,0,0:0:0:0:
192,192,21727,1,0,0:0:0:0:
320,192,21727,1,0,0:0:0:0:
64,192,21977,1,0,0:0:0:0:
448,192,21977,128,0,22852:0:0:0:0:
320,192,22227,1,0,0:0:0:0:
192,192,22289,1,0,0:0:0:0:
64,192,22352,1,0,0:0:0:0:
320,192,22477,1,0,0:0:0:0:
320,192,22664,1,0,0:0:0:0:
64,192,22852,128,0,23852:0:0:0:0:
192,192,22852,1,0,0:0:0:0:
320,192,23102,1,0,0:0:0:0:
448,192,23164,1,0,0:0:0:0:
192,192,23227,1,0,0:0:0:0:
448,192,23352,1,0,0:0:0:0:
192,192,23477,1,0,0:0:0:0:
192,192,23664,1,0,0:0:0:0:
320,192,23852,128,0,24227:0:0:0:0:
448,192,23852,1,0,0:0:0:0:
64,192,24102,1,0,0:0:0:0:
448,192,24227,1,0,0:0:0:0:
320,192,24352,1,0,0:0:0:0:
192,192,24477,1,0,0:0:0:0:
448,192,24539,1,0,0:0:0:0:
64,192,24602,1,0,0:0:0:0:
320,192,24727,1,0,0:0:0:0:
192,192,24852,1,0,0:0:0:0:
448,192,24977,1,0,0:0:0:0:
192,192,25039,1,0,0:0:0:0:
320,192,25102,1,0,0:0:0:0:
64,192,25164,1,0,0:0:0:0:
448,192,25227,1,0,0:0:0:0:
448,192,25352,1,0,0:0:0:0:
64,192,25477,1,0,0:0:0:0:
192,192,25477,1,0,0:0:0:0:
448,192,25602,1,0,0:0:0:0:
64,192,25602,1,0,0:0:0:0:
192,192,25852,1,0,0:0:0:0:
320,192,25914,1,0,0:0:0:0:
64,192,25977,128,0,26102:0:0:0:0:
448,192,25977,1,0,0:0:0:0:
320,192,26102,1,0,0:0:0:0:
448,192,26164,128,0,26289:0:0:0:0:
192,192,26227,1,0,0:0:0:0:
320,192,26289,1,0,0:0:0:0:
64,192,26352,128,0,26477:0:0:0:0:
320,192,26477,128,0,26602:0:0:0:0:
448,192,26477,1,0,0:0:0:0:
192,192,26602,128,0,26727:0:0:0:0:
64,192,26727,128,0,26852:0:0:0:0:
448,192,26727,1,0,0:0:0:0:
320,192,26852,128,0,26977:0:0:0:0:
192,192,26977,128,0,27102:0:0:0:0:
64,192,26977,1,0,0:0:0:0:
448,192,27102,128,0,27227:0:0:0:0:
320,192,27227,128,0,27352:0:0:0:0:
64,192,27227,1,0,0:0:0:0:
448,192,27352,128,0,27602:0:0:0:0:
192,192,27477,1,0,0:0:0:0:
64,192,27602,1,0,0:0:0:0:
192,192,27664,1,0,0:0:0:0:
320,192,27727,1,0,0:0:0:0:
448,192,27789,1,0,0:0:0:0:
192,192,27852,1,0,0:0:0:0:
64,192,27914,1,0,0:0:0:0:
320,192,27977,128,0,28102:0:0:0:0:
448,192,27977,1,0,0:0:0:0:
192,192,28102,1,0,0:0:0:0:
64,192,28164,128,0,28289:0:0:0:0:
320,192,28227,1,0,0:0:0:0:
192,192,28289,1,0,0:0:0:0:
448,192,28352,128,0,28602:0:0:0:0:
192,192,28477,1,0,0:0:0:0:
64,192,28602,128,0,28727:0:0:0:0:
320,192,28727,128,0,28852:0:0:0:0:
448,192,28727,1,0,0:0:0:0:
64,192,28852,128,0,28977:0:0:0:0:
320,192,28977,1,0,0:0:0:0:
192,192,29039,1,0,0:0:0:0:
64,192,29102,1,0,0:0:0:0:
192,192,29227,1,0,0:0:0:0:
320,192,29289,1,0,0:0:0:0:
448,192,29352,1,0,0:0:0:0:
64,192,29477,1,0,0:0:0:0:
192,192,29539,1,0,0:0:0:0:
320,192,29602,1,0,0:0:0:0:
448,192,29727,1,0,0:0:0:0:
320,192,29789,1,0,0:0:0:0:
192,192,29852,1,0,0:0:0:0:
448,192,29977,128,0,30227:0:0:0:0:
64,192,29977,1,0,0:0:0:0:
320,192,30102,128,0,30227:0:0:0:0:
64,192,30227,1,0,0:0:0:0:
192,192,30289,1,0,0:0:0:0:
320,192,30352,1,0,0:0:0:0:
448,192,30414,1,0,0:0:0:0:
192,192,30477,128,0,30602:0:0:0:0:
64,192,30477,1,0,0:0:0:0:
320,192,30602,1,0,0:0:0:0:
448,192,30664,128,0,30789:0:0:0:0:
192,192,30727,1,0,0:0:0:0:
320,192,30789,1,0,0:0:0:0:
64,192,30852,128,0,31227:0:0:0:0:
448,192,30977,1,0,0:0:0:0:
320,192,31102,1,0,0:0:0:0:
192,192,31227,1,0,0:0:0:0:
448,192,31227,1,0,0:0:0:0:
64,192,31352,1,0,0:0:0:0:
192,192,31477,1,0,0:0:0:0:
320,192,31477,1,0,0:0:0:0:
448,192,31602,1,0,0:0:0:0:
64,192,31727,1,0,0:0:0:0:
192,192,31727,1,0,0:0:0:0:
320,192,31852,1,0,0:0:0:0:
448,192,31977,1,0,0:0:0:0:
64,192,31977,1,0,0:0:0:0:
192,192,32102,1,0,0:0:0:0:
448,192,32227,1,0,0:0:0:0:
320,192,32227,1,0,0:0:0:0:
192,192,32352,1,0,0:0:0:0:
64,192,32477,1,0,0:0:0:0:
320,192,32477,1,0,0:0:0:0:
448,192,32602,1,0,0:0:0:0:
192,192,32727,1,0,0:0:0:0:
64,192,32727,1,0,0:0:0:0:
320,192,32852,1,0,0:0:0:0:
448,192,32852,1,0,0:0:0:0:
64,192,32977,1,0,0:0:0:0:
448,192,33039,1,0,0:0:0:0:
192,192,33102,1,0,0:0:0:0:
320,192,33164,1,0,0:0:0:0:
64,192,33227,1,0,0:0:0:0:
64,192,33352,1,0,0:0:0:0:
448,192,33477,1,0,0:0:0:0:
448,192,33602,1,0,0:0:0:0:
192,192,33664,1,0,0:0:0:0:
320,192,33727,1,0,0:0:0:0:
64,192,33852,1,0,0:0:0:0:
64,192,33977,128,0,34143:0:0:0:0:
192,192,34060,128,0,34227:0:0:0:0:
320,192,34143,128,0,34310:0:0:0:0:
448,192,34227,128,0,34393:0:0:0:0:
448,192,34477,1,0,0:0:0:0:
320,192,34560,1,0,0:0:0:0:
192,192,34643,1,0,0:0:0:0:
64,192,34727,1,0,0:0:0:0:
192,192,34810,1,0,0:0:0:0:
320,192,34893,1,0,0:0:0:0:
448,192,34977,1,0,0:0:0:0:
64,192,35102,1,0,0:0:0:0:
320,192,35227,1,0,0:0:0:0:
448,192,35227,1,0,0:0:0:0:
192,192,35352,1,0,0:0:0:0:
448,192,35477,1,0,0:0:0:0:
64,192,35477,1,0,0:0:0:0:
192,192,35602,1,0,0:0:0:0:
320,192,35727,1,0,0:0:0:0:
64,192,35852,1,0,0:0:0:0:
448,192,35977,1,0,0:0:0:0:
192,192,35977,1,0,0:0:0:0:
320,192,36102,1,0,0:0:0:0:
192,192,36227,1,0,0:0:0:0:
64,192,36352,1,0,0:0:0:0:
448,192,36477,1,0,0:0:0:0:
192,192,36477,1,0,0:0:0:0:
320,192,36602,1,0,0:0:0:0:
192,192,36727,1,0,0:0:0:0:
64,192,36852,1,0,0:0:0:0:
320,192,36977,1,0,0:0:0:0:
448,192,36977,1,0,0:0:0:0:
320,192,37164,1,0,0:0:0:0:
448,192,37164,1,0,0:0:0:0:
64,192,37352,1,0,0:0:0:0:
192,192,37352,1,0,0:0:0:0:
64,192,37539,1,0,0:0:0:0:
192,192,37539,1,0,0:0:0:0:
64,192,37727,128,0,37977:0:0:0:0:
448,192,37727,128,0,37852:0:0:0:0:
448,192,37977,1,0,0:0:0:0:
448,192,38227,1,0,0:0:0:0:
192,192,38310,1,0,0:0:0:0:
320,192,38393,1,0,0:0:0:0:
64,192,38477,1,0,0:0:0:0:
320,192,38560,1,0,0:0:0:0:
192,192,38643,1,0,0:0:0:0:
448,192,38727,1,0,0:0:0:0:
320,192,38810,1,0,0:0:0:0:
192,192,38893,1,0,0:0:0:0:
64,192,38977,1,0,0:0:0:0:
448,192,39102,1,0,0:0:0:0:
192,192,39227,1,0,0:0:0:0:
64,192,39227,1,0,0:0:0:0:
320,192,39352,1,0,0:0:0:0:
64,192,39477,1,0,0:0:0:0:
448,192,39477,1,0,0:0:0:0:
320,192,39602,1,0,0:0:0:0:
192,192,39727,1,0,0:0:0:0:
448,192,39852,1,0,0:0:0:0:
64,192,39977,1,0,0:0:0:0:
320,192,39977,1,0,0:0:0:0:
192,192,40102,1,0,0:0:0:0:
320,192,40227,1,0,0:0:0:0:
448,192,40352,1,0,0:0:0:0:
64,192,40477,1,0,0:0:0:0:
320,192,40477,1,0,0:0:0:0:
192,192,40602,1,0,0:0:0:0:
320,192,40727,1,0,0:0:0:0:
448,192,40852,1,0,0:0:0:0:
64,192,40977,1,0,0:0:0:0:
192,192,40977,1,0,0:0:0:0:
64,192,41164,1,0,0:0:0:0:
192,192,41164,1,0,0:0:0:0:
320,192,41352,1,0,0:0:0:0:
448,192,41352,1,0,0:0:0:0:
320,192,41539,1,0,0:0:0:0:
448,192,41539,1,0,0:0:0:0:
448,192,41727,128,0,41977:0:0:0:0:
64,192,41727,128,0,41852:0:0:0:0:
64,192,41977,1,0,0:0:0:0:
448,192,42227,1,0,0:0:0:0:
64,192,42227,1,0,0:0:0:0:
320,192,42352,1,0,0:0:0:0:
192,192,42477,1,0,0:0:0:0:
64,192,42602,1,0,0:0:0:0:
448,192,42727,1,0,0:0:0:0:
192,192,42852,1,0,0:0:0:0:
320,192,42977,1,0,0:0:0:0:
448,192,43102,1,0,0:0:0:0:
192,192,43227,1,0,0:0:0:0:
64,192,43352,1,0,0:0:0:0:
320,192,43477,1,0,0:0:0:0:
192,192,43539,1,0,0:0:0:0:
448,192,43602,1,0,0:0:0:0:
320,192,43727,1,0,0:0:0:0:
192,192,43852,1,0,0:0:0:0:
64,192,43977,1,0,0:0:0:0:
192,192,44060,1,0,0:0:0:0:
320,192,44143,1,0,0:0:0:0:
448,192,44227,1,0,0:0:0:0:
320,192,44310,1,0,0:0:0:0:
192,192,44393,1,0,0:0:0:0:
64,192,44477,128,0,44602:0:0:0:0:
192,192,44602,128,0,44727:0:0:0:0:
448,192,44727,128,0,44852:0:0:0:0:
320,192,44852,128,0,44977:0:0:0:0:
64,192,44977,1,0,0:0:0:0:
192,192,44977,1,0,0:0:0:0:
448,192,45352,1,0,0:0:0:0:
320,192,45352,1,0,0:0:0:0:
64,192,45727,128,0,46977:0:0:0:0:
448,192,45727,128,0,46727:0:0:0:0:
320,192,46727,1,0,0:0:0:0:
192,192,46977,1,0,0:0:0:0:
448,192,47102,1,0,0:0:0:0:
64,192,47227,1,0,0:0:0:0:
320,192,47352,1,0,0:0:0:0:
192,192,47477,1,0,0:0:0:0:
448,192,47602,1,0,0:0:0:0:
192,192,47727,1,0,0:0:0:0:
64,192,47852,1,0,0:0:0:0:
320,192,47977,1,0,0:0:0:0:
448,192,47977,1,0,0:0:0:0:
448,192,48977,1,0,0:0:0:0:
192,192,49977,1,0,0:0:0:0:
320,192,50102,1,0,0:0:0:0:
64,192,50227,1,0,0:0:0:0:
448,192,50352,1,0,0:0:0:0:
192,192,50602,1,0,0:0:0:0:
320,192,50727,1,0,0:0:0:0:
448,192,50852,1,0,0:0:0:0:
320,192,50977,1,0,0:0:0:0:
64,192,51227,1,0,0:0:0:0:
448,192,51477,1,0,0:0:0:0:
192,192,51664,1,0,0:0:0:0:
64,192,51852,1,0,0:0:0:0:
320,192,51977,1,0,0:0:0:0:
448,192,52602,1,0,0:0:0:0:
192,192,52789,1,0,0:0:0:0:
64,192,52977,1,0,0:0:0:0:
64,192,53727,1,0,0:0:0:0:
320,192,53852,1,0,0:0:0:0:
448,192,53977,1,0,0:0:0:0:
320,192,54727,1,0,0:0:0:0:
192,192,54852,1,0,0:0:0:0:
448,192,54977,1,0,0:0:0:0:
64,192,55227,1,0,0:0:0:0:
192,192,55477,1,0,0:0:0:0:
320,192,55664,1,0,0:0:0:0:
64,192,55852,1,0,0:0:0:0:
448,192,55977,1,0,0:0:0:0:
192,192,56227,1,0,0:0:0:0:
64,192,56289,1,0,0:0:0:0:
320,192,56352,1,0,0:0:0:0:
192,192,56414,1,0,0:0:0:0:
448,192,56477,1,0,0:0:0:0:
64,192,56727,1,0,0:0:0:0:
320,192,56977,1,0,0:0:0:0:
448,192,57352,1,0,0:0:0:0:
448,192,57477,1,0,0:0:0:0:
192,192,57602,1,0,0:0:0:0:
192,192,57727,128,0,57977:0:0:0:0:
64,192,57852,128,0,57977:0:0:0:0:
320,192,57977,1,0,0:0:0:0:
448,192,57977,1,0,0:0:0:0:
448,192,58102,128,0,58352:0:0:0:0:
320,192,58102,128,0,58352:0:0:0:0:
64,192,58352,1,0,0:0:0:0:
192,192,58352,1,0,0:0:0:0:
64,192,58477,128,0,59977:0:0:0:0:
448,192,58477,128,0,59727:0:0:0:0:
448,192,59977,1,0,0:0:0:0:
448,192,61352,128,0,61727:0:0:0:0:
320,192,61477,128,0,61602:0:0:0:0:
64,192,61602,128,0,61852:0:0:0:0:
192,192,61727,128,0,61977:0:0:0:0:
320,192,61852,128,0,61977:0:0:0:0:
448,192,61977,1,0,0:0:0:0:
64,192,61977,128,0,62102:0:0:0:0:
192,192,62102,128,0,62227:0:0:0:0:
64,192,62227,128,0,62352:0:0:0:0:
320,192,62352,128,0,62477:0:0:0:0:
448,192,62477,128,0,62664:0:0:0:0:
320,192,62664,128,0,62852:0:0:0:0:
192,192,62852,128,0,62977:0:0:0:0:
64,192,62977,1,0,0:0:0:0:
448,192,62977,1,0,0:0:0:0:
320,192,63102,1,0,0:0:0:0:
192,192,63164,1,0,0:0:0:0:
64,192,63227,1,0,0:0:0:0:
448,192,63352,1,0,0:0:0:0:
192,192,63477,1,0,0:0:0:0:
320,192,63539,1,0,0:0:0:0:
448,192,63602,1,0,0:0:0:0:
64,192,63727,1,0,0:0:0:0:
320,192,63789,1,0,0:0:0:0:
64,192,63852,1,0,0:0:0:0:
448,192,63914,1,0,0:0:0:0:
192,192,63977,128,0,64102:0:0:0:0:
320,192,63977,1,0,0:0:0:0:
64,192,64102,128,0,64227:0:0:0:0:
448,192,64227,128,0,64352:0:0:0:0:
320,192,64352,128,0,64477:0:0:0:0:
64,192,64477,128,0,64664:0:0:0:0:
192,192,64477,1,0,0:0:0:0:
448,192,64664,128,0,64852:0:0:0:0:
320,192,64664,1,0,0:0:0:0:
64,192,64852,128,0,64977:0:0:0:0:
192,192,64852,1,0,0:0:0:0:
448,192,64977,1,0,0:0:0:0:
320,192,64977,1,0,0:0:0:0:
192,192,65102,1,0,0:0:0:0:
320,192,65164,1,0,0:0:0:0:
448,192,65227,1,0,0:0:0:0:
64,192,65352,1,0,0:0:0:0:
320,192,65477,1,0,0:0:0:0:
192,192,65539,1,0,0:0:0:0:
64,192,65602,1,0,0:0:0:0:
448,192,65727,1,0,0:0:0:0:
320,192,65789,1,0,0:0:0:0:
64,192,65852,1,0,0:0:0:0:
192,192,65914,1,0,0:0:0:0:
320,192,65977,1,0,0:0:0:0:
448,192,65977,1,0,0:0:0:0:
192,192,66102,1,0,0:0:0:0:
448,192,66227,1,0,0:0:0:0:
64,192,66352,1,0,0:0:0:0:
320,192,66477,1,0,0:0:0:0:
192,192,66664,1,0,0:0:0:0:
448,192,66727,1,0,0:0:0:0:
64,192,66852,1,0,0:0:0:0:
320,192,66977,1,0,0:0:0:0:
448,192,67102,1,0,0:0:0:0:
192,192,67227,1,0,0:0:0:0:
64,192,67352,1,0,0:0:0:0:
320,192,67477,1,0,0:0:0:0:
320,192,67602,1,0,0:0:0:0:
192,192,67727,1,0,0:0:0:0:
64,192,67789,1,0,0:0:0:0:
320,192,67852,1,0,0:0:0:0:
448,192,67914,1,0,0:0:0:0:
192,192,67977,128,0,68102:0:0:0:0:
64,192,67977,1,0,0:0:0:0:
320,192,68102,128,0,68227:0:0:0:0:
448,192,68227,128,0,68352:0:0:0:0:
192,192,68352,128,0,68477:0:0:0:0:
64,192,68477,1,0,0:0:0:0:
448,192,68477,128,0,68664:0:0:0:0:
320,192,68664,128,0,68852:0:0:0:0:
192,192,68852,128,0,68977:0:0:0:0:
64,192,68977,1,0,0:0:0:0:
448,192,68977,1,0,0:0:0:0:
320,192,69039,1,0,0:0:0:0:
192,192,69102,1,0,0:0:0:0:
64,192,69164,1,0,0:0:0:0:
320,192,69227,1,0,0:0:0:0:
192,192,69289,1,0,0:0:0:0:
448,192,69352,1,0,0:0:0:0:
64,192,69477,1,0,0:0:0:0:
192,192,69477,1,0,0:0:0:0:
192,192,69602,128,0,69852:0:0:0:0:
320,192,69852,1,0,0:0:0:0:
448,192,69914,1,0,0:0:0:0:
64,192,69977,1,0,0:0:0:0:
192,192,69977,1,0,0:0:0:0:
320,192,70102,1,0,0:0:0:0:
192,192,70164,1,0,0:0:0:0:
64,192,70227,1,0,0:0:0:0:
448,192,70352,1,0,0:0:0:0:
192,192,70477,1,0,0:0:0:0:
320,192,70602,1,0,0:0:0:0:
192,192,70664,1,0,0:0:0:0:
448,192,70727,1,0,0:0:0:0:
64,192,70852,1,0,0:0:0:0:
320,192,70977,1,0,0:0:0:0:
192,192,71102,1,0,0:0:0:0:
320,192,71164,1,0,0:0:0:0:
448,192,71227,1,0,0:0:0:0:
64,192,71352,1,0,0:0:0:0:
448,192,71477,1,0,0:0:0:0:
320,192,71539,1,0,0:0:0:0:
192,192,71602,1,0,0:0:0:0:
448,192,71664,1,0,0:0:0:0:
64,192,71727,1,0,0:0:0:0:
192,192,71789,1,0,0:0:0:0:
320,192,71852,1,0,0:0:0:0:
448,192,71914,1,0,0:0:0:0:
192,192,71977,128,0,72102:0:0:0:0:
64,192,71977,1,0,0:0:0:0:
320,192,72102,128,0,72227:0:0:0:0:
448,192,72227,128,0,72352:0:0:0:0:
64,192,72227,1,0,0:0:0:0:
320,192,72352,128,0,72477:0:0:0:0:
192,192,72477,128,0,72602:0:0:0:0:
448,192,72477,1,0,0:0:0:0:
64,192,72602,128,0,72727:0:0:0:0:
320,192,72727,128,0,72852:0:0:0:0:
448,192,72727,1,0,0:0:0:0:
192,192,72852,128,0,72977:0:0:0:0:
448,192,72977,128,0,73852:0:0:0:0:
64,192,72977,1,0,0:0:0:0:
320,192,73102,1,0,0:0:0:0:
192,192,73164,1,0,0:0:0:0:
64,192,73227,1,0,0:0:0:0:
320,192,73352,1,0,0:0:0:0:
64,192,73477,1,0,0:0:0:0:
192,192,73539,1,0,0:0:0:0:
320,192,73602,1,0,0:0:0:0:
64,192,73727,1,0,0:0:0:0:
320,192,73852,1,0,0:0:0:0:
64,192,73977,128,0,74102:0:0:0:0:
448,192,73977,128,0,74102:0:0:0:0:
320,192,74164,128,0,74289:0:0:0:0:
192,192,74164,128,0,74289:0:0:0:0:
64,192,74352,128,0,74477:0:0:0:0:
448,192,74352,128,0,74477:0:0:0:0:
448,192,74602,1,0,0:0:0:0:
320,192,74664,1,0,0:0:0:0:
192,192,74727,1,0,0:0:0:0:
64,192,74789,1,0,0:0:0:0:
192,192,74852,1,0,0:0:0:0:
320,192,74914,1,0,0:0:0:0:
64,192,74977,128,0,75102:0:0:0:0:
448,192,74977,128,0,75102:0:0:0:0:
192,192,75164,128,0,75289:0:0:0:0:
320,192,75164,128,0,75289:0:0:0:0:
448,192,75352,128,0,75477:0:0:0:0:
64,192,75352,128,0,75477:0:0:0:0:
64,192,75602,1,0,0:0:0:0:
192,192,75664,1,0,0:0:0:0:
320,192,75727,1,0,0:0:0:0:
448,192,75789,1,0,0:0:0:0:
320,192,75852,1,0,0:0:0:0:
192,192,75914,1,0,0:0:0:0:
448,192,75977,128,0,76227:0:0:0:0:
64,192,75977,1,0,0:0:0:0:
320,192,76102,128,0,76227:0:0:0:0:
64,192,76227,1,0,0:0:0:0:
192,192,76289,1,0,0:0:0:0:
320,192,76352,1,0,0:0:0:0:
448,192,76414,1,0,0:0:0:0:
192,192,76477,128,0,76602:0:0:0:0:
64,192,76602,128,0,76852:0:0:0:0:
320,192,76727,1,0,0:0:0:0:
320,192,76852,128,0,76977:0:0:0:0:
448,192,76977,128,0,77477:0:0:0:0:
64,192,76977,1,0,0:0:0:0:
192,192,77102,1,0,0:0:0:0:
320,192,77227,1,0,0:0:0:0:
64,192,77352,1,0,0:0:0:0:
320,192,77477,1,0,0:0:0:0:
192,192,77539,1,0,0:0:0:0:
448,192,77602,1,0,0:0:0:0:
64,192,77727,1,0,0:0:0:0:
64,192,77852,1,0,0:0:0:0:
320,192,77977,1,0,0:0:0:0:
448,192,77977,1,0,0:0:0:0:
192,192,78102,1,0,0:0:0:0:
320,192,78227,1,0,0:0:0:0:
64,192,78227,1,0,0:0:0:0:
448,192,78352,1,0,0:0:0:0:
64,192,78477,1,0,0:0:0:0:
192,192,78477,1,0,0:0:0:0:
448,192,78602,1,0,0:0:0:0:
192,192,78727,1,0,0:0:0:0:
64,192,78789,1,0,0:0:0:0:
320,192,78852,1,0,0:0:0:0:
448,192,78914,1,0,0:0:0:0:
64,192,78977,1,0,0:0:0:0:
192,192,78977,1,0,0:0:0:0:
448,192,79102,1,0,0:0:0:0:
64,192,79227,1,0,0:0:0:0:
320,192,79227,1,0,0:0:0:0:
192,192,79352,1,0,0:0:0:0:
320,192,79477,1,0,0:0:0:0:
448,192,79477,1,0,0:0:0:0:
64,192,79602,1,0,0:0:0:0:
448,192,79727,1,0,0:0:0:0:
320,192,79789,1,0,0:0:0:0:
64,192,79852,1,0,0:0:0:0:
192,192,79914,1,0,0:0:0:0:
320,192,79977,1,0,0:0:0:0:
448,192,79977,1,0,0:0:0:0:
64,192,80102,1,0,0:0:0:0:
192,192,80227,1,0,0:0:0:0:
320,192,80227,1,0,0:0:0:0:
448,192,80352,1,0,0:0:0:0:
64,192,80477,1,0,0:0:0:0:
192,192,80477,1,0,0:0:0:0:
448,192,80602,1,0,0:0:0:0:
320,192,80602,1,0,0:0:0:0:
64,192,80727,1,0,0:0:0:0:
192,192,80789,1,0,0:0:0:0:
320,192,80852,1,0,0:0:0:0:
448,192,80914,1,0,0:0:0:0:
64,192,80977,128,0,81477:0:0:0:0:
192,192,80977,1,0,0:0:0:0:
192,192,81477,128,0,81727:0:0:0:0:
320,192,81727,128,0,81977:0:0:0:0:
448,192,81977,1,0,0:0:0:0:
64,192,81977,1,0,0:0:0:0:
64,192,82227,1,0,0:0:0:0:
320,192,82310,1,0,0:0:0:0:
64,192,82393,1,0,0:0:0:0:
448,192,82477,1,0,0:0:0:0:
448,192,82727,1,0,0:0:0:0:
192,192,82810,1,0,0:0:0:0:
448,192,82893,1,0,0:0:0:0:
64,192,82977,1,0,0:0:0:0:
64,192,83227,1,0,0:0:0:0:
320,192,83310,1,0,0:0:0:0:
64,192,83393,1,0,0:0:0:0:
448,192,83477,1,0,0:0:0:0:
320,192,83727,1,0,0:0:0:0:
64,192,83977,1,0,0:0:0:0:
448,192,83977,1,0,0:0:0:0:
192,192,84227,128,0,84352:0:0:0:0:
64,192,84352,128,0,84477:0:0:0:0:
320,192,84477,128,0,84602:0:0:0:0:
192,192,84602,128,0,84727:0:0:0:0:
320,192,84727,128,0,84852:0:0:0:0:
64,192,84852,1,0,0:0:0:0:
448,192,84852,1,0,0:0:0:0:
64,192,84977,1,0,0:0:0:0:
448,192,84977,1,0,0:0:0:0:
448,192,85227,128,0,85477:0:0:0:0:
192,192,85352,1,0,0:0:0:0:
64,192,85477,128,0,85727:0:0:0:0:
320,192,85602,1,0,0:0:0:0:
448,192,85727,128,0,85977:0:0:0:0:
192,192,85852,1,0,0:0:0:0:
64,192,85914,1,0,0:0:0:0:
320,192,85977,1,0,0:0:0:0:
448,192,86352,1,0,0:0:0:0:
448,192,86477,1,0,0:0:0:0:
192,192,86852,1,0,0:0:0:0:
192,192,86977,1,0,0:0:0:0:
64,192,87352,1,0,0:0:0:0:
320,192,87414,1,0,0:0:0:0:
64,192,87477,1,0,0:0:0:0:
192,192,87852,1,0,0:0:0:0:
448,192,87977,1,0,0:0:0:0:
320,192,88352,1,0,0:0:0:0:
320,192,88477,1,0,0:0:0:0:
192,192,88852,1,0,0:0:0:0:
192,192,88977,1,0,0:0:0:0:
64,192,89352,1,0,0:0:0:0:
448,192,89477,1,0,0:0:0:0:
192,192,89602,1,0,0:0:0:0:
320,192,89727,1,0,0:0:0:0:
64,192,89852,1,0,0:0:0:0:
448,192,89977,1,0,0:0:0:0:
320,192,90352,1,0,0:0:0:0:
320,192,90477,1,0,0:0:0:0:
64,192,90852,1,0,0:0:0:0:
64,192,90977,1,0,0:0:0:0:
192,192,91352,1,0,0:0:0:0:
448,192,91477,1,0,0:0:0:0:
192,192,91602,1,0,0:0:0:0:
64,192,91727,1,0,0:0:0:0:
320,192,91852,1,0,0:0:0:0:
448,192,91977,1,0,0:0:0:0:
192,192,92352,1,0,0:0:0:0:
192,192,92477,1,0,0:0:0:0:
64,192,92852,1,0,0:0:0:0:
64,192,92977,1,0,0:0:0:0:
320,192,93352,1,0,0:0:0:0:
64,192,93477,1,0,0:0:0:0:
320,192,93602,1,0,0:0:0:0:
448,192,93727,1,0,0:0:0:0:
64,192,93977,1,0,0:0:0:0:
192,192,94039,1,0,0:0:0:0:
448,192,94102,1,0,0:0:0:0:
320,192,94164,1,0,0:0:0:0:
192,192,94227,1,0,0:0:0:0:
448,192,94352,1,0,0:0:0:0:
320,192,94414,1,0,0:0:0:0:
64,192,94477,1,0,0:0:0:0:
192,192,94539,1,0,0:0:0:0:
320,192,94602,1,0,0:0:0:0:
64,192,94727,1,0,0:0:0:0:
192,192,94789,1,0,0:0:0:0:
448,192,94852,1,0,0:0:0:0:
320,192,94914,1,0,0:0:0:0:
64,192,94977,1,0,0:0:0:0:
192,192,94977,1,0,0:0:0:0:
192,192,95164,1,0,0:0:0:0:
64,192,95164,1,0,0:0:0:0:
320,192,95352,1,0,0:0:0:0:
448,192,95352,1,0,0:0:0:0:
320,192,95477,1,0,0:0:0:0:
448,192,95477,1,0,0:0:0:0:
192,192,95602,1,0,0:0:0:0:
320,192,95664,1,0,0:0:0:0:
64,192,95727,1,0,0:0:0:0:
448,192,95727,1,0,0:0:0:0:
192,192,95977,1,0,0:0:0:0:
320,192,95977,1,0,0:0:0:0:
64,192,96102,1,0,0:0:0:0:
448,192,96227,1,0,0:0:0:0:
320,192,96227,1,0,0:0:0:0:
192,192,96352,1,0,0:0:0:0:
448,192,96477,1,0,0:0:0:0:
64,192,96477,1,0,0:0:0:0:
192,192,96602,1,0,0:0:0:0:
320,192,96727,1,0,0:0:0:0:
64,192,96727,1,0,0:0:0:0:
448,192,96852,1,0,0:0:0:0:
320,192,96977,1,0,0:0:0:0:
192,192,96977,1,0,0:0:0:0:
64,192,97102,1,0,0:0:0:0:
448,192,97227,1,0,0:0:0:0:
192,192,97227,1,0,0:0:0:0:
320,192,97352,1,0,0:0:0:0:
64,192,97477,1,0,0:0:0:0:
320,192,97477,1,0,0:0:0:0:
192,192,97602,1,0,0:0:0:0:
448,192,97727,1,0,0:0:0:0:
64,192,97727,1,0,0:0:0:0:
320,192,97852,1,0,0:0:0:0:
192,192,97977,128,0,98102:0:0:0:0:
448,192,97977,1,0,0:0:0:0:
320,192,98102,128,0,98227:0:0:0:0:
192,192,98227,128,0,98352:0:0:0:0:
64,192,98227,1,0,0:0:0:0:
448,192,98352,128,0,98477:0:0:0:0:
64,192,98477,1,0,0:0:0:0:
192,192,98539,1,0,0:0:0:0:
320,192,98602,1,0,0:0:0:0:
448,192,98664,1,0,0:0:0:0:
64,192,98727,1,0,0:0:0:0:
192,192,98789,1,0,0:0:0:0:
320,192,98852,1,0,0:0:0:0:
448,192,98914,1,0,0:0:0:0:
64,192,98977,1,0,0:0:0:0:
192,192,98977,1,0,0:0:0:0:
320,192,99102,1,0,0:0:0:0:
448,192,99102,1,0,0:0:0:0:
448,192,99352,128,0,99727:0:0:0:0:
320,192,99477,128,0,99602:0:0:0:0:
64,192,99602,128,0,99852:0:0:0:0:
192,192,99727,128,0,99977:0:0:0:0:
320,192,99852,128,0,99977:0:0:0:0:
64,192,99977,1,0,0:0:0:0:
448,192,99977,1,0,0:0:0:0:
320,192,100102,1,0,0:0:0:0:
192,192,100164,1,0,0:0:0:0:
64,192,100227,1,0,0:0:0:0:
320,192,100352,1,0,0:0:0:0:
448,192,100477,1,0,0:0:0:0:
192,192,100602,1,0,0:0:0:0:
320,192,100664,1,0,0:0:0:0:
64,192,100727,1,0,0:0:0:0:
448,192,100852,1,0,0:0:0:0:
320,192,100977,1,0,0:0:0:0:
192,192,101102,1,0,0:0:0:0:
320,192,101164,1,0,0:0:0:0:
448,192,101227,1,0,0:0:0:0:
64,192,101352,1,0,0:0:0:0:
320,192,101477,1,0,0:0:0:0:
192,192,101539,1,0,0:0:0:0:
64,192,101602,1,0,0:0:0:0:
192,192,101727,1,0,0:0:0:0:
320,192,101789,1,0,0:0:0:0:
448,192,101852,1,0,0:0:0:0:
192,192,101914,1,0,0:0:0:0:
64,192,101977,1,0,0:0:0:0:
448,192,102102,1,0,0:0:0:0:
320,192,102164,1,0,0:0:0:0:
192,192,102227,1,0,0:0:0:0:
320,192,102352,1,0,0:0:0:0:
448,192,102477,1,0,0:0:0:0:
192,192,102602,1,0,0:0:0:0:
320,192,102664,1,0,0:0:0:0:
64,192,102727,1,0,0:0:0:0:
448,192,102852,1,0,0:0:0:0:
192,192,102977,1,0,0:0:0:0:
64,192,103102,1,0,0:0:0:0:
192,192,103164,1,0,0:0:0:0:
320,192,103227,1,0,0:0:0:0:
64,192,103352,1,0,0:0:0:0:
448,192,103477,1,0,0:0:0:0:
320,192,103539,1,0,0:0:0:0:
192,192,103602,1,0,0:0:0:0:
320,192,103727,1,0,0:0:0:0:
448,192,103789,1,0,0:0:0:0:
192,192,103852,1,0,0:0:0:0:
64,192,103914,1,0,0:0:0:0:
448,192,103977,1,0,0:0:0:0:
320,192,103977,1,0,0:0:0:0:
192,192,104102,1,0,0:0:0:0:
320,192,104164,1,0,0:0:0:0:
448,192,104227,1,0,0:0:0:0:
64,192,104352,1,0,0:0:0:0:
320,192,104477,1,0,0:0:0:0:
192,192,104602,1,0,0:0:0:0:
320,192,104664,1,0,0:0:0:0:
64,192,104727,1,0,0:0:0:0:
448,192,104852,1,0,0:0:0:0:
192,192,104977,1,0,0:0:0:0:
320,192,105102,1,0,0:0:0:0:
192,192,105164,1,0,0:0:0:0:
64,192,105227,1,0,0:0:0:0:
448,192,105352,1,0,0:0:0:0:
192,192,105477,1,0,0:0:0:0:
320,192,105539,1,0,0:0:0:0:
448,192,105602,1,0,0:0:0:0:
192,192,105727,1,0,0:0:0:0:
64,192,105789,1,0,0:0:0:0:
320,192,105852,1,0,0:0:0:0:
448,192,105914,1,0,0:0:0:0:
192,192,105977,1,0,0:0:0:0:
320,192,106102,1,0,0:0:0:0:
192,192,106164,1,0,0:0:0:0:
64,192,106227,1,0,0:0:0:0:
448,192,106352,1,0,0:0:0:0:
192,192,106414,1,0,0:0:0:0:
320,192,106477,1,0,0:0:0:0:
192,192,106602,1,0,0:0:0:0:
64,192,106664,1,0,0:0:0:0:
320,192,106727,1,0,0:0:0:0:
192,192,106852,1,0,0:0:0:0:
448,192,106977,1,0,0:0:0:0:
64,192,107102,1,0,0:0:0:0:
320,192,107164,1,0,0:0:0:0:
192,192,107227,1,0,0:0:0:0:
64,192,107289,1,0,0:0:0:0:
448,192,107352,1,0,0:0:0:0:
192,192,107477,1,0,0:0:0:0:
320,192,107539,1,0,0:0:0:0:
448,192,107602,1,0,0:0:0:0:
192,192,107664,1,0,0:0:0:0:
64,192,107727,1,0,0:0:0:0:
320,192,107852,1,0,0:0:0:0:
448,192,107914,1,0,0:0:0:0:
64,192,107977,1,0,0:0:0:0:
192,192,107977,1,0,0:0:0:0:
320,192,108102,1,0,0:0:0:0:
192,192,108164,1,0,0:0:0:0:
64,192,108227,1,0,0:0:0:0:
448,192,108352,1,0,0:0:0:0:
192,192,108477,1,0,0:0:0:0:
320,192,108602,1,0,0:0:0:0:
64,192,108664,1,0,0:0:0:0:
448,192,108727,1,0,0:0:0:0:
192,192,108852,1,0,0:0:0:0:
192,192,109102,128,0,109227:0:0:0:0:
320,192,109227,128,0,109352:0:0:0:0:
448,192,109352,128,0,109477:0:0:0:0:
64,192,109477,128,0,109602:0:0:0:0:
192,192,109602,128,0,109727:0:0:0:0:
320,192,109727,128,0,109852:0:0:0:0:
448,192,109852,128,0,109977:0:0:0:0:
64,192,109977,1,0,0:0:0:0:
448,192,110102,1,0,0:0:0:0:
192,192,110164,1,0,0:0:0:0:
64,192,110227,1,0,0:0:0:0:
320,192,110352,1,0,0:0:0:0:
448,192,110477,1,0,0:0:0:0:
192,192,110602,1,0,0:0:0:0:
64,192,110664,1,0,0:0:0:0:
320,192,110727,1,0,0:0:0:0:
448,192,110852,1,0,0:0:0:0:
64,192,110977,1,0,0:0:0:0:
320,192,111060,1,0,0:0:0:0:
192,192,111143,1,0,0:0:0:0:
448,192,111227,1,0,0:0:0:0:
192,192,111310,1,0,0:0:0:0:
320,192,111393,1,0,0:0:0:0:
64,192,111477,1,0,0:0:0:0:
448,192,111727,128,0,111977:0:0:0:0:
320,192,111852,128,0,111977:0:0:0:0:
64,192,111977,1,0,0:0:0:0:
192,192,111977,1,0,0:0:0:0:
320,192,112102,1,0,0:0:0:0:
64,192,112227,1,0,0:0:0:0:
192,192,112227,1,0,0:0:0:0:
320,192,112352,1,0,0:0:0:0:
192,192,112477,1,0,0:0:0:0:
448,192,112477,1,0,0:0:0:0:
64,192,112539,1,0,0:0:0:0:
320,192,112602,1,0,0:0:0:0:
448,192,112664,1,0,0:0:0:0:
192,192,112727,1,0,0:0:0:0:
64,192,112789,1,0,0:0:0:0:
320,192,112852,1,0,0:0:0:0:
448,192,112914,1,0,0:0:0:0:
64,192,112977,1,0,0:0:0:0:
192,192,112977,1,0,0:0:0:0:
320,192,113227,1,0,0:0:0:0:
448,192,113227,1,0,0:0:0:0:
192,192,113352,1,0,0:0:0:0:
320,192,113414,1,0,0:0:0:0:
64,192,113477,1,0,0:0:0:0:
448,192,113477,1,0,0:0:0:0:
64,192,113664,1,0,0:0:0:0:
320,192,113664,1,0,0:0:0:0:
448,192,113852,1,0,0:0:0:0:
192,192,113852,1,0,0:0:0:0:
448,192,113977,128,0,114977:0:0:0:0:
64,192,113977,128,0,115977:0:0:0:0:
448,192,115977,128,0,116102:0:0:0:0:
320,192,116102,128,0,116227:0:0:0:0:
448,192,116227,128,0,116352:0:0:0:0:
192,192,116352,128,0,116477:0:0:0:0:
320,192,116477,128,0,116602:0:0:0:0:
64,192,116602,128,0,116727:0:0:0:0:
192,192,116727,128,0,116852:0:0:0:0:
64,192,116852,128,0,116977:0:0:0:0:
448,192,116977,1,0,0:0:0:0:
320,192,116977,1,0,0:0:0:0:
192,192,117039,1,0,0:0:0:0:
64,192,117102,1,0,0:0:0:0:
320,192,117102,1,0,0:0:0:0:
448,192,117352,1,0,0:0:0:0:
192,192,117352,1,0,0:0:0:0:
320,192,117414,1,0,0:0:0:0:
64,192,117477,1,0,0:0:0:0:
192,192,117477,1,0,0:0:0:0:
