osu file format v14

[General]
AudioFilename: audio.mp3
AudioLeadIn: 0
PreviewTime: 11307
Countdown: 0
SampleSet: None
StackLeniency: 0.7
Mode: 1
LetterboxInBreaks: 0
WidescreenStoryboard: 1

[Editor]
Bookmarks: 11301,29136,51078,73020,92562,110390,124276,143476,162682
DistanceSpacing: 0.5
BeatDivisor: 4
GridSize: 4
TimelineZoom: 2.4

[Metadata]
Title:Sleepy Tea
TitleUnicode:Sleepy Tea
Artist:CHON
ArtistUnicode:CHON
Creator:Ulqui
Version:Oni
Source:
Tags:
BeatmapID:1857269
BeatmapSetID:888578

[Difficulty]
HPDrainRate:6
CircleSize:2
OverallDifficulty:5
ApproachRate:10
SliderMultiplier:1.4
SliderTickRate:1

[Events]
//Background and Video events
0,0,"anime_girl_in_the_wind-wallpaper-2560x1600.jpg",0,90
//Break Periods
2,110789,123832
//Storyboard Layer 0 (Background)
//Storyboard Layer 1 (Fail)
//Storyboard Layer 2 (Pass)
//Storyboard Layer 3 (Foreground)
//Storyboard Sound Samples

[TimingPoints]
336,342.857142857143,4,2,0,100,1,0
336,-200,4,2,0,10,0,0
1707,-166.666666666667,4,2,0,10,0,0
3078,-142.857142857143,4,2,0,20,0,0
4450,-136.986301369863,4,2,0,25,0,0
4621,-131.578947368421,4,2,0,30,0,0
4793,-125,4,2,0,35,0,0
5650,-120.481927710843,4,2,0,40,0,0
5821,-117.647058823529,4,2,0,50,0,0
7193,-117.647058823529,4,2,0,60,0,0
8564,-117.647058823529,4,2,0,70,0,0
9936,-117.647058823529,4,2,0,80,0,0
11307,-100,4,2,0,90,0,0
22278,-90.9090909090909,4,2,0,90,0,1
23650,-90.9090909090909,4,2,0,90,0,0
24336,-100,4,2,0,90,0,0
25707,-125,4,2,0,90,0,0
29136,-100,3,2,0,90,0,0
35478,-95.2380952380952,3,2,0,90,0,0
35650,-90.9090909090909,3,2,0,90,0,0
35821,-86.9565217391304,3,2,0,90,0,0
36164,-83.3333333333333,3,2,0,90,0,0
36336,-76.9230769230769,3,2,0,90,0,0
36678,-83.3333333333333,3,2,0,90,0,0
37021,-90.9090909090909,3,2,0,90,0,0
37364,-100,3,2,0,90,0,0
46450,-95.2380952380952,3,2,0,90,0,0
46621,-90.9090909090909,3,2,0,90,0,0
46793,-86.9565217391304,3,2,0,90,0,0
47307,-76.9230769230769,3,2,0,90,0,0
47650,-83.3333333333333,3,2,0,90,0,0
47993,-90.9090909090909,3,2,0,90,0,0
50621,-92.5925925925926,3,2,0,90,0,0
50736,-94.3396226415094,3,2,0,90,0,0
50850,-96.1538461538461,3,2,0,90,0,0
50964,-98.0392156862745,3,2,0,90,0,0
51078,-100,3,2,0,90,0,0
73020,342.857142857143,7,2,0,100,1,0
73705,-111.111111111111,7,2,0,100,0,0
74220,-117.647058823529,7,2,0,100,0,0
74391,-125,7,2,0,100,0,0
91877,-117.647058823529,7,2,0,100,0,0
92048,-111.111111111111,7,2,0,100,0,0
92220,342.857142857143,4,2,0,100,1,8
92220,-105.263157894737,7,2,0,100,0,0
92564,342.857142857143,4,2,0,100,1,0
92564,-100,4,2,0,100,0,0
104219,-111.111111111111,4,2,0,100,0,0
104904,-125,4,2,0,100,0,0
105590,-142.857142857143,4,2,0,100,0,0
106278,718.562874251497,3,2,0,100,1,0
106278,-100,3,2,0,50,0,0
107355,-100,3,2,0,50,0,0
110733,-100,3,2,0,100,0,0
124282,300,4,2,0,100,1,0
124282,-83.3333333333333,4,2,0,100,0,0
124582,-99.9999999999999,4,2,0,100,0,0
143482,-100,4,2,0,100,0,1
162682,-100,4,2,0,100,0,0

[HitObjects]
198,192,336,5,0,0:0:0:0:
181,200,1364,1,8,0:0:0:0:
181,200,1707,1,0,0:0:0:0:
205,194,2736,1,0,0:0:0:0:
205,194,3078,1,8,0:0:0:0:
184,190,4107,1,8,0:0:0:0:
184,190,4450,1,0,0:0:0:0:
184,190,4621,1,8,0:0:0:0:
184,190,4793,1,0,0:0:0:0:
184,190,5478,1,8,0:0:0:0:
184,190,5650,1,0,0:0:0:0:
184,190,5821,1,0,0:0:0:0:
184,190,6164,1,0,0:0:0:0:
184,190,6507,1,8,0:0:0:0:
144,155,6678,1,8,0:0:0:0:
144,155,7193,1,0,0:0:0:0:
144,155,7536,1,0,0:0:0:0:
144,155,7793,1,8,0:0:0:0:
144,155,7878,1,8,0:0:0:0:
156,113,8050,1,8,0:0:0:0:
160,141,8564,1,0,0:0:0:0:
160,141,8907,1,0,0:0:0:0:
172,175,9078,1,0,0:0:0:0:
160,141,9250,1,8,0:0:0:0:
172,173,9421,1,8,0:0:0:0:
172,173,9936,1,0,0:0:0:0:
172,173,10536,1,8,0:0:0:0:
172,173,10621,1,8,0:0:0:0:
172,173,11307,1,0,0:0:0:0:
196,157,11478,1,8,0:0:0:0:
196,156,11650,1,0,0:0:0:0:
193,138,11736,1,0,0:0:0:0:
193,138,11821,1,0,0:0:0:0:
189,148,11993,1,8,0:0:0:0:
175,126,12336,1,0,0:0:0:0:
173,127,12421,1,0,0:0:0:0:
175,126,12593,1,0,0:0:0:0:
175,126,12678,1,0,0:0:0:0:
168,72,12850,1,8,0:0:0:0:
174,78,13021,1,0,0:0:0:0:
174,78,13193,1,0,0:0:0:0:
181,50,13278,1,8,0:0:0:0:
174,78,13364,1,8,0:0:0:0:
181,82,13707,1,0,0:0:0:0:
181,81,13793,1,0,0:0:0:0:
181,82,13878,1,0,0:0:0:0:
181,82,14050,1,0,0:0:0:0:
181,81,14221,1,0,0:0:0:0:
239,84,14307,1,0,0:0:0:0:
181,82,14478,1,0,0:0:0:0:
181,82,14564,1,0,0:0:0:0:
193,92,14736,1,8,0:0:0:0:
191,94,14907,1,8,0:0:0:0:
198,94,15421,1,0,0:0:0:0:
167,88,15507,1,0,0:0:0:0:
168,87,15593,1,0,0:0:0:0:
167,88,15764,1,0,0:0:0:0:
167,88,15936,1,0,0:0:0:0:
178,25,16021,1,8,0:0:0:0:
168,87,16107,1,8,0:0:0:0:
149,97,16450,1,8,0:0:0:0:
150,97,16621,1,0,0:0:0:0:
150,97,16793,1,0,0:0:0:0:
171,116,16964,1,0,0:0:0:0:
171,116,17050,1,0,0:0:0:0:
168,143,17221,1,0,0:0:0:0:
167,143,17307,1,0,0:0:0:0:
168,143,17478,1,8,0:0:0:0:
136,113,17650,1,8,0:0:0:0:
136,113,18164,1,0,0:0:0:0:
181,114,18250,1,0,0:0:0:0:
171,117,18336,1,0,0:0:0:0:
171,118,18507,1,0,0:0:0:0:
181,114,18678,1,0,0:0:0:0:
180,29,18764,1,8,0:0:0:0:
179,37,18850,1,8,0:0:0:0:
215,91,19193,1,8,0:0:0:0:
215,91,19364,1,0,0:0:0:0:
215,91,19536,1,0,0:0:0:0:
166,74,19621,1,0,0:0:0:0:
166,74,19793,1,0,0:0:0:0:
166,74,19878,1,0,0:0:0:0:
147,73,20050,1,0,0:0:0:0:
174,68,20136,1,0,0:0:0:0:
148,72,20221,1,8,0:0:0:0:
147,82,20393,1,8,0:0:0:0:
179,77,20650,1,0,0:0:0:0:
179,77,20736,1,8,0:0:0:0:
181,79,20821,1,8,0:0:0:0:
174,38,20907,1,0,0:0:0:0:
176,93,21078,1,0,0:0:0:0:
186,95,21164,1,0,0:0:0:0:
177,94,21250,1,0,0:0:0:0:
185,112,21421,1,0,0:0:0:0:
185,112,21507,1,8,0:0:0:0:
185,112,21593,1,8,0:0:0:0:
148,91,21764,1,0,0:0:0:0:
161,59,21850,1,0,0:0:0:0:
148,91,21936,1,8,0:0:0:0:
149,66,22107,1,8,0:0:0:0:
149,66,22278,1,12,0:0:0:0:
121,141,22450,1,8,0:0:0:0:
121,141,22621,1,8,0:0:0:0:
121,141,22793,1,8,0:0:0:0:
121,141,22964,1,8,0:0:0:0:
121,141,23136,1,8,0:0:0:0:
121,141,23307,1,8,0:0:0:0:
121,141,23478,1,8,0:0:0:0:
121,141,23650,1,12,0:0:0:0:
171,170,24336,1,0,0:0:0:0:
171,170,24678,1,8,0:0:0:0:
171,170,25021,1,0,0:0:0:0:
213,189,25707,1,0,0:0:0:0:
213,189,26050,1,8,0:0:0:0:
213,189,26393,1,0,0:0:0:0:
193,138,29136,1,8,0:0:0:0:
193,138,29307,1,0,0:0:0:0:
185,131,29478,1,0,0:0:0:0:
186,132,29650,1,0,0:0:0:0:
186,132,29821,1,8,0:0:0:0:
196,119,29993,1,8,0:0:0:0:
186,132,30164,1,0,0:0:0:0:
195,119,30507,1,0,0:0:0:0:
169,104,30593,1,0,0:0:0:0:
197,127,30678,1,0,0:0:0:0:
209,72,30764,1,0,0:0:0:0:
198,127,30850,1,8,0:0:0:0:
191,102,31193,1,8,0:0:0:0:
167,80,31278,1,0,0:0:0:0:
168,79,31364,1,0,0:0:0:0:
168,79,31450,1,0,0:0:0:0:
176,94,31536,1,8,0:0:0:0:
176,96,31707,1,0,0:0:0:0:
176,96,31878,1,8,0:0:0:0:
176,97,32050,1,8,0:0:0:0:
176,97,32221,1,0,0:0:0:0:
169,72,32393,1,0,0:0:0:0:
168,67,32478,1,0,0:0:0:0:
206,125,32564,1,8,0:0:0:0:
186,67,32736,1,8,0:0:0:0:
186,67,32907,1,0,0:0:0:0:
189,108,33250,1,0,0:0:0:0:
191,109,33421,1,0,0:0:0:0:
189,108,33764,1,0,0:0:0:0:
189,108,33936,1,8,0:0:0:0:
154,77,34278,1,0,0:0:0:0:
182,67,34536,1,0,0:0:0:0:
154,77,34621,1,0,0:0:0:0:
154,77,34793,1,0,0:0:0:0:
154,77,34964,1,8,0:0:0:0:
171,28,35136,1,0,0:0:0:0:
154,77,35478,1,0,0:0:0:0:
154,77,35650,1,8,0:0:0:0:
154,77,35821,1,0,0:0:0:0:
162,42,36164,1,0,0:0:0:0:
162,42,36336,1,8,0:0:0:0:
162,42,36678,1,8,0:0:0:0:
197,52,37364,1,0,0:0:0:0:
171,62,37536,1,0,0:0:0:0:
171,62,37707,1,8,0:0:0:0:
171,62,37878,1,0,0:0:0:0:
171,62,38050,1,8,0:0:0:0:
171,64,38221,1,0,0:0:0:0:
171,64,38393,1,8,0:0:0:0:
171,62,38564,1,0,0:0:0:0:
163,102,38907,1,0,0:0:0:0:
163,102,39078,1,8,0:0:0:0:
166,78,39421,1,8,0:0:0:0:
166,78,39764,1,0,0:0:0:0:
166,79,39936,1,0,0:0:0:0:
167,80,40107,1,8,0:0:0:0:
254,125,40336,1,0,0:0:0:0:
254,125,40450,1,0,0:0:0:0:
227,134,40678,1,0,0:0:0:0:
226,135,40793,1,8,0:0:0:0:
219,118,41021,1,8,0:0:0:0:
219,118,41136,1,0,0:0:0:0:
161,73,41364,1,8,0:0:0:0:
198,104,41478,1,0,0:0:0:0:
221,54,41593,1,0,0:0:0:0:
153,103,41821,1,8,0:0:0:0:
221,36,42050,1,0,0:0:0:0:
127,112,42164,1,8,0:0:0:0:
173,61,42278,1,0,0:0:0:0:
130,113,42507,1,8,0:0:0:0:
157,64,42736,1,0,0:0:0:0:
157,64,42850,1,8,0:0:0:0:
210,64,43078,1,0,0:0:0:0:
136,86,43193,1,0,0:0:0:0:
114,104,43421,1,0,0:0:0:0:
114,104,43536,1,8,0:0:0:0:
167,37,43764,1,8,0:0:0:0:
149,80,43878,1,0,0:0:0:0:
161,61,44107,1,0,0:0:0:0:
161,68,44221,1,0,0:0:0:0:
153,90,44336,1,8,0:0:0:0:
166,84,44564,1,0,0:0:0:0:
166,84,44793,1,0,0:0:0:0:
166,84,44907,1,8,0:0:0:0:
206,77,45021,1,0,0:0:0:0:
222,103,45250,1,8,0:0:0:0:
177,68,45478,1,8,0:0:0:0:
157,74,45593,1,0,0:0:0:0:
154,127,45764,1,0,0:0:0:0:
154,127,45936,1,8,0:0:0:0:
154,127,46107,1,0,0:0:0:0:
166,96,46450,1,0,0:0:0:0:
166,96,46621,1,8,0:0:0:0:
166,96,46793,1,0,0:0:0:0:
148,88,47307,1,0,0:0:0:0:
148,90,47650,1,8,0:0:0:0:
148,88,48336,1,0,0:0:0:0:
148,90,48507,1,0,0:0:0:0:
148,90,48678,1,8,0:0:0:0:
148,88,48850,1,0,0:0:0:0:
148,88,49021,1,8,0:0:0:0:
151,101,49193,1,0,0:0:0:0:
154,102,49364,1,8,0:0:0:0:
154,102,49536,1,0,0:0:0:0:
176,71,49707,1,0,0:0:0:0:
142,106,49821,1,0,0:0:0:0:
174,79,50050,1,8,0:0:0:0:
212,87,50278,1,8,0:0:0:0:
174,79,50393,1,8,0:0:0:0:
212,87,50621,1,8,0:0:0:0:
174,80,50736,1,8,0:0:0:0:
174,79,51078,1,0,0:0:0:0:
182,208,51421,1,8,0:0:0:0:
151,250,51936,1,8,0:0:0:0:
151,250,52107,1,0,0:0:0:0:
212,194,52278,1,0,0:0:0:0:
210,185,52450,1,0,0:0:0:0:
210,185,52793,1,8,0:0:0:0:
179,167,53307,1,8,0:0:0:0:
179,167,53478,1,0,0:0:0:0:
189,72,53736,1,0,0:0:0:0:
179,167,53821,1,0,0:0:0:0:
176,133,54164,1,8,0:0:0:0:
180,120,54678,1,8,0:0:0:0:
196,20,54850,1,0,0:0:0:0:
174,89,54936,1,0,0:0:0:0:
166,148,55021,5,0,0:0:0:0:
175,90,55193,1,0,0:0:0:0:
184,87,55364,1,0,0:0:0:0:
184,87,55536,1,8,0:0:0:0:
154,133,55878,1,0,0:0:0:0:
154,133,56050,1,0,0:0:0:0:
154,133,56221,1,0,0:0:0:0:
179,73,56393,1,8,0:0:0:0:
179,73,56564,1,0,0:0:0:0:
166,127,56907,1,8,0:0:0:0:
215,92,57078,1,0,0:0:0:0:
171,132,57421,1,8,0:0:0:0:
171,133,57593,1,0,0:0:0:0:
172,135,57764,1,0,0:0:0:0:
172,135,57936,1,0,0:0:0:0:
215,92,58193,1,0,0:0:0:0:
206,111,58278,1,8,0:0:0:0:
215,92,58450,1,0,0:0:0:0:
215,92,58621,1,0,0:0:0:0:
206,111,58793,1,8,0:0:0:0:
206,111,58964,1,0,0:0:0:0:
151,60,59050,1,0,0:0:0:0:
206,111,59136,1,8,0:0:0:0:
176,102,59307,1,0,0:0:0:0:
215,92,59564,1,0,0:0:0:0:
176,103,59650,1,8,0:0:0:0:
181,106,59821,1,0,0:0:0:0:
181,107,59993,1,8,0:0:0:0:
194,86,60078,1,8,0:0:0:0:
194,86,60164,1,0,0:0:0:0:
194,86,60336,1,0,0:0:0:0:
196,82,60421,1,8,0:0:0:0:
194,86,60507,1,0,0:0:0:0:
196,63,60678,1,0,0:0:0:0:
189,50,60764,1,0,0:0:0:0:
191,55,60936,1,0,0:0:0:0:
198,98,61021,1,0,0:0:0:0:
198,100,61193,1,0,0:0:0:0:
198,101,61278,1,0,0:0:0:0:
199,102,61364,1,0,0:0:0:0:
194,106,61450,1,0,0:0:0:0:
196,112,61536,1,0,0:0:0:0:
184,68,61707,1,8,0:0:0:0:
196,42,61793,1,0,0:0:0:0:
189,91,61964,1,0,0:0:0:0:
189,82,62050,1,0,0:0:0:0:
219,97,62393,1,8,0:0:0:0:
216,102,62907,1,8,0:0:0:0:
161,106,63078,1,0,0:0:0:0:
161,106,63250,1,8,0:0:0:0:
161,106,63421,1,0,0:0:0:0:
255,82,63678,1,0,0:0:0:0:
167,110,63764,1,8,0:0:0:0:
215,120,64278,1,8,0:0:0:0:
215,120,64450,1,0,0:0:0:0:
215,120,64621,1,8,0:0:0:0:
201,24,64793,1,0,0:0:0:0:
176,104,64964,1,0,0:0:0:0:
199,57,65050,1,0,0:0:0:0:
176,104,65136,1,8,0:0:0:0:
186,109,65650,1,8,0:0:0:0:
186,109,65821,1,0,0:0:0:0:
176,92,65907,1,0,0:0:0:0:
186,109,65993,1,8,0:0:0:0:
186,109,66164,1,0,0:0:0:0:
201,82,66336,1,0,0:0:0:0:
186,109,66507,1,8,0:0:0:0:
175,92,66678,1,0,0:0:0:0:
171,97,67021,1,8,0:0:0:0:
171,97,67193,1,8,0:0:0:0:
196,91,67364,1,8,0:0:0:0:
196,91,67536,1,0,0:0:0:0:
163,128,67878,1,8,0:0:0:0:
163,128,68393,1,8,0:0:0:0:
163,128,68736,1,0,0:0:0:0:
163,128,68907,1,0,0:0:0:0:
168,107,69250,1,8,0:0:0:0:
168,107,69764,1,8,0:0:0:0:
168,107,70107,1,0,0:0:0:0:
168,107,70278,1,0,0:0:0:0:
175,104,70536,1,0,0:0:0:0:
175,104,70621,1,0,0:0:0:0:
175,104,70793,1,8,0:0:0:0:
176,105,70964,1,0,0:0:0:0:
174,92,71136,1,8,0:0:0:0:
152,52,71221,1,0,0:0:0:0:
176,27,71393,1,0,0:0:0:0:
152,52,71478,1,0,0:0:0:0:
158,47,71564,1,8,0:0:0:0:
152,52,71650,1,8,0:0:0:0:
191,53,71821,1,8,0:0:0:0:
197,85,72078,1,0,0:0:0:0:
202,84,72164,1,0,0:0:0:0:
197,85,72250,1,8,0:0:0:0:
200,85,72336,1,0,0:0:0:0:
172,54,72507,1,0,0:0:0:0:
171,48,72593,1,0,0:0:0:0:
158,57,72678,1,8,0:0:0:0:
158,57,72764,1,8,0:0:0:0:
151,72,72850,1,8,0:0:0:0:
172,17,72936,1,8,0:0:0:0:
151,74,73020,1,4,0:0:0:0:
186,77,73705,1,8,0:0:0:0:
186,77,74220,1,0,0:0:0:0:
186,77,74391,1,0,0:0:0:0:
186,77,74905,1,0,0:0:0:0:
186,77,75077,1,8,0:0:0:0:
145,89,75420,1,4,0:0:0:0:
204,86,75934,1,0,0:0:0:0:
156,89,76105,1,8,0:0:0:0:
204,86,76620,1,0,0:0:0:0:
204,86,76791,1,0,0:0:0:0:
204,86,77306,1,0,0:0:0:0:
204,86,77477,1,8,0:0:0:0:
191,108,77820,1,4,0:0:0:0:
192,107,78334,1,0,0:0:0:0:
192,107,78505,1,8,0:0:0:0:
187,114,78848,1,0,0:0:0:0:
187,114,79191,1,0,0:0:0:0:
187,114,79705,1,0,0:0:0:0:
187,114,79877,1,8,0:0:0:0:
173,89,80220,1,4,0:0:0:0:
171,115,80905,1,8,0:0:0:0:
193,86,81420,1,0,0:0:0:0:
193,86,81591,1,0,0:0:0:0:
192,105,82105,1,0,0:0:0:0:
193,107,82277,1,8,0:0:0:0:
193,107,82620,1,4,0:0:0:0:
181,110,83305,1,8,0:0:0:0:
181,110,83820,1,8,0:0:0:0:
181,110,84334,1,8,0:0:0:0:
181,110,84677,1,8,0:0:0:0:
181,110,84848,1,8,0:0:0:0:
181,110,85020,1,4,0:0:0:0:
191,140,85362,1,8,0:0:0:0:
185,154,85705,1,0,0:0:0:0:
151,85,85877,1,8,0:0:0:0:
158,91,86391,1,8,0:0:0:0:
161,92,86905,1,8,0:0:0:0:
158,91,87077,1,8,0:0:0:0:
158,91,87420,1,4,0:0:0:0:
213,58,87934,1,0,0:0:0:0:
166,97,88105,1,8,0:0:0:0:
174,129,88620,1,0,0:0:0:0:
176,129,88791,1,0,0:0:0:0:
174,129,89305,1,0,0:0:0:0:
174,129,89477,1,8,0:0:0:0:
182,127,89648,1,8,0:0:0:0:
176,129,89820,1,4,0:0:0:0:
174,129,90162,1,0,0:0:0:0:
166,113,90505,1,8,0:0:0:0:
176,129,90677,1,0,0:0:0:0:
174,129,91020,1,0,0:0:0:0:
174,129,91191,1,8,0:0:0:0:
139,34,91362,1,0,0:0:0:0:
181,68,91705,1,0,0:0:0:0:
181,68,91877,1,8,0:0:0:0:
163,52,92048,1,8,0:0:0:0:
138,52,92220,1,0,0:0:0:0:
213,127,92564,1,8,0:0:0:0:
211,37,92735,1,0,0:0:0:0:
185,105,92906,1,0,0:0:0:0:
169,62,93078,1,0,0:0:0:0:
185,105,93164,1,0,0:0:0:0:
185,105,93249,1,8,0:0:0:0:
221,50,93421,1,0,0:0:0:0:
181,73,93592,1,0,0:0:0:0:
182,74,93849,1,0,0:0:0:0:
181,74,93935,1,8,0:0:0:0:
170,70,94021,1,0,0:0:0:0:
164,72,94192,1,0,0:0:0:0:
151,62,94278,1,0,0:0:0:0:
170,70,94449,1,0,0:0:0:0:
151,62,94535,1,0,0:0:0:0:
159,72,94621,1,8,0:0:0:0:
213,56,94792,1,0,0:0:0:0:
128,60,94964,1,0,0:0:0:0:
130,59,95221,1,0,0:0:0:0:
159,72,95306,1,8,0:0:0:0:
182,75,95478,1,0,0:0:0:0:
130,59,95649,1,0,0:0:0:0:
218,87,95821,1,0,0:0:0:0:
128,60,95906,1,0,0:0:0:0:
159,72,95992,1,8,0:0:0:0:
181,74,96164,1,0,0:0:0:0:
130,59,96335,1,0,0:0:0:0:
159,72,96678,1,8,0:0:0:0:
181,74,96849,1,0,0:0:0:0:
131,59,97021,1,0,0:0:0:0:
181,74,97192,1,0,0:0:0:0:
130,59,97278,1,0,0:0:0:0:
161,78,97364,1,8,0:0:0:0:
182,75,97449,1,0,0:0:0:0:
181,75,97621,1,0,0:0:0:0:
139,67,97706,1,0,0:0:0:0:
178,44,97964,1,0,0:0:0:0:
181,74,98049,1,0,0:0:0:0:
178,43,98135,1,8,0:0:0:0:
166,25,98306,1,0,0:0:0:0:
179,97,98392,1,8,0:0:0:0:
199,26,98564,1,0,0:0:0:0:
199,26,98735,1,0,0:0:0:0:
196,32,98821,1,0,0:0:0:0:
191,26,98992,1,0,0:0:0:0:
195,32,99078,1,8,0:0:0:0:
154,76,99421,1,0,0:0:0:0:
154,76,99506,1,0,0:0:0:0:
154,76,99678,1,0,0:0:0:0:
154,76,99764,1,8,0:0:0:0:
139,44,99935,1,0,0:0:0:0:
139,44,100021,1,0,0:0:0:0:
139,44,100106,1,0,0:0:0:0:
140,45,100192,1,8,0:0:0:0:
141,59,100449,1,8,0:0:0:0:
171,65,100621,1,0,0:0:0:0:
166,90,100792,1,0,0:0:0:0:
176,41,100878,1,8,0:0:0:0:
156,67,101135,1,8,0:0:0:0:
169,65,101392,1,0,0:0:0:0:
171,65,101478,1,8,0:0:0:0:
166,74,101649,1,0,0:0:0:0:
158,60,101821,1,0,0:0:0:0:
166,74,101906,1,0,0:0:0:0:
166,74,101992,1,0,0:0:0:0:
166,74,102164,1,8,0:0:0:0:
166,76,102335,1,0,0:0:0:0:
166,76,102506,1,0,0:0:0:0:
166,74,102592,1,0,0:0:0:0:
166,74,102678,1,0,0:0:0:0:
169,74,102849,1,8,0:0:0:0:
166,74,103021,1,8,0:0:0:0:
166,74,103192,1,8,0:0:0:0:
184,79,103535,1,4,0:0:0:0:
171,93,104221,1,12,0:0:0:0:
171,93,104906,1,4,0:0:0:0:
141,95,105592,1,12,0:0:0:0:
166,130,106278,1,4,0:0:0:0:
212,125,107355,1,0,0:0:0:0:
212,125,107894,1,8,0:0:0:0:
212,125,108433,1,0,0:0:0:0:
211,122,109511,1,0,0:0:0:0:
211,122,110050,1,8,0:0:0:0:
211,122,110589,1,8,0:0:0:0:
247,191,124282,5,4,0:0:0:0:
177,193,124582,1,8,0:0:0:0:
177,193,124732,1,8,0:0:0:0:
177,193,124882,1,0,0:0:0:0:
177,193,125032,1,8,0:0:0:0:
177,193,125182,1,0,0:0:0:0:
177,193,125332,1,0,0:0:0:0:
186,209,125482,1,8,0:0:0:0:
151,84,125782,1,0,0:0:0:0:
151,84,126082,1,8,0:0:0:0:
154,118,126682,1,0,0:0:0:0:
189,66,126832,1,0,0:0:0:0:
189,66,127132,1,0,0:0:0:0:
189,66,127282,1,8,0:0:0:0:
169,119,127582,1,0,0:0:0:0:
173,119,127732,1,0,0:0:0:0:
169,119,127807,1,0,0:0:0:0:
169,119,127882,1,0,0:0:0:0:
169,119,128182,1,0,0:0:0:0:
186,59,128332,1,0,0:0:0:0:
169,119,128482,1,8,0:0:0:0:
174,128,128632,1,0,0:0:0:0:
174,128,128932,1,8,0:0:0:0:
174,128,129082,1,0,0:0:0:0:
171,83,129382,1,0,0:0:0:0:
159,42,129532,1,0,0:0:0:0:
171,92,129682,1,8,0:0:0:0:
171,83,129982,1,0,0:0:0:0:
171,83,130132,1,0,0:0:0:0:
171,83,130207,1,0,0:0:0:0:
171,83,130282,1,0,0:0:0:0:
171,56,130432,1,8,0:0:0:0:
172,57,130582,1,0,0:0:0:0:
172,57,130732,1,0,0:0:0:0:
171,47,130882,1,8,0:0:0:0:
185,50,131182,1,8,0:0:0:0:
185,51,131482,1,0,0:0:0:0:
167,89,131782,1,0,0:0:0:0:
161,102,131932,1,0,0:0:0:0:
167,89,132082,1,8,0:0:0:0:
204,39,132232,1,0,0:0:0:0:
159,98,132532,1,8,0:0:0:0:
181,138,132682,1,0,0:0:0:0:
186,132,132832,1,0,0:0:0:0:
186,132,132982,1,8,0:0:0:0:
159,98,133282,1,8,0:0:0:0:
166,107,133882,1,4,0:0:0:0:
185,113,134182,1,0,0:0:0:0:
185,113,134332,1,0,0:0:0:0:
185,113,134482,1,8,0:0:0:0:
175,119,134782,1,0,0:0:0:0:
193,105,135082,1,0,0:0:0:0:
194,105,135232,1,0,0:0:0:0:
194,105,135382,1,0,0:0:0:0:
196,107,135532,1,0,0:0:0:0:
196,107,135682,1,8,0:0:0:0:
206,96,135982,1,8,0:0:0:0:
206,96,136282,1,0,0:0:0:0:
179,133,136582,1,0,0:0:0:0:
179,133,136732,1,0,0:0:0:0:
179,133,136882,1,8,0:0:0:0:
179,72,137032,1,0,0:0:0:0:
156,93,137182,1,8,0:0:0:0:
164,90,137482,1,0,0:0:0:0:
172,101,137632,1,0,0:0:0:0:
172,101,137782,1,0,0:0:0:0:
172,101,138082,1,8,0:0:0:0:
298,89,138382,1,8,0:0:0:0:
298,89,138682,1,4,0:0:0:0:
176,129,138982,1,0,0:0:0:0:
176,129,139282,1,8,0:0:0:0:
167,126,139582,1,0,0:0:0:0:
168,127,139732,1,8,0:0:0:0:
172,114,139882,1,0,0:0:0:0:
165,112,140032,1,0,0:0:0:0:
166,113,140332,1,0,0:0:0:0:
166,112,140482,1,8,0:0:0:0:
215,78,140632,1,0,0:0:0:0:
185,72,140782,1,8,0:0:0:0:
185,72,141082,1,0,0:0:0:0:
185,132,141382,1,0,0:0:0:0:
186,128,141532,1,0,0:0:0:0:
185,132,141682,1,8,0:0:0:0:
223,89,141982,1,0,0:0:0:0:
223,89,142282,1,0,0:0:0:0:
223,89,142432,1,0,0:0:0:0:
223,89,142582,1,0,0:0:0:0:
223,89,142732,1,0,0:0:0:0:
223,89,142882,1,8,0:0:0:0:
176,100,143182,1,8,0:0:0:0:
166,100,143482,1,0,0:0:0:0:
160,96,143782,1,8,0:0:0:0:
141,109,143932,1,0,0:0:0:0:
162,96,144082,1,0,0:0:0:0:
165,93,144157,1,0,0:0:0:0:
163,95,144232,1,8,0:0:0:0:
146,124,144532,1,0,0:0:0:0:
168,104,144607,1,0,0:0:0:0:
146,125,144682,1,0,0:0:0:0:
146,125,144832,1,0,0:0:0:0:
175,142,144982,1,8,0:0:0:0:
176,139,145282,1,0,0:0:0:0:
176,139,145432,1,8,0:0:0:0:
175,142,145582,1,0,0:0:0:0:
173,115,145882,1,0,0:0:0:0:
178,150,146032,1,0,0:0:0:0:
178,151,146182,1,8,0:0:0:0:
152,114,146482,1,0,0:0:0:0:
171,99,146557,1,0,0:0:0:0:
154,114,146632,1,8,0:0:0:0:
171,99,146782,1,0,0:0:0:0:
185,71,146932,1,0,0:0:0:0:
185,71,147007,1,0,0:0:0:0:
161,107,147082,1,0,0:0:0:0:
166,107,147232,1,0,0:0:0:0:
183,105,147457,1,0,0:0:0:0:
175,84,147532,1,8,0:0:0:0:
175,84,147682,1,0,0:0:0:0:
175,84,147832,1,8,0:0:0:0:
182,83,147982,1,0,0:0:0:0:
181,114,148282,1,0,0:0:0:0:
183,97,148432,1,0,0:0:0:0:
181,116,148507,1,0,0:0:0:0:
181,116,148582,1,8,0:0:0:0:
201,97,148732,1,0,0:0:0:0:
160,104,148882,1,0,0:0:0:0:
160,104,149032,1,8,0:0:0:0:
187,131,149332,1,0,0:0:0:0:
190,133,149407,1,0,0:0:0:0:
188,132,149482,1,0,0:0:0:0:
187,131,149632,1,0,0:0:0:0:
187,131,149782,1,8,0:0:0:0:
173,96,150082,1,0,0:0:0:0:
173,96,150232,1,8,0:0:0:0:
153,85,150382,1,0,0:0:0:0:
154,85,150682,1,0,0:0:0:0:
198,109,150982,1,8,0:0:0:0:
198,109,151132,1,0,0:0:0:0:
198,109,151282,1,0,0:0:0:0:
192,66,151432,1,8,0:0:0:0:
192,66,151582,1,0,0:0:0:0:
192,66,151732,1,8,0:0:0:0:
206,60,151882,1,0,0:0:0:0:
206,88,151957,1,0,0:0:0:0:
177,47,152107,1,8,0:0:0:0:
177,47,152182,1,8,0:0:0:0:
176,78,152332,1,8,0:0:0:0:
176,80,152482,1,0,0:0:0:0:
169,84,152632,1,0,0:0:0:0:
169,49,152707,1,0,0:0:0:0:
171,84,152782,1,8,0:0:0:0:
186,112,152932,1,8,0:0:0:0:
186,113,153082,1,4,0:0:0:0:
176,80,153382,1,8,0:0:0:0:
169,84,153532,1,0,0:0:0:0:
172,82,153682,1,0,0:0:0:0:
186,142,153757,1,0,0:0:0:0:
161,107,153832,1,8,0:0:0:0:
186,145,154132,1,0,0:0:0:0:
186,142,154282,1,0,0:0:0:0:
168,94,154432,1,0,0:0:0:0:
188,148,154507,1,0,0:0:0:0:
189,110,154582,1,8,0:0:0:0:
170,95,154882,1,0,0:0:0:0:
168,94,154957,1,8,0:0:0:0:
168,94,155032,1,0,0:0:0:0:
172,106,155182,1,0,0:0:0:0:
173,102,155332,1,0,0:0:0:0:
174,102,155482,1,0,0:0:0:0:
201,69,155707,1,0,0:0:0:0:
158,23,155782,1,8,0:0:0:0:
166,111,155932,1,0,0:0:0:0:
166,112,156007,1,0,0:0:0:0:
166,111,156082,1,0,0:0:0:0:
185,130,156232,1,8,0:0:0:0:
185,130,156382,1,0,0:0:0:0:
165,84,156457,1,0,0:0:0:0:
153,104,156607,1,8,0:0:0:0:
165,84,156682,1,0,0:0:0:0:
179,61,156907,1,0,0:0:0:0:
177,69,156982,1,8,0:0:0:0:
167,96,157132,1,0,0:0:0:0:
167,96,157282,1,8,0:0:0:0:
156,62,157357,1,0,0:0:0:0:
156,62,157432,1,0,0:0:0:0:
156,62,157507,1,0,0:0:0:0:
156,62,157582,1,8,0:0:0:0:
198,56,157807,1,0,0:0:0:0:
200,48,157882,1,0,0:0:0:0:
198,56,158032,1,0,0:0:0:0:
190,59,158182,1,0,0:0:0:0:
138,102,158332,1,0,0:0:0:0:
138,102,158407,1,0,0:0:0:0:
138,102,158482,1,8,0:0:0:0:
185,85,158632,1,0,0:0:0:0:
183,86,158707,1,0,0:0:0:0:
185,85,158782,1,0,0:0:0:0:
182,85,158932,1,8,0:0:0:0:
182,92,159082,1,0,0:0:0:0:
192,92,159157,1,0,0:0:0:0:
192,92,159307,1,0,0:0:0:0:
160,81,159382,1,0,0:0:0:0:
181,110,159682,1,0,0:0:0:0:
135,68,159757,1,0,0:0:0:0:
135,68,159832,1,8,0:0:0:0:
135,68,159982,1,0,0:0:0:0:
174,24,160057,1,8,0:0:0:0:
164,57,160132,1,0,0:0:0:0:
161,100,160282,1,8,0:0:0:0:
183,81,160507,1,0,0:0:0:0:
183,82,160582,1,8,0:0:0:0:
154,82,160732,1,0,0:0:0:0:
161,72,160807,1,0,0:0:0:0:
154,82,160882,1,8,0:0:0:0:
170,62,161032,1,8,0:0:0:0:
170,63,161107,1,8,0:0:0:0:
170,63,161182,1,8,0:0:0:0:
170,63,161332,1,0,0:0:0:0:
256,192,161482,12,0,162682,0:0:0:0:
