osu file format v14

[General]
AudioFilename: audio.mp3
AudioLeadIn: 0
PreviewTime: 11307
Countdown: 0
SampleSet: None
StackLeniency: 0.7
Mode: 1
LetterboxInBreaks: 0
WidescreenStoryboard: 0

[Editor]
Bookmarks: 11301,29136,51078,73020,92562,110390,124276,143476,162682
DistanceSpacing: 0.5
BeatDivisor: 4
GridSize: 4
TimelineZoom: 2.4

[Metadata]
Title:Sleepy Tea
TitleUnicode:Sleepy Tea
Artist:CHON
ArtistUnicode:CHON
Creator:Ulqui
Version:Inner Oni
Source:
Tags:
BeatmapID:1857268
BeatmapSetID:888578

[Difficulty]
HPDrainRate:6
CircleSize:2
OverallDifficulty:5
ApproachRate:10
SliderMultiplier:1.4
SliderTickRate:1

[Events]
//Background and Video events
0,0,"anime_girl_in_the_wind-wallpaper-2560x1600.jpg",0,90
//Break Periods
2,110789,123832
//Storyboard Layer 0 (Background)
//Storyboard Layer 1 (Fail)
//Storyboard Layer 2 (Pass)
//Storyboard Layer 3 (Foreground)
//Storyboard Sound Samples

[TimingPoints]
336,342.857142857143,4,2,0,100,1,0
336,-200,4,2,0,10,0,0
1707,-166.666666666667,4,2,0,10,0,0
3078,-142.857142857143,4,2,0,20,0,0
4450,-136.986301369863,4,2,0,25,0,0
4621,-131.578947368421,4,2,0,30,0,0
4793,-125,4,2,0,35,0,0
5650,-120.481927710843,4,2,0,40,0,0
5821,-117.647058823529,4,2,0,50,0,0
7193,-117.647058823529,4,2,0,60,0,0
8564,-117.647058823529,4,2,0,70,0,0
9936,-117.647058823529,4,2,0,80,0,0
11307,-100,4,2,0,90,0,0
22278,-90.9090909090909,4,2,0,90,0,1
23650,-90.9090909090909,4,2,0,90,0,0
24336,-100,4,2,0,90,0,0
25707,-125,4,2,0,90,0,0
29136,-100,3,2,0,90,0,0
35478,-95.2380952380952,3,2,0,90,0,0
35650,-90.9090909090909,3,2,0,90,0,0
35821,-86.9565217391304,3,2,0,90,0,0
36164,-83.3333333333333,3,2,0,90,0,0
36336,-76.9230769230769,3,2,0,90,0,0
36678,-83.3333333333333,3,2,0,90,0,0
37021,-90.9090909090909,3,2,0,90,0,0
37364,-100,3,2,0,90,0,0
46450,-95.2380952380952,3,2,0,90,0,0
46621,-90.9090909090909,3,2,0,90,0,0
46793,-86.9565217391304,3,2,0,90,0,0
47307,-76.9230769230769,3,2,0,90,0,0
47650,-83.3333333333333,3,2,0,90,0,0
47993,-90.9090909090909,3,2,0,90,0,0
50621,-92.5925925925926,3,2,0,90,0,0
50736,-94.3396226415094,3,2,0,90,0,0
50850,-96.1538461538461,3,2,0,90,0,0
50964,-98.0392156862745,3,2,0,90,0,0
51078,-100,3,2,0,90,0,0
73020,342.857142857143,7,2,0,100,1,0
73705,-111.111111111111,7,2,0,100,0,0
74220,-117.647058823529,7,2,0,100,0,0
74391,-125,7,2,0,100,0,0
91877,-117.647058823529,7,2,0,100,0,0
92048,-111.111111111111,7,2,0,100,0,0
92220,342.857142857143,4,2,0,100,1,8
92220,-105.263157894737,7,2,0,100,0,0
92564,342.857142857143,4,2,0,100,1,0
92564,-100,4,2,0,100,0,0
104219,-111.111111111111,4,2,0,100,0,0
104904,-125,4,2,0,100,0,0
105590,-142.857142857143,4,2,0,100,0,0
106278,718.562874251497,3,2,0,100,1,0
106278,-100,3,2,0,50,0,0
107355,-100,3,2,0,50,0,0
110733,-100,3,2,0,100,0,0
124282,300,4,2,0,100,1,0
124282,-83.3333333333333,4,2,0,100,0,0
124582,-99.9999999999999,4,2,0,100,0,0
143482,-100,4,2,0,100,0,1
162682,-100,4,2,0,100,0,0

[HitObjects]
16,212,336,5,0,0:0:0:0:
16,204,1364,1,8,0:0:0:0:
16,204,1707,1,0,0:0:0:0:
16,204,2736,1,0,0:0:0:0:
16,204,3078,1,8,0:0:0:0:
16,204,4107,1,8,0:0:0:0:
16,204,4450,1,0,0:0:0:0:
16,204,4621,1,8,0:0:0:0:
16,204,4793,1,0,0:0:0:0:
16,204,5478,1,8,0:0:0:0:
16,204,5650,1,8,0:0:0:0:
16,204,5821,1,0,0:0:0:0:
44,180,6164,1,0,0:0:0:0:
44,180,6336,1,0,0:0:0:0:
40,168,6421,1,0,0:0:0:0:
44,180,6507,1,8,0:0:0:0:
40,168,6678,1,8,0:0:0:0:
40,168,6850,1,0,0:0:0:0:
40,168,7193,1,0,0:0:0:0:
40,168,7536,1,0,0:0:0:0:
188,112,7707,1,0,0:0:0:0:
40,168,7793,1,8,0:0:0:0:
40,168,7878,1,8,0:0:0:0:
140,172,7964,1,0,0:0:0:0:
140,172,8050,1,0,0:0:0:0:
140,172,8221,1,8,0:0:0:0:
140,172,8393,1,8,0:0:0:0:
140,172,8564,1,0,0:0:0:0:
188,112,8907,1,0,0:0:0:0:
188,112,9078,1,0,0:0:0:0:
188,112,9164,1,0,0:0:0:0:
188,112,9250,1,8,0:0:0:0:
188,112,9421,1,8,0:0:0:0:
188,112,9593,1,0,0:0:0:0:
188,112,9764,1,8,0:0:0:0:
188,112,9936,1,0,0:0:0:0:
188,112,10278,1,0,0:0:0:0:
188,112,10536,1,8,0:0:0:0:
188,112,10621,1,8,0:0:0:0:
240,168,11307,1,4,0:0:0:0:
240,168,11478,1,8,0:0:0:0:
240,176,11564,1,8,0:0:0:0:
240,168,11650,1,0,0:0:0:0:
240,168,11736,1,8,0:0:0:0:
240,168,11821,1,0,0:0:0:0:
240,168,11993,1,8,0:0:0:0:
240,168,12078,1,8,0:0:0:0:
240,176,12164,1,0,0:0:0:0:
240,176,12250,1,8,0:0:0:0:
240,176,12336,1,0,0:0:0:0:
172,40,12421,1,0,0:0:0:0:
236,176,12507,1,8,0:0:0:0:
188,28,12593,1,8,0:0:0:0:
236,176,12678,1,0,0:0:0:0:
172,40,12850,1,0,0:0:0:0:
172,40,12936,1,8,0:0:0:0:
172,40,13021,1,0,0:0:0:0:
172,40,13107,1,0,0:0:0:0:
172,40,13193,1,0,0:0:0:0:
172,40,13278,1,8,0:0:0:0:
172,40,13364,1,8,0:0:0:0:
180,24,13536,1,8,0:0:0:0:
180,24,13621,1,0,0:0:0:0:
176,24,13707,1,8,0:0:0:0:
164,32,13793,1,8,0:0:0:0:
168,32,13878,1,0,0:0:0:0:
164,32,13964,1,0,0:0:0:0:
168,32,14050,1,8,0:0:0:0:
156,36,14221,1,0,0:0:0:0:
156,40,14307,1,8,0:0:0:0:
156,36,14393,1,0,0:0:0:0:
156,44,14478,1,0,0:0:0:0:
156,40,14564,1,8,0:0:0:0:
184,16,14650,1,0,0:0:0:0:
188,24,14736,1,8,0:0:0:0:
188,16,14907,1,8,0:0:0:0:
180,36,15078,1,8,0:0:0:0:
168,44,15164,1,8,0:0:0:0:
164,44,15250,1,0,0:0:0:0:
168,44,15336,1,0,0:0:0:0:
164,44,15421,1,8,0:0:0:0:
180,60,15593,1,0,0:0:0:0:
168,56,15678,1,8,0:0:0:0:
168,56,15764,1,0,0:0:0:0:
168,56,15850,1,0,0:0:0:0:
168,56,15936,1,0,0:0:0:0:
172,52,16021,1,8,0:0:0:0:
168,56,16107,1,8,0:0:0:0:
144,72,16278,1,8,0:0:0:0:
144,72,16364,1,0,0:0:0:0:
144,72,16450,1,8,0:0:0:0:
144,72,16536,1,8,0:0:0:0:
144,72,16621,1,0,0:0:0:0:
192,24,16707,1,0,0:0:0:0:
116,132,16793,5,0,0:0:0:0:
136,128,16878,1,8,0:0:0:0:
136,128,17050,1,0,0:0:0:0:
136,128,17136,1,8,0:0:0:0:
180,76,17221,1,0,0:0:0:0:
180,76,17307,1,0,0:0:0:0:
180,76,17393,1,0,0:0:0:0:
180,76,17478,1,8,0:0:0:0:
180,32,17650,1,8,0:0:0:0:
180,32,17821,1,0,0:0:0:0:
180,32,17907,1,0,0:0:0:0:
180,32,17993,1,8,0:0:0:0:
180,32,18078,1,8,0:0:0:0:
180,32,18164,1,0,0:0:0:0:
180,76,18250,1,0,0:0:0:0:
196,24,18336,1,8,0:0:0:0:
192,56,18507,1,0,0:0:0:0:
172,44,18593,1,0,0:0:0:0:
196,32,18678,1,0,0:0:0:0:
192,36,18764,1,8,0:0:0:0:
172,44,18850,1,8,0:0:0:0:
192,64,19021,1,0,0:0:0:0:
192,64,19107,1,0,0:0:0:0:
188,64,19193,1,8,0:0:0:0:
188,68,19278,1,0,0:0:0:0:
188,68,19364,1,8,0:0:0:0:
188,72,19450,1,8,0:0:0:0:
188,68,19536,1,0,0:0:0:0:
144,112,19707,1,8,0:0:0:0:
144,112,19793,1,0,0:0:0:0:
144,112,19964,1,0,0:0:0:0:
144,112,20050,1,0,0:0:0:0:
144,112,20136,1,0,0:0:0:0:
144,112,20221,1,8,0:0:0:0:
180,68,20393,1,8,0:0:0:0:
180,68,20564,1,0,0:0:0:0:
180,68,20650,1,0,0:0:0:0:
180,68,20736,1,8,0:0:0:0:
180,68,20821,1,8,0:0:0:0:
180,68,20907,1,8,0:0:0:0:
184,60,21078,1,0,0:0:0:0:
184,60,21164,1,8,0:0:0:0:
184,64,21250,1,0,0:0:0:0:
184,60,21336,1,0,0:0:0:0:
184,60,21421,1,0,0:0:0:0:
184,64,21507,1,8,0:0:0:0:
184,60,21593,1,8,0:0:0:0:
184,64,21764,1,0,0:0:0:0:
184,64,21850,1,8,0:0:0:0:
184,60,21936,1,8,0:0:0:0:
208,80,22107,1,8,0:0:0:0:
208,80,22278,1,4,0:0:0:0:
204,88,22450,1,0,0:0:0:0:
208,80,22621,1,12,0:0:0:0:
204,88,22793,1,8,0:0:0:0:
204,88,22964,1,4,0:0:0:0:
204,88,23136,1,0,0:0:0:0:
204,88,23307,1,12,0:0:0:0:
204,88,23478,1,8,0:0:0:0:
204,88,23650,1,4,0:0:0:0:
128,152,24336,1,4,0:0:0:0:
128,152,24678,1,12,0:0:0:0:
128,152,25021,1,4,0:0:0:0:
136,184,25707,1,0,0:0:0:0:
136,184,26050,1,8,0:0:0:0:
136,184,26393,1,0,0:0:0:0:
144,136,29136,1,4,0:0:0:0:
120,68,29307,1,8,0:0:0:0:
104,184,29478,1,0,0:0:0:0:
104,184,29650,1,0,0:0:0:0:
72,172,29736,1,0,0:0:0:0:
104,184,29821,1,8,0:0:0:0:
136,120,29993,1,8,0:0:0:0:
136,120,30164,1,0,0:0:0:0:
136,120,30507,1,0,0:0:0:0:
136,120,30593,1,8,0:0:0:0:
136,120,30678,1,0,0:0:0:0:
184,104,30764,1,0,0:0:0:0:
136,120,30850,1,8,0:0:0:0:
160,104,31193,1,0,0:0:0:0:
160,104,31278,1,8,0:0:0:0:
160,108,31364,1,0,0:0:0:0:
160,104,31450,1,0,0:0:0:0:
160,108,31536,1,8,0:0:0:0:
160,108,31621,1,8,0:0:0:0:
160,112,31707,1,0,0:0:0:0:
160,108,31793,1,0,0:0:0:0:
160,108,31878,1,8,0:0:0:0:
160,112,31964,1,8,0:0:0:0:
160,112,32050,1,0,0:0:0:0:
160,112,32136,1,8,0:0:0:0:
160,112,32221,1,0,0:0:0:0:
160,108,32393,1,0,0:0:0:0:
148,112,32478,1,0,0:0:0:0:
160,108,32564,1,8,0:0:0:0:
160,108,32736,1,8,0:0:0:0:
124,64,32907,1,0,0:0:0:0:
124,64,33250,1,8,0:0:0:0:
124,64,33421,1,0,0:0:0:0:
124,64,33764,1,0,0:0:0:0:
124,64,33936,1,8,0:0:0:0:
124,64,34278,1,0,0:0:0:0:
124,64,34536,1,0,0:0:0:0:
124,64,34621,1,8,0:0:0:0:
124,72,34793,1,8,0:0:0:0:
124,72,34964,1,8,0:0:0:0:
124,72,35136,1,0,0:0:0:0:
124,72,35307,1,8,0:0:0:0:
124,72,35478,1,0,0:0:0:0:
124,72,35650,1,8,0:0:0:0:
164,48,35821,1,0,0:0:0:0:
212,40,36164,1,0,0:0:0:0:
164,148,36336,1,0,0:0:0:0:
164,148,36678,1,8,0:0:0:0:
212,40,37021,1,8,0:0:0:0:
160,160,37364,1,0,0:0:0:0:
160,164,37536,1,0,0:0:0:0:
160,164,37707,1,8,0:0:0:0:
160,160,37878,1,8,0:0:0:0:
160,160,38050,1,0,0:0:0:0:
160,160,38221,1,0,0:0:0:0:
160,160,38393,1,8,0:0:0:0:
160,164,38564,1,0,0:0:0:0:
156,56,38907,1,0,0:0:0:0:
172,168,39078,1,8,0:0:0:0:
168,172,39421,1,8,0:0:0:0:
172,168,39764,1,0,0:0:0:0:
172,168,39936,1,8,0:0:0:0:
172,168,40107,1,0,0:0:0:0:
174,37,40221,1,0,0:0:0:0:
206,55,40336,1,0,0:0:0:0:
188,128,40450,1,8,0:0:0:0:
168,120,40678,1,0,0:0:0:0:
188,128,40793,1,8,0:0:0:0:
152,48,40907,1,0,0:0:0:0:
220,176,41021,1,0,0:0:0:0:
220,176,41136,1,8,0:0:0:0:
220,176,41364,1,8,0:0:0:0:
150,68,41478,1,0,0:0:0:0:
208,103,41593,1,0,0:0:0:0:
150,68,41707,1,0,0:0:0:0:
150,68,41821,1,8,0:0:0:0:
181,65,42050,1,0,0:0:0:0:
150,68,42164,1,8,0:0:0:0:
150,68,42278,1,0,0:0:0:0:
208,103,42393,1,0,0:0:0:0:
150,68,42507,1,8,0:0:0:0:
208,103,42621,1,0,0:0:0:0:
150,68,42736,1,8,0:0:0:0:
150,68,42850,1,8,0:0:0:0:
150,68,42964,1,0,0:0:0:0:
181,65,43078,1,0,0:0:0:0:
164,132,43193,1,8,0:0:0:0:
160,136,43421,1,0,0:0:0:0:
160,136,43536,1,8,0:0:0:0:
288,128,43764,1,8,0:0:0:0:
156,160,43878,1,0,0:0:0:0:
179,53,43993,1,0,0:0:0:0:
156,160,44107,1,0,0:0:0:0:
156,160,44221,1,8,0:0:0:0:
156,160,44336,1,0,0:0:0:0:
156,160,44564,1,8,0:0:0:0:
156,160,44793,1,0,0:0:0:0:
156,160,44907,1,8,0:0:0:0:
156,160,45021,1,8,0:0:0:0:
156,160,45136,1,8,0:0:0:0:
156,160,45250,1,0,0:0:0:0:
156,160,45364,1,0,0:0:0:0:
156,160,45478,1,8,0:0:0:0:
148,160,45593,1,0,0:0:0:0:
152,136,45764,1,0,0:0:0:0:
156,128,45936,1,8,0:0:0:0:
152,136,46107,1,0,0:0:0:0:
180,24,46278,1,0,0:0:0:0:
152,136,46450,1,8,0:0:0:0:
152,136,46621,1,8,0:0:0:0:
200,104,46793,1,0,0:0:0:0:
176,108,47307,1,0,0:0:0:0:
152,56,47650,1,8,0:0:0:0:
168,64,47993,1,8,0:0:0:0:
172,64,48336,1,0,0:0:0:0:
196,124,48507,1,0,0:0:0:0:
196,124,48678,1,8,0:0:0:0:
196,124,48850,1,8,0:0:0:0:
196,124,49021,1,0,0:0:0:0:
196,124,49193,1,0,0:0:0:0:
196,124,49364,1,8,0:0:0:0:
196,124,49536,1,0,0:0:0:0:
196,124,49707,1,8,0:0:0:0:
180,64,49821,1,8,0:0:0:0:
180,64,49936,1,8,0:0:0:0:
180,64,50050,1,0,0:0:0:0:
180,64,50164,1,0,0:0:0:0:
180,64,50278,1,0,0:0:0:0:
180,64,50393,1,8,0:0:0:0:
180,64,50507,1,8,0:0:0:0:
180,64,50621,1,8,0:0:0:0:
180,64,50736,1,0,0:0:0:0:
180,64,50850,1,0,0:0:0:0:
180,64,50964,1,8,0:0:0:0:
180,64,51078,1,4,0:0:0:0:
144,208,51336,1,0,0:0:0:0:
144,176,51421,1,8,0:0:0:0:
144,208,51936,1,8,0:0:0:0:
136,212,52021,1,8,0:0:0:0:
144,208,52107,1,0,0:0:0:0:
136,212,52278,1,8,0:0:0:0:
136,212,52450,1,0,0:0:0:0:
132,212,52707,1,0,0:0:0:0:
132,212,52793,1,8,0:0:0:0:
168,128,53307,1,0,0:0:0:0:
168,128,53393,1,8,0:0:0:0:
168,128,53478,1,0,0:0:0:0:
168,128,53650,1,8,0:0:0:0:
160,64,53736,1,0,0:0:0:0:
168,128,53821,1,0,0:0:0:0:
168,128,54078,1,0,0:0:0:0:
168,128,54164,1,8,0:0:0:0:
180,88,54678,1,8,0:0:0:0:
180,88,54764,1,0,0:0:0:0:
180,88,54850,1,8,0:0:0:0:
172,92,55021,1,0,0:0:0:0:
172,92,55193,1,0,0:0:0:0:
172,92,55364,1,0,0:0:0:0:
172,92,55450,1,0,0:0:0:0:
172,92,55536,1,8,0:0:0:0:
168,96,55707,1,8,0:0:0:0:
168,96,55878,1,0,0:0:0:0:
172,92,56050,1,8,0:0:0:0:
172,92,56136,1,0,0:0:0:0:
172,100,56307,1,0,0:0:0:0:
172,100,56393,1,0,0:0:0:0:
172,100,56478,1,8,0:0:0:0:
172,100,56564,1,0,0:0:0:0:
168,96,56821,1,0,0:0:0:0:
168,96,56907,1,8,0:0:0:0:
116,144,57421,1,8,0:0:0:0:
116,144,57593,1,0,0:0:0:0:
116,144,57678,1,0,0:0:0:0:
116,144,57764,1,8,0:0:0:0:
116,144,57936,1,0,0:0:0:0:
184,72,58193,1,0,0:0:0:0:
116,144,58278,1,8,0:0:0:0:
168,44,58793,1,8,0:0:0:0:
168,44,58964,1,0,0:0:0:0:
164,44,59050,1,0,0:0:0:0:
168,44,59136,1,8,0:0:0:0:
168,44,59307,1,0,0:0:0:0:
168,56,59564,1,0,0:0:0:0:
168,56,59650,1,8,0:0:0:0:
168,44,59821,1,0,0:0:0:0:
168,44,59907,1,0,0:0:0:0:
168,44,59993,1,8,0:0:0:0:
180,76,60078,1,8,0:0:0:0:
180,76,60164,1,0,0:0:0:0:
176,80,60250,1,0,0:0:0:0:
176,76,60336,1,0,0:0:0:0:
176,76,60421,1,8,0:0:0:0:
176,76,60507,1,0,0:0:0:0:
176,80,60593,1,0,0:0:0:0:
176,76,60678,1,8,0:0:0:0:
168,72,60850,1,0,0:0:0:0:
172,68,60936,1,0,0:0:0:0:
172,68,61021,1,8,0:0:0:0:
180,84,61107,1,0,0:0:0:0:
180,84,61193,1,0,0:0:0:0:
176,88,61278,1,8,0:0:0:0:
180,84,61364,1,0,0:0:0:0:
176,84,61450,1,0,0:0:0:0:
176,88,61536,1,8,0:0:0:0:
176,80,61621,1,0,0:0:0:0:
180,84,61707,1,0,0:0:0:0:
180,84,61793,1,0,0:0:0:0:
180,84,61878,1,8,0:0:0:0:
176,88,61964,1,8,0:0:0:0:
180,84,62050,1,0,0:0:0:0:
192,108,62307,1,0,0:0:0:0:
192,108,62393,1,8,0:0:0:0:
156,100,62907,1,8,0:0:0:0:
156,100,62993,1,8,0:0:0:0:
148,104,63078,1,0,0:0:0:0:
192,56,63250,1,8,0:0:0:0:
192,56,63421,1,0,0:0:0:0:
164,72,63678,1,0,0:0:0:0:
164,72,63764,1,8,0:0:0:0:
176,92,64278,1,8,0:0:0:0:
180,92,64364,1,8,0:0:0:0:
180,92,64450,1,0,0:0:0:0:
180,88,64536,1,8,0:0:0:0:
180,88,64621,1,0,0:0:0:0:
180,88,64793,1,0,0:0:0:0:
176,92,65050,1,0,0:0:0:0:
176,92,65136,1,8,0:0:0:0:
184,44,65650,1,8,0:0:0:0:
184,44,65736,1,0,0:0:0:0:
184,44,65821,1,0,0:0:0:0:
184,28,65907,1,8,0:0:0:0:
184,16,65993,1,0,0:0:0:0:
184,16,66164,1,0,0:0:0:0:
96,184,66336,1,0,0:0:0:0:
184,32,66421,1,0,0:0:0:0:
184,32,66507,1,8,0:0:0:0:
96,184,66678,1,0,0:0:0:0:
96,184,66850,1,0,0:0:0:0:
96,184,66936,1,0,0:0:0:0:
96,184,67021,1,8,0:0:0:0:
96,184,67107,1,0,0:0:0:0:
92,192,67278,1,0,0:0:0:0:
92,192,67364,1,8,0:0:0:0:
92,192,67536,1,4,0:0:0:0:
148,96,67878,1,8,0:0:0:0:
148,96,68050,1,0,0:0:0:0:
148,96,68221,1,0,0:0:0:0:
148,96,68393,1,0,0:0:0:0:
148,96,68564,1,0,0:0:0:0:
144,100,68650,1,8,0:0:0:0:
144,100,68736,1,0,0:0:0:0:
168,48,68907,1,8,0:0:0:0:
184,60,69078,1,0,0:0:0:0:
184,60,69164,1,0,0:0:0:0:
184,56,69250,1,8,0:0:0:0:
184,40,69593,1,0,0:0:0:0:
176,52,69764,1,8,0:0:0:0:
176,52,69936,1,0,0:0:0:0:
176,52,70021,1,0,0:0:0:0:
176,52,70107,1,8,0:0:0:0:
176,52,70278,1,0,0:0:0:0:
160,96,70536,1,0,0:0:0:0:
160,96,70621,1,0,0:0:0:0:
144,88,70793,1,8,0:0:0:0:
144,88,70964,1,0,0:0:0:0:
144,88,71050,1,0,0:0:0:0:
144,88,71136,1,8,0:0:0:0:
144,88,71221,1,8,0:0:0:0:
144,88,71307,1,0,0:0:0:0:
168,64,71393,1,0,0:0:0:0:
160,68,71478,1,0,0:0:0:0:
168,64,71564,1,8,0:0:0:0:
168,64,71650,1,8,0:0:0:0:
160,60,71821,1,8,0:0:0:0:
160,60,71993,1,0,0:0:0:0:
160,60,72078,1,0,0:0:0:0:
160,60,72164,1,0,0:0:0:0:
160,60,72250,1,8,0:0:0:0:
160,52,72336,1,8,0:0:0:0:
160,52,72421,1,0,0:0:0:0:
160,52,72507,1,0,0:0:0:0:
160,52,72593,1,8,0:0:0:0:
160,52,72678,1,0,0:0:0:0:
160,52,72764,1,0,0:0:0:0:
160,52,72850,1,8,0:0:0:0:
160,52,72936,1,8,0:0:0:0:
160,52,73021,1,4,0:0:0:0:
140,152,73706,1,8,0:0:0:0:
136,160,74220,1,0,0:0:0:0:
140,152,74392,1,0,0:0:0:0:
160,108,74906,1,0,0:0:0:0:
160,108,75078,1,8,0:0:0:0:
160,108,75420,1,4,0:0:0:0:
168,100,75935,1,0,0:0:0:0:
168,100,76106,1,8,0:0:0:0:
168,100,76620,1,0,0:0:0:0:
168,100,76792,1,0,0:0:0:0:
168,100,77306,1,0,0:0:0:0:
168,100,77478,1,8,0:0:0:0:
160,52,77649,1,0,0:0:0:0:
160,52,77820,1,4,0:0:0:0:
180,84,78335,1,0,0:0:0:0:
180,84,78506,1,8,0:0:0:0:
180,84,79020,1,0,0:0:0:0:
180,84,79192,1,0,0:0:0:0:
180,84,79706,1,0,0:0:0:0:
180,84,79878,1,8,0:0:0:0:
156,84,80220,1,4,0:0:0:0:
192,48,80735,1,0,0:0:0:0:
192,48,80906,1,8,0:0:0:0:
152,32,81249,1,8,0:0:0:0:
152,32,81420,1,8,0:0:0:0:
152,32,81592,1,0,0:0:0:0:
200,24,81935,1,0,0:0:0:0:
188,56,82106,1,0,0:0:0:0:
200,32,82278,1,8,0:0:0:0:
200,32,82449,1,8,0:0:0:0:
200,32,82620,1,4,0:0:0:0:
106,182,82962,1,0,0:0:0:0:
109,198,83134,1,0,0:0:0:0:
109,198,83305,1,8,0:0:0:0:
109,199,83648,1,0,0:0:0:0:
109,199,83820,1,8,0:0:0:0:
109,198,84162,1,0,0:0:0:0:
109,198,84334,1,8,0:0:0:0:
109,199,84677,1,0,0:0:0:0:
109,199,84848,1,8,0:0:0:0:
109,198,85020,1,4,0:0:0:0:
191,66,85362,1,8,0:0:0:0:
191,66,85534,1,0,0:0:0:0:
191,66,85705,1,0,0:0:0:0:
191,66,85877,1,8,0:0:0:0:
191,66,86220,1,0,0:0:0:0:
191,66,86391,1,8,0:0:0:0:
191,66,86734,1,0,0:0:0:0:
191,66,86905,1,8,0:0:0:0:
191,66,87077,1,0,0:0:0:0:
191,66,87248,1,8,0:0:0:0:
191,66,87420,1,4,0:0:0:0:
184,75,87762,1,8,0:0:0:0:
177,84,87934,1,0,0:0:0:0:
181,62,88105,1,8,0:0:0:0:
225,110,88620,1,0,0:0:0:0:
225,110,88791,1,0,0:0:0:0:
181,138,89305,1,0,0:0:0:0:
181,138,89477,1,8,0:0:0:0:
181,115,89648,1,8,0:0:0:0:
181,138,89820,1,4,0:0:0:0:
231,147,90162,1,0,0:0:0:0:
189,42,90334,1,0,0:0:0:0:
189,42,90505,1,8,0:0:0:0:
215,59,90677,1,8,0:0:0:0:
189,42,91020,1,0,0:0:0:0:
189,42,91191,1,8,0:0:0:0:
231,147,91362,1,0,0:0:0:0:
182,45,91705,1,0,0:0:0:0:
182,45,91877,1,8,0:0:0:0:
225,172,92048,1,8,0:0:0:0:
182,45,92220,1,0,0:0:0:0:
191,79,92564,1,8,0:0:0:0:
189,156,92649,1,0,0:0:0:0:
208,29,92821,1,0,0:0:0:0:
189,68,92907,1,8,0:0:0:0:
183,224,93078,1,0,0:0:0:0:
189,68,93164,1,0,0:0:0:0:
189,68,93249,1,8,0:0:0:0:
191,69,93336,1,0,0:0:0:0:
208,54,93506,1,0,0:0:0:0:
191,69,93593,1,8,0:0:0:0:
183,224,93764,1,0,0:0:0:0:
199,62,93849,1,0,0:0:0:0:
199,62,93935,1,8,0:0:0:0:
229,82,94021,1,0,0:0:0:0:
229,82,94106,1,0,0:0:0:0:
208,54,94192,1,0,0:0:0:0:
194,17,94278,1,8,0:0:0:0:
183,224,94449,1,0,0:0:0:0:
194,17,94535,1,0,0:0:0:0:
194,17,94621,1,8,0:0:0:0:
194,17,94706,1,0,0:0:0:0:
192,39,94964,1,8,0:0:0:0:
185,60,95306,1,8,0:0:0:0:
185,60,95392,1,0,0:0:0:0:
186,54,95564,1,0,0:0:0:0:
184,35,95649,1,8,0:0:0:0:
180,224,95821,1,0,0:0:0:0:
183,36,95906,1,0,0:0:0:0:
182,36,95992,1,8,0:0:0:0:
182,36,96078,1,0,0:0:0:0:
185,60,96249,1,0,0:0:0:0:
167,43,96335,1,8,0:0:0:0:
180,224,96506,1,0,0:0:0:0:
167,44,96592,1,0,0:0:0:0:
167,44,96678,1,8,0:0:0:0:
167,45,96764,1,0,0:0:0:0:
224,70,96849,1,0,0:0:0:0:
184,57,96935,1,0,0:0:0:0:
184,57,97021,1,8,0:0:0:0:
185,60,97192,1,0,0:0:0:0:
185,60,97278,1,0,0:0:0:0:
184,57,97364,1,8,0:0:0:0:
183,57,97449,1,0,0:0:0:0:
183,57,97621,1,0,0:0:0:0:
183,57,97706,1,8,0:0:0:0:
184,57,97878,1,8,0:0:0:0:
185,65,97964,1,0,0:0:0:0:
184,57,98049,1,0,0:0:0:0:
186,147,98135,1,8,0:0:0:0:
186,147,98392,1,8,0:0:0:0:
180,224,98564,1,0,0:0:0:0:
174,140,98649,1,0,0:0:0:0:
173,140,98735,1,0,0:0:0:0:
173,140,98821,1,8,0:0:0:0:
186,63,99078,1,8,0:0:0:0:
186,63,99249,1,0,0:0:0:0:
186,63,99335,1,0,0:0:0:0:
186,63,99421,1,8,0:0:0:0:
201,52,99506,1,0,0:0:0:0:
198,52,99764,1,8,0:0:0:0:
180,224,99935,1,0,0:0:0:0:
191,46,100021,1,0,0:0:0:0:
191,39,100106,1,0,0:0:0:0:
191,47,100192,1,8,0:0:0:0:
209,106,100364,1,0,0:0:0:0:
190,47,100449,1,8,0:0:0:0:
201,59,100621,1,0,0:0:0:0:
200,59,100792,1,0,0:0:0:0:
192,59,100878,1,8,0:0:0:0:
186,5,101049,1,0,0:0:0:0:
201,39,101135,1,8,0:0:0:0:
182,97,101306,1,0,0:0:0:0:
175,68,101478,1,0,0:0:0:0:
174,69,101564,1,8,0:0:0:0:
173,72,101649,1,0,0:0:0:0:
174,69,101735,1,0,0:0:0:0:
173,71,101821,1,8,0:0:0:0:
173,72,101906,1,8,0:0:0:0:
175,68,101992,1,0,0:0:0:0:
175,68,102078,1,0,0:0:0:0:
175,68,102164,1,8,0:0:0:0:
194,63,102249,1,0,0:0:0:0:
194,63,102335,1,0,0:0:0:0:
192,66,102421,1,0,0:0:0:0:
191,66,102506,1,0,0:0:0:0:
199,66,102592,1,0,0:0:0:0:
191,66,102678,1,0,0:0:0:0:
191,67,102764,1,0,0:0:0:0:
191,67,102849,1,8,0:0:0:0:
180,52,103021,1,8,0:0:0:0:
192,66,103192,1,8,0:0:0:0:
191,66,103535,1,4,0:0:0:0:
192,66,104221,1,4,0:0:0:0:
192,66,104906,1,12,0:0:0:0:
192,66,105592,1,12,0:0:0:0:
192,66,106278,1,0,0:0:0:0:
186,60,106367,1,8,0:0:0:0:
202,132,107355,1,0,0:0:0:0:
202,132,107894,1,8,0:0:0:0:
202,132,108433,1,0,0:0:0:0:
254,181,109511,1,0,0:0:0:0:
178,116,110050,1,8,0:0:0:0:
178,116,110589,1,8,0:0:0:0:
196,133,124282,5,4,0:0:0:0:
171,60,124582,1,8,0:0:0:0:
171,60,124732,1,8,0:0:0:0:
171,60,124882,1,0,0:0:0:0:
171,60,125032,1,8,0:0:0:0:
171,60,125182,1,0,0:0:0:0:
171,60,125332,1,0,0:0:0:0:
140,87,125482,1,8,0:0:0:0:
164,88,125782,1,0,0:0:0:0:
184,95,126082,1,8,0:0:0:0:
182,57,126682,1,0,0:0:0:0:
182,57,126832,1,0,0:0:0:0:
177,28,126982,1,8,0:0:0:0:
182,28,127132,1,0,0:0:0:0:
181,52,127207,1,0,0:0:0:0:
182,57,127282,1,8,0:0:0:0:
181,59,127432,1,0,0:0:0:0:
213,85,127582,1,0,0:0:0:0:
213,85,127732,1,8,0:0:0:0:
213,85,127807,1,8,0:0:0:0:
259,57,127882,1,0,0:0:0:0:
182,57,128182,1,0,0:0:0:0:
182,57,128332,1,0,0:0:0:0:
242,62,128482,1,8,0:0:0:0:
182,57,128632,1,8,0:0:0:0:
182,57,128782,1,0,0:0:0:0:
182,57,128932,1,8,0:0:0:0:
215,78,129082,1,0,0:0:0:0:
196,48,129382,1,0,0:0:0:0:
196,49,129532,1,0,0:0:0:0:
215,78,129682,1,8,0:0:0:0:
176,18,129832,1,0,0:0:0:0:
196,50,129982,1,0,0:0:0:0:
164,42,130057,1,0,0:0:0:0:
196,48,130132,1,8,0:0:0:0:
196,50,130207,1,8,0:0:0:0:
192,52,130282,1,0,0:0:0:0:
186,53,130432,1,8,0:0:0:0:
206,45,130582,1,0,0:0:0:0:
183,95,130732,1,0,0:0:0:0:
192,52,130882,1,8,0:0:0:0:
183,95,131182,1,8,0:0:0:0:
177,67,131482,1,0,0:0:0:0:
179,72,131782,1,8,0:0:0:0:
179,72,131932,1,8,0:0:0:0:
179,72,132082,1,0,0:0:0:0:
178,33,132232,1,8,0:0:0:0:
202,69,132382,1,0,0:0:0:0:
178,33,132532,1,0,0:0:0:0:
185,45,132607,1,0,0:0:0:0:
191,70,132682,1,8,0:0:0:0:
175,57,132832,1,0,0:0:0:0:
175,57,132982,1,8,0:0:0:0:
173,58,133132,1,0,0:0:0:0:
173,58,133282,1,8,0:0:0:0:
173,58,133582,1,0,0:0:0:0:
175,57,133882,1,4,0:0:0:0:
192,60,134182,1,8,0:0:0:0:
192,60,134332,1,8,0:0:0:0:
151,79,134407,1,8,0:0:0:0:
192,60,134482,1,0,0:0:0:0:
191,61,134632,1,8,0:0:0:0:
191,61,134782,1,0,0:0:0:0:
192,60,134932,1,0,0:0:0:0:
151,79,135007,1,0,0:0:0:0:
192,60,135082,1,8,0:0:0:0:
151,79,135157,1,8,0:0:0:0:
192,60,135232,1,0,0:0:0:0:
192,60,135382,1,0,0:0:0:0:
192,60,135532,1,0,0:0:0:0:
191,61,135682,1,8,0:0:0:0:
192,60,135982,1,0,0:0:0:0:
192,42,136132,1,8,0:0:0:0:
192,42,136282,1,0,0:0:0:0:
181,58,136582,1,8,0:0:0:0:
183,52,136732,1,8,0:0:0:0:
183,31,136807,1,8,0:0:0:0:
181,58,136882,1,0,0:0:0:0:
183,52,137032,1,8,0:0:0:0:
183,52,137182,1,0,0:0:0:0:
181,58,137482,1,8,0:0:0:0:
166,45,137632,1,0,0:0:0:0:
178,82,137782,1,0,0:0:0:0:
151,48,138082,1,8,0:0:0:0:
151,49,138382,1,0,0:0:0:0:
151,48,138532,1,8,0:0:0:0:
151,48,138682,1,4,0:0:0:0:
176,103,138982,1,0,0:0:0:0:
176,103,139282,1,8,0:0:0:0:
176,103,139432,1,0,0:0:0:0:
205,68,139582,5,0,0:0:0:0:
176,103,139732,1,8,0:0:0:0:
176,103,139882,1,0,0:0:0:0:
161,72,140182,1,0,0:0:0:0:
193,44,140332,1,0,0:0:0:0:
168,33,140407,1,0,0:0:0:0:
161,72,140482,1,8,0:0:0:0:
193,44,140632,1,0,0:0:0:0:
193,44,140782,1,8,0:0:0:0:
193,44,141082,1,0,0:0:0:0:
166,52,141382,1,0,0:0:0:0:
166,52,141482,1,8,0:0:0:0:
176,30,141582,1,8,0:0:0:0:
166,52,141682,1,0,0:0:0:0:
166,52,141982,1,0,0:0:0:0:
169,35,142282,1,8,0:0:0:0:
164,23,142432,1,0,0:0:0:0:
164,26,142582,1,0,0:0:0:0:
181,32,142732,1,0,0:0:0:0:
181,32,142882,1,8,0:0:0:0:
180,32,143032,1,0,0:0:0:0:
222,77,143482,1,4,0:0:0:0:
172,76,143782,1,8,0:0:0:0:
183,61,143932,1,0,0:0:0:0:
185,62,144082,1,0,0:0:0:0:
185,62,144157,1,0,0:0:0:0:
166,24,144232,1,8,0:0:0:0:
166,31,144382,1,0,0:0:0:0:
163,35,144457,1,0,0:0:0:0:
164,33,144532,1,8,0:0:0:0:
164,33,144607,1,8,0:0:0:0:
163,35,144682,1,0,0:0:0:0:
167,38,144832,1,0,0:0:0:0:
167,41,144982,1,8,0:0:0:0:
165,45,145132,1,8,0:0:0:0:
165,45,145207,1,8,0:0:0:0:
165,46,145282,1,0,0:0:0:0:
166,48,145432,1,8,0:0:0:0:
166,48,145732,1,8,0:0:0:0:
166,48,145882,1,0,0:0:0:0:
165,47,146032,1,0,0:0:0:0:
165,45,146107,1,0,0:0:0:0:
165,45,146182,1,8,0:0:0:0:
182,51,146332,1,0,0:0:0:0:
179,52,146407,1,8,0:0:0:0:
166,87,146482,1,0,0:0:0:0:
179,52,146557,1,0,0:0:0:0:
179,52,146632,1,8,0:0:0:0:
175,52,146707,1,8,0:0:0:0:
176,56,146782,1,0,0:0:0:0:
125,80,146932,1,0,0:0:0:0:
125,80,147007,1,0,0:0:0:0:
125,80,147082,1,8,0:0:0:0:
126,71,147232,1,0,0:0:0:0:
146,18,147457,1,0,0:0:0:0:
126,71,147532,1,8,0:0:0:0:
116,72,147607,1,8,0:0:0:0:
126,71,147682,1,0,0:0:0:0:
149,56,147757,1,0,0:0:0:0:
116,74,147832,1,8,0:0:0:0:
116,73,147907,1,8,0:0:0:0:
116,74,147982,1,0,0:0:0:0:
188,50,148282,1,0,0:0:0:0:
153,125,148507,1,0,0:0:0:0:
153,125,148582,1,8,0:0:0:0:
153,125,148732,1,0,0:0:0:0:
166,92,148882,1,0,0:0:0:0:
166,92,148957,1,0,0:0:0:0:
166,92,149032,1,8,0:0:0:0:
166,92,149182,1,0,0:0:0:0:
166,92,149257,1,0,0:0:0:0:
166,92,149332,1,8,0:0:0:0:
166,92,149407,1,8,0:0:0:0:
166,92,149482,1,0,0:0:0:0:
163,97,149632,1,0,0:0:0:0:
163,97,149782,1,8,0:0:0:0:
158,99,149857,1,0,0:0:0:0:
158,99,149932,1,8,0:0:0:0:
158,99,150007,1,8,0:0:0:0:
158,100,150082,1,0,0:0:0:0:
183,41,150232,1,8,0:0:0:0:
156,65,150382,1,0,0:0:0:0:
156,62,150457,1,0,0:0:0:0:
156,65,150607,1,8,0:0:0:0:
156,65,150682,1,0,0:0:0:0:
156,74,150832,1,0,0:0:0:0:
156,77,150907,1,0,0:0:0:0:
156,74,150982,1,8,0:0:0:0:
156,77,151132,1,0,0:0:0:0:
170,72,151207,1,8,0:0:0:0:
156,77,151282,1,0,0:0:0:0:
218,100,151357,1,0,0:0:0:0:
218,100,151432,1,8,0:0:0:0:
218,100,151507,1,8,0:0:0:0:
218,100,151582,1,0,0:0:0:0:
218,100,151657,1,0,0:0:0:0:
218,100,151732,1,8,0:0:0:0:
218,100,151807,1,8,0:0:0:0:
218,100,151882,1,0,0:0:0:0:
203,116,151957,1,0,0:0:0:0:
203,116,152032,1,0,0:0:0:0:
203,116,152107,1,8,0:0:0:0:
203,116,152182,1,8,0:0:0:0:
206,113,152332,1,8,0:0:0:0:
201,117,152482,1,0,0:0:0:0:
201,117,152557,1,0,0:0:0:0:
201,117,152707,1,0,0:0:0:0:
200,117,152782,1,8,0:0:0:0:
203,116,152932,1,8,0:0:0:0:
203,116,153007,1,8,0:0:0:0:
203,116,153082,1,0,0:0:0:0:
173,135,153382,1,8,0:0:0:0:
153,96,153532,1,0,0:0:0:0:
153,96,153607,1,8,0:0:0:0:
153,96,153682,1,0,0:0:0:0:
180,57,153757,1,0,0:0:0:0:
180,57,153832,1,8,0:0:0:0:
180,57,153982,1,0,0:0:0:0:
173,63,154057,1,8,0:0:0:0:
180,57,154132,1,0,0:0:0:0:
173,64,154207,1,0,0:0:0:0:
174,62,154282,1,8,0:0:0:0:
174,66,154357,1,8,0:0:0:0:
174,66,154432,1,0,0:0:0:0:
173,66,154582,1,8,0:0:0:0:
194,89,154732,1,0,0:0:0:0:
194,89,154807,1,0,0:0:0:0:
194,89,154882,1,8,0:0:0:0:
194,89,154957,1,8,0:0:0:0:
193,89,155032,1,0,0:0:0:0:
190,39,155182,1,0,0:0:0:0:
190,39,155332,1,8,0:0:0:0:
190,39,155482,1,0,0:0:0:0:
188,53,155707,1,0,0:0:0:0:
187,53,155782,1,8,0:0:0:0:
203,79,155932,1,0,0:0:0:0:
203,79,156007,1,0,0:0:0:0:
203,79,156082,1,0,0:0:0:0:
203,79,156157,1,0,0:0:0:0:
203,79,156232,1,8,0:0:0:0:
200,34,156382,1,0,0:0:0:0:
200,34,156457,1,0,0:0:0:0:
200,34,156607,1,0,0:0:0:0:
200,34,156682,1,8,0:0:0:0:
193,65,156832,1,0,0:0:0:0:
193,65,156907,1,0,0:0:0:0:
193,65,156982,1,8,0:0:0:0:
178,72,157057,1,0,0:0:0:0:
176,66,157132,1,8,0:0:0:0:
164,38,157207,1,0,0:0:0:0:
173,87,157282,1,8,0:0:0:0:
175,90,157357,1,8,0:0:0:0:
175,90,157432,1,0,0:0:0:0:
175,90,157507,1,0,0:0:0:0:
175,90,157582,1,8,0:0:0:0:
198,79,157732,1,0,0:0:0:0:
198,77,157807,1,8,0:0:0:0:
198,73,157882,1,0,0:0:0:0:
182,40,158032,1,0,0:0:0:0:
173,41,158107,1,0,0:0:0:0:
172,41,158182,1,8,0:0:0:0:
173,42,158332,1,0,0:0:0:0:
179,51,158482,1,8,0:0:0:0:
194,42,158632,1,0,0:0:0:0:
194,44,158707,1,0,0:0:0:0:
194,42,158782,1,8,0:0:0:0:
197,57,158857,1,0,0:0:0:0:
194,44,158932,1,0,0:0:0:0:
194,44,159007,1,0,0:0:0:0:
194,45,159082,1,8,0:0:0:0:
171,56,159157,1,0,0:0:0:0:
171,55,159307,1,0,0:0:0:0:
171,55,159382,1,8,0:0:0:0:
191,25,159457,1,0,0:0:0:0:
246,39,159607,1,0,0:0:0:0:
194,42,159682,1,8,0:0:0:0:
194,44,159757,1,0,0:0:0:0:
194,42,159832,1,8,0:0:0:0:
194,44,159907,1,8,0:0:0:0:
173,53,159982,1,0,0:0:0:0:
197,32,160057,1,8,0:0:0:0:
191,43,160132,1,0,0:0:0:0:
191,44,160207,1,0,0:0:0:0:
191,45,160282,1,8,0:0:0:0:
182,60,160432,1,0,0:0:0:0:
186,57,160507,1,0,0:0:0:0:
183,57,160582,1,8,0:0:0:0:
188,70,160732,1,0,0:0:0:0:
189,67,160807,1,0,0:0:0:0:
189,68,160882,1,8,0:0:0:0:
188,70,160957,1,0,0:0:0:0:
188,70,161032,1,8,0:0:0:0:
188,70,161107,1,0,0:0:0:0:
188,70,161182,1,8,0:0:0:0:
188,70,161257,1,8,0:0:0:0:
188,70,161332,1,0,0:0:0:0:
175,79,161482,1,8,0:0:0:0:
181,90,161532,1,8,0:0:0:0:
181,90,161632,1,8,0:0:0:0:
186,16,161732,1,0,0:0:0:0:
186,97,161782,1,8,0:0:0:0:
186,16,161832,1,0,0:0:0:0:
188,93,161932,1,0,0:0:0:0:
209,17,162032,1,0,0:0:0:0:
187,95,162082,1,0,0:0:0:0:
209,17,162132,1,0,0:0:0:0:
186,49,162232,1,0,0:0:0:0:
177,69,162332,1,0,0:0:0:0:
186,97,162382,1,0,0:0:0:0:
186,95,162432,1,8,0:0:0:0:
185,96,162532,1,0,0:0:0:0:
171,49,162632,1,8,0:0:0:0:
