osu file format v14

[General]
AudioFilename: audio.mp3
AudioLeadIn: 0
PreviewTime: 25098
Countdown: 0
SampleSet: Normal
StackLeniency: 0.2
Mode: 1
LetterboxInBreaks: 0
WidescreenStoryboard: 0

[Editor]
Bookmarks: 271,11305,25098,41650,49926,58202,89230,105782,122334,138886,155437,171989,188541
DistanceSpacing: 1.1
BeatDivisor: 8
GridSize: 32
TimelineZoom: 3.899998

[Metadata]
Title:Perfect Pillow
TitleUnicode:Perfect Pillow
Artist:CHON
ArtistUnicode:CHON
Creator:Jaye
Version:Nov 29
Source:
Tags:November-Series
BeatmapID:1564247
BeatmapSetID:741465

[Difficulty]
HPDrainRate:5
CircleSize:2
OverallDifficulty:6
ApproachRate:10
SliderMultiplier:1.40159971214295
SliderTickRate:1

[Events]
//Background and Video events
0,0,"girl_headphones_player_bed_pillow_rest_20188_1366x768.jpg",0,0
//Break Periods
//Storyboard Layer 0 (Background)
//Storyboard Layer 1 (Fail)
//Storyboard Layer 2 (Pass)
//Storyboard Layer 3 (Foreground)
//Storyboard Sound Samples

[TimingPoints]
271,344.827586206897,4,1,0,100,1,0
2426,-83.3333333333333,4,1,0,100,0,0
3288,-100,4,1,0,100,0,0
7814,-83.3333333333333,4,1,0,100,0,0
8460,-100,4,1,0,100,0,0
13460,-83.3333333333333,4,1,0,100,0,0
14322,-100,4,1,0,100,0,0
18848,-83.3333333333333,4,1,0,100,0,0
19495,-100,4,1,0,100,0,0
22383,-101.010101010101,4,1,0,100,0,0
22469,-102.040816326531,4,1,0,100,0,0
22555,-103.092783505155,4,1,0,100,0,0
22641,-104.166666666667,4,1,0,100,0,0
22727,-105.263157894737,4,1,0,100,0,0
22814,-106.382978723404,4,1,0,100,0,0
22900,-107.52688172043,4,1,0,100,0,0
22986,-108.695652173913,4,1,0,100,0,0
23072,-109.89010989011,4,1,0,100,0,0
23158,-111.111111111111,4,1,0,100,0,0
23245,-112.359550561798,4,1,0,100,0,0
23331,-113.636363636364,4,1,0,100,0,0
23417,-114.942528735632,4,1,0,100,0,0
23503,-116.279069767442,4,1,0,100,0,0
23589,-117.647058823529,4,1,0,100,0,0
23676,-119.047619047619,4,1,0,100,0,0
23762,-120.481927710843,4,1,0,100,0,0
23848,-121.951219512195,4,1,0,100,0,0
23934,-123.456790123457,4,1,0,100,0,0
24021,-125,4,1,0,100,0,0
24107,-126.582278481013,4,1,0,100,0,0
24193,-128.205128205128,4,1,0,100,0,0
24279,-129.87012987013,4,1,0,100,0,0
24365,-131.578947368421,4,1,0,100,0,0
24452,-133.333333333333,4,1,0,100,0,0
24710,-125,4,1,0,100,0,0
24796,-117.647058823529,4,1,0,100,0,0
24883,-111.111111111111,4,1,0,100,0,0
24969,-105.263157894737,4,1,0,100,0,0
25055,-100,4,1,0,100,0,0
52124,-98.0392156862745,4,1,0,100,0,0
52210,-96.1538461538461,4,1,0,100,0,0
52296,-94.3396226415094,4,1,0,100,0,0
52383,-92.5925925925926,4,1,0,100,0,0
52469,-90.9090909090909,4,1,0,100,0,0
52555,-89.2857142857143,4,1,0,100,0,0
52641,-90.9090909090909,4,1,0,100,0,0
52727,-92.5925925925926,4,1,0,100,0,0
52814,-94.3396226415094,4,1,0,100,0,0
52900,-96.1538461538461,4,1,0,100,0,0
52986,-98.0392156862745,4,1,0,100,0,0
53072,-100,4,1,0,100,0,0
57555,-95.2380952380952,4,1,0,100,0,0
57641,-90.9090909090909,4,1,0,100,0,0
57727,-86.9565217391304,4,1,0,100,0,0
57814,-83.3333333333333,4,1,0,100,0,0
57900,-80,4,1,0,100,0,0
57986,-76.9230769230769,4,1,0,100,0,0
58202,517.241379310345,7,1,0,100,1,0
58202,-66.6666666666667,7,1,0,100,0,0
61822,517.241379310345,4,1,0,100,1,0
61822,-64.1025641025641,4,1,0,100,0,0
62274,-61.7283950617284,4,1,0,100,0,0
62791,-59.5238095238095,4,1,0,100,0,0
63309,-57.4712643678161,4,1,0,100,0,0
63826,-55.5555555555556,4,1,0,100,0,0
64343,-57.4712643678161,4,1,0,100,0,0
64860,-60.2409638554217,4,1,0,100,0,0
65378,-61.7283950617284,4,1,0,100,0,0
65636,-64.1025641025641,4,1,0,100,0,0
65959,517.241379310345,7,1,0,100,1,0
65959,-66.6666666666667,7,1,0,100,0,0
69579,517.241379310345,4,1,0,100,1,0
69579,-64.1025641025641,4,1,0,100,0,0
70031,-61.7283950617284,4,1,0,100,0,0
70548,-59.5238095238095,4,1,0,100,0,0
71066,-57.4712643678161,4,1,0,100,0,0
71583,-55.5555555555556,4,1,0,100,0,0
72100,-58.1395348837209,4,1,0,100,0,0
72617,-60.2409638554217,4,1,0,100,0,0
72747,-58.8235294117647,4,1,0,100,0,0
72811,-57.4712643678161,4,1,0,100,0,0
72876,-56.1797752808989,4,1,0,100,0,0
73005,-54.9450549450549,4,1,0,100,0,0
73070,-53.763440860215,4,1,0,100,0,0
73135,-52.6315789473684,4,1,0,100,0,0
73264,-50,4,1,0,100,0,0
73393,-47.6190476190476,4,1,0,100,0,0
73716,517.241379310345,7,1,0,100,1,0
73716,-66.6666666666667,7,1,0,100,0,0
77336,517.241379310345,4,1,0,100,1,0
77336,-64.1025641025641,4,1,0,100,0,0
77788,-61.7283950617284,4,1,0,100,0,0
78305,-59.5238095238095,4,1,0,100,0,0
78823,-57.4712643678161,4,1,0,100,0,0
79340,-55.5555555555556,4,1,0,100,0,0
79857,-57.4712643678161,4,1,0,100,0,0
80374,-59.5238095238095,4,1,0,100,0,0
80892,-61.7283950617284,4,1,0,100,0,0
81150,-64.1025641025641,4,1,0,100,0,0
81473,517.241379310345,7,1,0,100,1,0
81473,-66.6666666666667,7,1,0,100,0,0
83218,-64.9350649350649,7,1,0,100,0,0
83348,-63.2911392405063,7,1,0,100,0,0
83477,-61.7283950617284,7,1,0,100,0,0
83606,-60.2409638554217,7,1,0,100,0,0
84123,-61.7283950617284,7,1,0,100,0,0
84253,-63.2911392405063,7,1,0,100,0,0
84317,-64.9350649350649,7,1,0,100,0,0
84382,-66.6666666666667,7,1,0,100,0,0
85093,517.241379310345,4,1,0,100,1,0
85093,-64.1025641025641,4,1,0,100,0,0
85545,-61.7283950617284,4,1,0,100,0,0
86062,-59.5238095238095,4,1,0,100,0,0
86580,-57.4712643678161,4,1,0,100,0,0
87097,-55.5555555555556,4,1,0,100,0,0
87614,-57.4712643678161,4,1,0,100,0,0
88131,-59.5238095238095,4,1,0,100,0,0
88649,-61.7283950617284,4,1,0,100,0,0
88907,-64.1025641025641,4,1,0,100,0,0
89230,-66.6666666666667,4,1,0,100,0,0
95243,-50,4,1,0,100,0,0
96278,-55.5555555555556,4,1,0,100,0,0
96795,-60.6060606060606,4,1,0,100,0,0
97312,-66.6666666666667,4,1,0,100,0,0
103519,-50,4,1,0,100,0,0
104554,-55.5555555555556,4,1,0,100,0,0
105071,-60.6060606060606,4,1,0,100,0,0
105588,-66.6666666666667,4,1,0,100,0,0
107334,-25,4,1,0,100,0,0
107851,-66.6666666666667,4,1,0,100,0,0
109403,-25,4,1,0,100,0,0
109661,-66.6666666666667,4,1,0,100,0,0
113541,-25,4,1,0,100,0,0
114058,-66.6666666666667,4,1,0,100,0,0
115610,-25,4,1,0,100,0,0
116127,-66.6666666666667,4,1,0,100,0,0
117679,-25,4,1,0,100,0,0
117937,-66.6666666666667,4,1,0,100,0,0
123886,-25,4,1,0,100,0,0
124403,-66.6666666666667,4,1,0,100,0,0
125955,-25,4,1,0,100,0,0
126536,-66.6666666666667,4,1,0,100,0,0
130093,-25,4,1,0,100,0,0
130610,-66.6666666666667,4,1,0,100,0,0
132161,-25,4,1,0,100,0,0
132679,-66.6666666666667,4,1,0,100,0,0
134230,-25,4,1,0,100,0,0
134812,-66.6666666666667,4,1,0,100,0,0
149877,-68.4931506849315,4,1,0,100,0,0
150071,-70.4225352112676,4,1,0,100,0,0
150200,-72.463768115942,4,1,0,100,0,0
150394,-74.6268656716418,4,1,0,100,0,0
150588,-76.9230769230769,4,1,0,100,0,0
150718,-79.3650793650794,4,1,0,100,0,0
150911,-81.9672131147541,4,1,0,100,0,0
151105,-84.7457627118644,4,1,0,100,0,0
151235,-66.6666666666667,4,1,0,100,0,0

[HitObjects]
256,192,271,5,0,0:0:0:0:
256,192,615,1,8,0:0:0:0:
256,192,788,1,8,0:0:0:0:
256,192,874,1,0,0:0:0:0:
256,192,960,1,8,0:0:0:0:
256,192,1133,1,8,0:0:0:0:
256,192,1305,1,8,0:0:0:0:
256,192,1420,1,8,0:0:0:0:
256,192,1535,1,0,0:0:0:0:
256,192,1650,1,0,0:0:0:0:
256,192,1822,1,0,0:0:0:0:
256,192,1908,1,8,0:0:0:0:
256,192,1995,1,0,0:0:0:0:
256,192,2081,1,8,0:0:0:0:
256,192,2167,1,0,0:0:0:0:
256,192,2253,1,8,0:0:0:0:
256,192,2339,1,0,0:0:0:0:
256,192,2512,1,4,0:0:0:0:
256,192,2771,1,4,0:0:0:0:
256,192,3029,1,4,0:0:0:0:
256,192,3374,1,12,0:0:0:0:
256,192,3546,1,0,0:0:0:0:
256,192,3633,1,8,0:0:0:0:
256,192,3719,1,0,0:0:0:0:
256,192,3891,1,8,0:0:0:0:
256,192,4064,1,8,0:0:0:0:
256,192,4236,1,0,0:0:0:0:
256,192,4408,1,0,0:0:0:0:
256,192,4581,1,8,0:0:0:0:
256,192,4753,1,8,0:0:0:0:
256,192,4926,1,8,0:0:0:0:
256,192,5098,1,0,0:0:0:0:
256,192,5443,1,8,0:0:0:0:
256,192,5788,1,4,0:0:0:0:
256,192,6133,1,12,0:0:0:0:
256,192,6305,1,0,0:0:0:0:
256,192,6391,1,8,0:0:0:0:
256,192,6477,1,0,0:0:0:0:
256,192,6650,1,8,0:0:0:0:
256,192,6822,1,8,0:0:0:0:
256,192,6995,1,0,0:0:0:0:
256,192,7339,1,0,0:0:0:0:
256,192,7426,1,8,0:0:0:0:
256,192,7512,1,0,0:0:0:0:
256,192,7598,1,8,0:0:0:0:
256,192,7684,1,0,0:0:0:0:
256,192,7771,1,0,0:0:0:0:
256,192,7857,1,12,0:0:0:0:
256,192,8202,1,12,0:0:0:0:
256,192,8546,1,4,0:0:0:0:
256,192,8805,1,0,0:0:0:0:
256,192,8891,1,12,0:0:0:0:
256,192,9236,1,8,0:0:0:0:
256,192,9408,1,0,0:0:0:0:
256,192,9495,1,8,0:0:0:0:
256,192,9581,1,0,0:0:0:0:
256,192,9667,1,8,0:0:0:0:
256,192,9753,1,0,0:0:0:0:
256,192,10098,1,8,0:0:0:0:
256,192,10184,1,8,0:0:0:0:
256,192,10271,1,8,0:0:0:0:
256,192,10328,1,8,0:0:0:0:
256,192,10385,1,0,0:0:0:0:
256,192,10443,1,0,0:0:0:0:
256,192,10529,1,8,0:0:0:0:
256,192,10615,1,0,0:0:0:0:
256,192,10702,1,0,0:0:0:0:
256,192,10788,1,8,0:0:0:0:
256,192,10874,1,8,0:0:0:0:
256,192,10960,1,8,0:0:0:0:
256,192,11046,1,0,0:0:0:0:
256,192,11133,1,8,0:0:0:0:
256,192,11305,1,0,0:0:0:0:
256,192,11650,1,8,0:0:0:0:
256,192,11822,1,0,0:0:0:0:
256,192,11908,1,8,0:0:0:0:
256,192,11995,1,0,0:0:0:0:
256,192,12167,1,8,0:0:0:0:
256,192,12339,1,8,0:0:0:0:
256,192,12512,1,0,0:0:0:0:
256,192,12857,1,0,0:0:0:0:
256,192,12943,1,8,0:0:0:0:
256,192,13029,1,0,0:0:0:0:
256,192,13115,1,8,0:0:0:0:
256,192,13202,1,0,0:0:0:0:
256,192,13288,1,8,0:0:0:0:
256,192,13374,1,0,0:0:0:0:
256,192,13546,1,4,0:0:0:0:
256,192,13805,1,4,0:0:0:0:
256,192,14064,1,4,0:0:0:0:
256,192,14408,1,12,0:0:0:0:
256,192,14581,1,0,0:0:0:0:
256,192,14667,1,8,0:0:0:0:
256,192,14753,1,0,0:0:0:0:
256,192,14926,1,8,0:0:0:0:
256,192,15098,1,8,0:0:0:0:
256,192,15271,1,0,0:0:0:0:
256,192,15443,1,0,0:0:0:0:
256,192,15615,1,8,0:0:0:0:
256,192,15788,1,8,0:0:0:0:
256,192,15960,1,8,0:0:0:0:
256,192,16133,1,0,0:0:0:0:
256,192,16219,1,0,0:0:0:0:
256,192,16305,1,0,0:0:0:0:
256,192,16362,1,8,0:0:0:0:
256,192,16420,1,8,0:0:0:0:
256,192,16477,1,0,0:0:0:0:
256,192,16564,1,0,0:0:0:0:
256,192,16650,1,8,0:0:0:0:
256,192,16822,1,4,0:0:0:0:
256,192,17081,1,0,0:0:0:0:
256,192,17167,1,12,0:0:0:0:
256,192,17339,1,0,0:0:0:0:
256,192,17426,1,8,0:0:0:0:
256,192,17512,1,0,0:0:0:0:
256,192,17684,1,8,0:0:0:0:
256,192,17857,1,8,0:0:0:0:
256,192,17943,1,8,0:0:0:0:
256,192,18029,1,0,0:0:0:0:
256,192,18374,1,0,0:0:0:0:
256,192,18460,1,8,0:0:0:0:
256,192,18546,1,0,0:0:0:0:
256,192,18633,1,8,0:0:0:0:
256,192,18719,1,0,0:0:0:0:
256,192,18805,1,0,0:0:0:0:
256,192,18891,1,12,0:0:0:0:
256,192,19236,1,12,0:0:0:0:
256,192,19581,1,4,0:0:0:0:
256,192,19839,1,0,0:0:0:0:
256,192,19926,1,12,0:0:0:0:
256,192,20271,1,8,0:0:0:0:
256,192,20357,1,8,0:0:0:0:
256,192,20443,1,0,0:0:0:0:
256,192,20529,1,8,0:0:0:0:
256,192,20615,1,0,0:0:0:0:
256,192,20702,1,8,0:0:0:0:
256,192,20788,1,8,0:0:0:0:
256,192,20874,1,0,0:0:0:0:
256,192,20960,1,8,0:0:0:0:
256,192,21133,1,8,0:0:0:0:
256,192,21219,1,8,0:0:0:0:
256,192,21305,1,8,0:0:0:0:
256,192,21391,1,0,0:0:0:0:
256,192,21477,1,8,0:0:0:0:
256,192,21535,1,8,0:0:0:0:
256,192,21592,1,0,0:0:0:0:
256,192,21650,1,0,0:0:0:0:
256,192,21736,1,0,0:0:0:0:
256,192,21822,1,8,0:0:0:0:
256,192,21908,1,8,0:0:0:0:
256,192,21995,1,8,0:0:0:0:
256,192,22081,1,0,0:0:0:0:
256,192,22167,1,8,0:0:0:0:
256,192,22339,1,8,0:0:0:0:
256,192,22426,1,8,0:0:0:0:
256,192,22512,1,8,0:0:0:0:
256,192,22598,1,8,0:0:0:0:
256,192,22684,1,8,0:0:0:0:
256,192,22771,1,0,0:0:0:0:
256,192,22857,1,0,0:0:0:0:
256,192,22943,1,0,0:0:0:0:
256,192,23029,1,8,0:0:0:0:
256,192,23115,1,8,0:0:0:0:
256,192,23202,1,8,0:0:0:0:
256,192,23288,1,8,0:0:0:0:
256,192,23374,1,0,0:0:0:0:
256,192,23460,1,0,0:0:0:0:
256,192,23546,1,8,0:0:0:0:
256,192,23633,1,8,0:0:0:0:
256,192,23719,1,0,0:0:0:0:
256,192,23805,1,8,0:0:0:0:
256,192,23891,1,0,0:0:0:0:
256,192,23977,1,0,0:0:0:0:
256,192,24064,1,0,0:0:0:0:
256,192,24150,1,8,0:0:0:0:
256,192,24236,1,0,0:0:0:0:
256,192,24322,1,0,0:0:0:0:
256,192,24408,1,8,0:0:0:0:
256,192,24495,1,8,0:0:0:0:
256,192,24667,1,0,0:0:0:0:
256,192,24753,1,8,0:0:0:0:
256,192,24839,1,8,0:0:0:0:
256,192,24926,1,0,0:0:0:0:
256,192,25012,1,8,0:0:0:0:
256,192,25098,1,4,0:0:0:0:
256,192,25357,1,8,0:0:0:0:
256,192,25615,1,8,0:0:0:0:
256,192,25960,1,8,0:0:0:0:
256,192,26133,1,0,0:0:0:0:
256,192,26305,1,8,0:0:0:0:
256,192,26391,1,8,0:0:0:0:
256,192,26477,1,0,0:0:0:0:
256,192,26650,1,8,0:0:0:0:
256,192,26822,1,0,0:0:0:0:
256,192,26908,1,8,0:0:0:0:
256,192,26995,1,0,0:0:0:0:
256,192,27081,1,0,0:0:0:0:
256,192,27167,1,8,0:0:0:0:
256,192,27512,1,0,0:0:0:0:
256,192,27684,1,8,0:0:0:0:
256,192,28029,1,0,0:0:0:0:
256,192,28115,1,0,0:0:0:0:
256,192,28202,1,8,0:0:0:0:
256,192,28374,1,0,0:0:0:0:
256,192,28546,1,0,0:0:0:0:
256,192,28633,1,8,0:0:0:0:
256,192,28719,1,8,0:0:0:0:
256,192,28891,1,8,0:0:0:0:
256,192,29064,1,0,0:0:0:0:
256,192,29236,1,4,0:0:0:0:
256,192,29753,1,0,0:0:0:0:
256,192,29926,1,8,0:0:0:0:
256,192,30012,1,0,0:0:0:0:
256,192,30098,1,0,0:0:0:0:
256,192,30271,1,8,0:0:0:0:
256,192,30615,1,0,0:0:0:0:
256,192,30702,1,8,0:0:0:0:
256,192,30788,1,8,0:0:0:0:
256,192,30960,1,0,0:0:0:0:
256,192,31046,1,0,0:0:0:0:
256,192,31133,1,8,0:0:0:0:
256,192,31305,1,0,0:0:0:0:
256,192,31391,1,8,0:0:0:0:
256,192,31477,1,8,0:0:0:0:
256,192,31564,1,8,0:0:0:0:
256,192,31650,1,8,0:0:0:0:
256,192,31822,1,8,0:0:0:0:
256,192,31995,1,0,0:0:0:0:
256,192,32167,1,8,0:0:0:0:
256,192,32339,1,8,0:0:0:0:
256,192,32426,1,8,0:0:0:0:
256,192,32512,1,0,0:0:0:0:
256,192,32598,1,0,0:0:0:0:
256,192,32684,1,8,0:0:0:0:
256,192,32857,1,0,0:0:0:0:
256,192,32943,1,0,0:0:0:0:
256,192,33029,1,8,0:0:0:0:
256,192,33202,1,8,0:0:0:0:
256,192,33288,1,0,0:0:0:0:
256,192,33374,1,0,0:0:0:0:
256,192,33633,1,8,0:0:0:0:
256,192,33891,1,8,0:0:0:0:
256,192,34236,1,8,0:0:0:0:
256,192,34409,1,0,0:0:0:0:
256,192,34581,1,8,0:0:0:0:
256,192,34667,1,8,0:0:0:0:
256,192,34753,1,0,0:0:0:0:
256,192,34926,1,8,0:0:0:0:
256,192,35098,1,0,0:0:0:0:
256,192,35184,1,8,0:0:0:0:
256,192,35271,1,0,0:0:0:0:
256,192,35357,1,0,0:0:0:0:
256,192,35443,1,8,0:0:0:0:
256,192,35788,1,0,0:0:0:0:
256,192,35960,1,8,0:0:0:0:
256,192,36305,1,0,0:0:0:0:
256,192,36391,1,0,0:0:0:0:
256,192,36478,1,8,0:0:0:0:
256,192,36650,1,0,0:0:0:0:
256,192,36822,1,0,0:0:0:0:
256,192,36909,1,8,0:0:0:0:
256,192,36995,1,8,0:0:0:0:
256,192,37167,1,8,0:0:0:0:
256,192,37340,1,0,0:0:0:0:
256,192,37512,1,4,0:0:0:0:
256,192,38029,1,0,0:0:0:0:
256,192,38202,1,8,0:0:0:0:
256,192,38288,1,0,0:0:0:0:
256,192,38374,1,0,0:0:0:0:
256,192,38547,1,8,0:0:0:0:
256,192,38891,1,0,0:0:0:0:
256,192,38978,1,8,0:0:0:0:
256,192,39064,1,8,0:0:0:0:
256,192,39236,1,0,0:0:0:0:
256,192,39322,1,0,0:0:0:0:
256,192,39409,1,8,0:0:0:0:
256,192,39581,1,0,0:0:0:0:
256,192,39667,1,8,0:0:0:0:
256,192,39753,1,8,0:0:0:0:
256,192,39840,1,8,0:0:0:0:
256,192,39926,1,8,0:0:0:0:
256,192,40098,1,8,0:0:0:0:
256,192,40271,1,0,0:0:0:0:
256,192,40443,1,8,0:0:0:0:
256,192,40615,1,8,0:0:0:0:
256,192,40702,1,8,0:0:0:0:
256,192,40788,1,0,0:0:0:0:
256,192,40874,1,0,0:0:0:0:
256,192,40960,1,8,0:0:0:0:
256,192,41046,1,0,0:0:0:0:
256,192,41133,1,0,0:0:0:0:
256,192,41219,1,8,0:0:0:0:
256,192,41305,1,8,0:0:0:0:
256,192,41650,1,8,0:0:0:0:
256,192,41736,1,0,0:0:0:0:
256,192,41822,1,0,0:0:0:0:
256,192,41908,1,8,0:0:0:0:
256,192,41995,1,8,0:0:0:0:
256,192,42081,1,0,0:0:0:0:
256,192,42167,1,8,0:0:0:0:
256,192,42225,1,8,0:0:0:0:
256,192,42282,1,0,0:0:0:0:
256,192,42339,1,0,0:0:0:0:
256,192,42426,1,8,0:0:0:0:
256,192,42512,1,8,0:0:0:0:
256,192,42598,1,0,0:0:0:0:
256,192,42684,1,8,0:0:0:0:
256,192,42799,1,0,0:0:0:0:
256,192,42914,1,0,0:0:0:0:
256,192,43029,1,8,0:0:0:0:
256,192,43115,1,0,0:0:0:0:
256,192,43202,1,8,0:0:0:0:
256,192,43288,1,8,0:0:0:0:
256,192,43374,1,8,0:0:0:0:
256,192,43460,1,8,0:0:0:0:
256,192,43546,1,0,0:0:0:0:
256,192,43633,1,0,0:0:0:0:
256,192,43719,1,8,0:0:0:0:
256,192,43805,1,8,0:0:0:0:
256,192,43891,1,0,0:0:0:0:
256,192,43977,1,8,0:0:0:0:
256,192,44064,1,8,0:0:0:0:
256,192,44150,1,0,0:0:0:0:
256,192,44236,1,8,0:0:0:0:
256,192,44322,1,0,0:0:0:0:
256,192,44581,1,8,0:0:0:0:
256,192,44753,1,0,0:0:0:0:
256,192,44868,1,0,0:0:0:0:
256,192,44983,1,8,0:0:0:0:
256,192,45098,1,0,0:0:0:0:
256,192,45271,1,8,0:0:0:0:
256,192,45443,1,8,0:0:0:0:
256,192,45529,1,8,0:0:0:0:
256,192,45615,1,0,0:0:0:0:
256,192,45702,1,0,0:0:0:0:
256,192,45788,1,8,0:0:0:0:
256,192,45845,1,0,0:0:0:0:
256,192,45903,1,0,0:0:0:0:
256,192,45960,1,8,0:0:0:0:
256,192,46046,1,0,0:0:0:0:
256,192,46133,1,8,0:0:0:0:
256,192,46190,1,8,0:0:0:0:
256,192,46248,1,8,0:0:0:0:
256,192,46305,1,0,0:0:0:0:
256,192,46362,1,8,0:0:0:0:
256,192,46420,1,8,0:0:0:0:
256,192,46477,1,0,0:0:0:0:
256,192,46535,1,0,0:0:0:0:
256,192,46592,1,0,0:0:0:0:
256,192,46650,1,8,0:0:0:0:
256,192,46736,1,8,0:0:0:0:
256,192,46822,1,0,0:0:0:0:
256,192,46908,1,0,0:0:0:0:
256,192,46995,1,0,0:0:0:0:
256,192,47167,1,8,0:0:0:0:
256,192,47339,1,8,0:0:0:0:
256,192,47512,1,0,0:0:0:0:
256,192,47857,1,0,0:0:0:0:
256,192,48115,1,0,0:0:0:0:
256,192,48202,1,8,0:0:0:0:
256,192,48374,1,0,0:0:0:0:
256,192,48460,1,8,0:0:0:0:
256,192,48546,1,0,0:0:0:0:
256,192,48633,1,0,0:0:0:0:
256,192,48719,1,8,0:0:0:0:
256,192,48891,1,8,0:0:0:0:
256,192,49006,1,0,0:0:0:0:
256,192,49121,1,8,0:0:0:0:
256,192,49236,1,0,0:0:0:0:
256,192,49322,1,0,0:0:0:0:
256,192,49408,1,8,0:0:0:0:
256,192,49495,1,0,0:0:0:0:
256,192,49581,1,8,0:0:0:0:
256,192,49667,1,8,0:0:0:0:
256,192,49753,1,8,0:0:0:0:
256,192,49839,1,8,0:0:0:0:
256,192,49926,1,0,0:0:0:0:
256,192,50098,1,0,0:0:0:0:
256,192,50184,1,8,0:0:0:0:
256,192,50357,1,0,0:0:0:0:
256,192,50442,1,8,0:0:0:0:
256,192,50787,1,8,0:0:0:0:
256,192,50960,1,0,0:0:0:0:
256,192,51132,1,8,0:0:0:0:
256,192,51219,1,8,0:0:0:0:
256,192,51304,1,0,0:0:0:0:
256,192,51391,1,0,0:0:0:0:
256,192,51477,1,8,0:0:0:0:
256,192,51649,1,8,0:0:0:0:
256,192,51822,1,0,0:0:0:0:
256,192,51994,1,0,0:0:0:0:
256,192,52167,1,0,0:0:0:0:
256,192,52253,1,8,0:0:0:0:
256,192,52339,1,0,0:0:0:0:
256,192,52426,1,0,0:0:0:0:
256,192,52511,1,8,0:0:0:0:
256,192,52598,1,8,0:0:0:0:
256,192,52684,1,0,0:0:0:0:
256,192,52771,1,8,0:0:0:0:
256,192,52856,1,8,0:0:0:0:
256,192,52942,1,0,0:0:0:0:
256,192,53029,1,8,0:0:0:0:
256,192,53201,1,0,0:0:0:0:
256,192,53373,1,0,0:0:0:0:
256,192,53546,1,8,0:0:0:0:
256,192,53633,1,0,0:0:0:0:
256,192,53718,1,8,0:0:0:0:
256,192,53805,1,8,0:0:0:0:
256,192,53891,1,0,0:0:0:0:
256,192,54063,1,4,0:0:0:0:
256,192,54236,1,0,0:0:0:0:
256,192,54322,1,8,0:0:0:0:
256,192,54495,1,0,0:0:0:0:
256,192,54580,1,8,0:0:0:0:
256,192,54925,1,8,0:0:0:0:
256,192,55098,1,0,0:0:0:0:
256,192,55270,1,8,0:0:0:0:
256,192,55357,1,8,0:0:0:0:
256,192,55442,1,0,0:0:0:0:
256,192,55529,1,0,0:0:0:0:
256,192,55615,1,8,0:0:0:0:
256,192,55787,1,8,0:0:0:0:
256,192,55960,1,0,0:0:0:0:
256,192,56132,1,0,0:0:0:0:
256,192,56219,1,0,0:0:0:0:
256,192,56306,1,0,0:0:0:0:
256,192,56392,1,8,0:0:0:0:
256,192,56478,1,0,0:0:0:0:
256,192,56649,1,0,0:0:0:0:
256,192,56736,1,0,0:0:0:0:
256,192,56822,1,8,0:0:0:0:
256,192,56909,1,0,0:0:0:0:
256,192,56994,1,8,0:0:0:0:
256,192,57080,1,8,0:0:0:0:
256,192,57167,1,0,0:0:0:0:
256,192,57339,1,0,0:0:0:0:
256,192,57511,1,0,0:0:0:0:
256,192,57598,1,0,0:0:0:0:
256,192,57684,1,0,0:0:0:0:
256,192,57771,1,8,0:0:0:0:
256,192,57856,1,8,0:0:0:0:
256,192,57943,1,0,0:0:0:0:
256,192,58029,1,8,0:0:0:0:
256,192,58202,1,0,0:0:0:0:
256,192,58331,1,8,0:0:0:0:
256,192,58460,1,0,0:0:0:0:
256,192,58589,1,0,0:0:0:0:
256,192,58719,1,8,0:0:0:0:
256,192,58848,1,0,0:0:0:0:
256,192,58977,1,0,0:0:0:0:
256,192,59107,1,0,0:0:0:0:
256,192,59236,1,8,0:0:0:0:
256,192,59365,1,0,0:0:0:0:
256,192,59494,1,0,0:0:0:0:
256,192,59624,1,8,0:0:0:0:
256,192,59753,1,8,0:0:0:0:
256,192,59883,1,0,0:0:0:0:
256,192,60012,1,0,0:0:0:0:
256,192,60141,1,8,0:0:0:0:
256,192,60270,1,0,0:0:0:0:
256,192,60399,1,0,0:0:0:0:
256,192,60529,1,8,0:0:0:0:
256,192,60658,1,8,0:0:0:0:
256,192,60788,1,0,0:0:0:0:
256,192,60917,1,0,0:0:0:0:
256,192,61046,1,8,0:0:0:0:
256,192,61176,1,0,0:0:0:0:
256,192,61305,1,0,0:0:0:0:
256,192,61434,1,8,0:0:0:0:
256,192,61564,1,0,0:0:0:0:
256,192,61693,1,0,0:0:0:0:
256,192,61822,1,8,0:0:0:0:
256,192,61951,1,8,0:0:0:0:
256,192,62080,1,0,0:0:0:0:
256,192,62209,1,0,0:0:0:0:
256,192,62339,1,8,0:0:0:0:
256,192,62468,1,8,0:0:0:0:
256,192,62597,1,0,0:0:0:0:
256,192,62726,1,0,0:0:0:0:
256,192,62856,1,8,0:0:0:0:
256,192,62985,1,8,0:0:0:0:
256,192,63114,1,0,0:0:0:0:
256,192,63243,1,0,0:0:0:0:
256,192,63373,1,8,0:0:0:0:
256,192,63502,1,8,0:0:0:0:
256,192,63631,1,0,0:0:0:0:
256,192,63760,1,0,0:0:0:0:
256,192,63890,1,8,0:0:0:0:
256,192,64019,1,8,0:0:0:0:
256,192,64148,1,8,0:0:0:0:
256,192,64277,1,0,0:0:0:0:
256,192,64408,1,8,0:0:0:0:
256,192,64537,1,8,0:0:0:0:
256,192,64666,1,8,0:0:0:0:
256,192,64795,1,0,0:0:0:0:
256,192,64925,1,8,0:0:0:0:
256,192,65054,1,8,0:0:0:0:
256,192,65183,1,8,0:0:0:0:
256,192,65312,1,0,0:0:0:0:
256,192,65442,1,8,0:0:0:0:
256,192,65571,1,8,0:0:0:0:
256,192,65701,1,0,0:0:0:0:
256,192,65829,1,0,0:0:0:0:
256,192,65959,1,0,0:0:0:0:
256,192,66088,1,8,0:0:0:0:
256,192,66217,1,0,0:0:0:0:
256,192,66346,1,0,0:0:0:0:
256,192,66476,1,8,0:0:0:0:
256,192,66605,1,0,0:0:0:0:
256,192,66734,1,0,0:0:0:0:
256,192,66864,1,0,0:0:0:0:
256,192,66993,1,8,0:0:0:0:
256,192,67122,1,0,0:0:0:0:
256,192,67251,1,0,0:0:0:0:
256,192,67381,1,8,0:0:0:0:
256,192,67510,1,8,0:0:0:0:
256,192,67640,1,0,0:0:0:0:
256,192,67769,1,0,0:0:0:0:
256,192,67898,1,8,0:0:0:0:
256,192,68027,1,0,0:0:0:0:
256,192,68156,1,0,0:0:0:0:
256,192,68286,1,8,0:0:0:0:
256,192,68415,1,8,0:0:0:0:
256,192,68545,1,0,0:0:0:0:
256,192,68674,1,0,0:0:0:0:
256,192,68803,1,8,0:0:0:0:
256,192,68933,1,0,0:0:0:0:
256,192,69062,1,0,0:0:0:0:
256,192,69191,1,8,0:0:0:0:
256,192,69321,1,0,0:0:0:0:
256,192,69450,1,0,0:0:0:0:
256,192,69579,1,8,0:0:0:0:
256,192,69708,1,8,0:0:0:0:
256,192,69837,1,0,0:0:0:0:
256,192,69966,1,0,0:0:0:0:
256,192,70096,1,8,0:0:0:0:
256,192,70225,1,8,0:0:0:0:
256,192,70354,1,0,0:0:0:0:
256,192,70483,1,0,0:0:0:0:
256,192,70613,1,8,0:0:0:0:
256,192,70742,1,8,0:0:0:0:
256,192,70871,1,0,0:0:0:0:
256,192,71000,1,0,0:0:0:0:
256,192,71130,1,8,0:0:0:0:
256,192,71259,1,8,0:0:0:0:
256,192,71388,1,0,0:0:0:0:
256,192,71517,1,0,0:0:0:0:
256,192,71647,1,8,0:0:0:0:
256,192,71776,1,8,0:0:0:0:
256,192,71905,1,8,0:0:0:0:
256,192,72034,1,0,0:0:0:0:
256,192,72165,1,8,0:0:0:0:
256,192,72294,1,8,0:0:0:0:
256,192,72423,1,8,0:0:0:0:
256,192,72552,1,0,0:0:0:0:
256,192,72682,1,8,0:0:0:0:
256,192,72768,1,8,0:0:0:0:
256,192,72854,1,8,0:0:0:0:
256,192,72941,1,0,0:0:0:0:
256,192,73027,1,0,0:0:0:0:
256,192,73113,1,8,0:0:0:0:
256,192,73199,1,8,0:0:0:0:
256,192,73329,1,8,0:0:0:0:
256,192,73458,1,8,0:0:0:0:
256,192,73716,1,0,0:0:0:0:
256,192,73845,1,8,0:0:0:0:
256,192,73974,1,0,0:0:0:0:
256,192,74103,1,0,0:0:0:0:
256,192,74233,1,8,0:0:0:0:
256,192,74362,1,0,0:0:0:0:
256,192,74491,1,0,0:0:0:0:
256,192,74621,1,0,0:0:0:0:
256,192,74750,1,8,0:0:0:0:
256,192,74879,1,0,0:0:0:0:
256,192,75008,1,0,0:0:0:0:
256,192,75138,1,8,0:0:0:0:
256,192,75267,1,8,0:0:0:0:
256,192,75397,1,0,0:0:0:0:
256,192,75526,1,0,0:0:0:0:
256,192,75655,1,8,0:0:0:0:
256,192,75784,1,0,0:0:0:0:
256,192,75913,1,0,0:0:0:0:
256,192,76043,1,8,0:0:0:0:
256,192,76172,1,8,0:0:0:0:
256,192,76302,1,0,0:0:0:0:
256,192,76431,1,0,0:0:0:0:
256,192,76560,1,8,0:0:0:0:
256,192,76690,1,0,0:0:0:0:
256,192,76819,1,0,0:0:0:0:
256,192,76948,1,8,0:0:0:0:
256,192,77078,1,0,0:0:0:0:
256,192,77207,1,0,0:0:0:0:
256,192,77336,1,8,0:0:0:0:
256,192,77465,1,8,0:0:0:0:
256,192,77594,1,0,0:0:0:0:
256,192,77723,1,0,0:0:0:0:
256,192,77853,1,8,0:0:0:0:
256,192,77982,1,8,0:0:0:0:
256,192,78111,1,0,0:0:0:0:
256,192,78240,1,0,0:0:0:0:
256,192,78370,1,8,0:0:0:0:
256,192,78499,1,8,0:0:0:0:
256,192,78628,1,0,0:0:0:0:
256,192,78757,1,0,0:0:0:0:
256,192,78887,1,8,0:0:0:0:
256,192,79016,1,8,0:0:0:0:
256,192,79145,1,0,0:0:0:0:
256,192,79274,1,0,0:0:0:0:
256,192,79404,1,8,0:0:0:0:
256,192,79533,1,8,0:0:0:0:
256,192,79662,1,8,0:0:0:0:
256,192,79791,1,0,0:0:0:0:
256,192,79922,1,8,0:0:0:0:
256,192,80051,1,8,0:0:0:0:
256,192,80180,1,8,0:0:0:0:
256,192,80309,1,0,0:0:0:0:
256,192,80439,1,8,0:0:0:0:
256,192,80568,1,8,0:0:0:0:
256,192,80697,1,8,0:0:0:0:
256,192,80826,1,0,0:0:0:0:
256,192,80956,1,8,0:0:0:0:
256,192,81085,1,8,0:0:0:0:
256,192,81215,1,0,0:0:0:0:
256,192,81343,1,0,0:0:0:0:
256,192,81473,1,0,0:0:0:0:
256,192,81602,1,8,0:0:0:0:
256,192,81731,1,0,0:0:0:0:
256,192,81860,1,0,0:0:0:0:
256,192,81990,1,8,0:0:0:0:
256,192,82119,1,0,0:0:0:0:
256,192,82248,1,0,0:0:0:0:
256,192,82378,1,0,0:0:0:0:
256,192,82507,1,8,0:0:0:0:
256,192,82636,1,0,0:0:0:0:
256,192,82765,1,0,0:0:0:0:
256,192,82895,1,8,0:0:0:0:
256,192,83024,1,8,0:0:0:0:
256,192,83154,1,0,0:0:0:0:
256,192,83283,1,8,0:0:0:0:
256,192,83412,1,8,0:0:0:0:
256,192,83541,1,8,0:0:0:0:
256,192,83670,1,8,0:0:0:0:
256,192,83800,1,0,0:0:0:0:
256,192,83929,1,0,0:0:0:0:
256,192,84059,1,0,0:0:0:0:
256,192,84188,1,8,0:0:0:0:
256,192,84274,1,8,0:0:0:0:
256,192,84360,1,8,0:0:0:0:
256,192,84447,1,0,0:0:0:0:
256,192,84576,1,0,0:0:0:0:
256,192,84705,1,8,0:0:0:0:
256,192,84835,1,0,0:0:0:0:
256,192,84964,1,0,0:0:0:0:
256,192,85093,1,8,0:0:0:0:
256,192,85222,1,8,0:0:0:0:
256,192,85351,1,0,0:0:0:0:
256,192,85480,1,0,0:0:0:0:
256,192,85610,1,8,0:0:0:0:
256,192,85739,1,8,0:0:0:0:
256,192,85868,1,0,0:0:0:0:
256,192,85997,1,0,0:0:0:0:
256,192,86127,1,8,0:0:0:0:
256,192,86256,1,8,0:0:0:0:
256,192,86386,1,0,0:0:0:0:
256,192,86515,1,0,0:0:0:0:
256,192,86644,1,8,0:0:0:0:
256,192,86774,1,8,0:0:0:0:
256,192,86903,1,0,0:0:0:0:
256,192,87032,1,0,0:0:0:0:
256,192,87162,1,8,0:0:0:0:
256,192,87291,1,8,0:0:0:0:
256,192,87420,1,8,0:0:0:0:
256,192,87549,1,0,0:0:0:0:
256,192,87680,1,8,0:0:0:0:
256,192,87809,1,8,0:0:0:0:
256,192,87938,1,8,0:0:0:0:
256,192,88067,1,0,0:0:0:0:
256,192,88197,1,8,0:0:0:0:
256,192,88326,1,8,0:0:0:0:
256,192,88455,1,8,0:0:0:0:
256,192,88584,1,0,0:0:0:0:
256,192,88714,1,8,0:0:0:0:
256,192,88843,1,8,0:0:0:0:
256,192,88973,1,0,0:0:0:0:
256,192,89101,1,0,0:0:0:0:
256,192,89230,1,0,0:0:0:0:
256,192,89359,1,8,0:0:0:0:
256,192,89488,1,0,0:0:0:0:
256,192,89617,1,0,0:0:0:0:
256,192,89747,1,8,0:0:0:0:
256,192,89876,1,8,0:0:0:0:
256,192,90005,1,0,0:0:0:0:
256,192,90135,1,8,0:0:0:0:
256,192,90393,1,0,0:0:0:0:
256,192,90524,1,8,0:0:0:0:
256,192,90652,1,8,0:0:0:0:
256,192,90781,1,8,0:0:0:0:
256,192,90911,1,0,0:0:0:0:
256,192,91040,1,0,0:0:0:0:
256,192,91169,1,8,0:0:0:0:
256,192,91298,1,8,0:0:0:0:
256,192,91429,1,0,0:0:0:0:
256,192,91557,1,8,0:0:0:0:
256,192,91687,1,0,0:0:0:0:
256,192,91816,1,0,0:0:0:0:
256,192,91945,1,8,0:0:0:0:
256,192,92074,1,8,0:0:0:0:
256,192,92204,1,0,0:0:0:0:
256,192,92269,1,8,0:0:0:0:
256,192,92334,1,0,0:0:0:0:
256,192,92592,1,8,0:0:0:0:
256,192,92721,1,0,0:0:0:0:
256,192,92850,1,8,0:0:0:0:
256,192,92979,1,8,0:0:0:0:
256,192,93239,1,0,0:0:0:0:
256,192,93368,1,0,0:0:0:0:
256,192,93498,1,8,0:0:0:0:
256,192,93627,1,0,0:0:0:0:
256,192,93756,1,0,0:0:0:0:
256,192,93886,1,8,0:0:0:0:
256,192,94015,1,8,0:0:0:0:
256,192,94144,1,0,0:0:0:0:
256,192,94274,1,8,0:0:0:0:
256,192,94532,1,0,0:0:0:0:
256,192,94661,1,8,0:0:0:0:
256,192,94790,1,0,0:0:0:0:
256,192,94920,1,8,0:0:0:0:
256,192,95049,1,8,0:0:0:0:
256,192,95179,1,0,0:0:0:0:
256,192,95308,1,12,0:0:0:0:
256,192,95567,1,12,0:0:0:0:
256,192,95825,1,12,0:0:0:0:
256,192,96084,1,12,0:0:0:0:
256,192,96343,1,0,0:0:0:0:
256,192,96473,1,8,0:0:0:0:
256,192,96602,1,8,0:0:0:0:
256,192,96860,1,0,0:0:0:0:
256,192,96989,1,8,0:0:0:0:
256,192,97118,1,0,0:0:0:0:
256,192,97377,1,0,0:0:0:0:
256,192,97506,1,0,0:0:0:0:
256,192,97636,1,8,0:0:0:0:
256,192,97765,1,0,0:0:0:0:
256,192,97894,1,0,0:0:0:0:
256,192,98024,1,8,0:0:0:0:
256,192,98153,1,8,0:0:0:0:
256,192,98282,1,0,0:0:0:0:
256,192,98412,1,8,0:0:0:0:
256,192,98670,1,0,0:0:0:0:
256,192,98799,1,8,0:0:0:0:
256,192,98929,1,8,0:0:0:0:
256,192,99058,1,8,0:0:0:0:
256,192,99188,1,0,0:0:0:0:
256,192,99317,1,0,0:0:0:0:
256,192,99446,1,8,0:0:0:0:
256,192,99575,1,8,0:0:0:0:
256,192,99706,1,0,0:0:0:0:
256,192,99834,1,8,0:0:0:0:
256,192,99964,1,0,0:0:0:0:
256,192,100093,1,0,0:0:0:0:
256,192,100222,1,8,0:0:0:0:
256,192,100351,1,8,0:0:0:0:
256,192,100480,1,0,0:0:0:0:
256,192,100545,1,8,0:0:0:0:
256,192,100610,1,0,0:0:0:0:
256,192,100868,1,8,0:0:0:0:
256,192,100997,1,0,0:0:0:0:
256,192,101126,1,8,0:0:0:0:
256,192,101255,1,8,0:0:0:0:
256,192,101386,1,8,0:0:0:0:
256,192,101515,1,0,0:0:0:0:
256,192,101644,1,0,0:0:0:0:
256,192,101774,1,8,0:0:0:0:
256,192,101903,1,0,0:0:0:0:
256,192,102032,1,0,0:0:0:0:
256,192,102162,1,8,0:0:0:0:
256,192,102291,1,8,0:0:0:0:
256,192,102420,1,0,0:0:0:0:
256,192,102549,1,8,0:0:0:0:
256,192,102808,1,0,0:0:0:0:
256,192,102937,1,8,0:0:0:0:
256,192,103066,1,0,0:0:0:0:
256,192,103196,1,8,0:0:0:0:
256,192,103325,1,8,0:0:0:0:
256,192,103455,1,0,0:0:0:0:
256,192,103584,1,12,0:0:0:0:
256,192,103843,1,12,0:0:0:0:
256,192,104101,1,12,0:0:0:0:
256,192,104360,1,12,0:0:0:0:
256,192,104619,1,0,0:0:0:0:
256,192,104749,1,8,0:0:0:0:
256,192,104878,1,8,0:0:0:0:
256,192,105136,1,0,0:0:0:0:
256,192,105265,1,8,0:0:0:0:
256,192,105394,1,0,0:0:0:0:
256,192,105653,1,0,0:0:0:0:
256,192,105782,1,4,0:0:0:0:
256,192,106170,1,4,0:0:0:0:
256,192,106558,1,4,0:0:0:0:
256,192,106817,1,4,0:0:0:0:
224,192,107334,2,0,L|320:192,6,70.0799856071475
256,192,107851,1,4,0:0:0:0:
256,192,108239,1,4,0:0:0:0:
256,192,108627,1,4,0:0:0:0:
256,192,108886,1,4,0:0:0:0:
224,192,109403,2,0,L|320:192,2,70.0799856071475
256,192,109661,1,8,0:0:0:0:
256,192,109791,1,8,0:0:0:0:
256,192,109920,1,8,0:0:0:0:
256,192,110179,1,4,0:0:0:0:
256,192,110437,1,4,0:0:0:0:
256,192,110696,1,4,0:0:0:0:
256,192,110955,1,4,0:0:0:0:
256,192,111213,1,4,0:0:0:0:
256,192,111343,1,8,0:0:0:0:
256,192,111471,1,4,0:0:0:0:
256,192,111730,1,4,0:0:0:0:
256,192,111989,1,4,0:0:0:0:
256,192,112377,1,4,0:0:0:0:
256,192,112765,1,4,0:0:0:0:
256,192,113024,1,4,0:0:0:0:
256,192,113411,1,0,0:0:0:0:
224,192,113541,2,0,L|320:192,6,70.0799856071475
256,192,114058,1,4,0:0:0:0:
256,192,114446,1,4,0:0:0:0:
256,192,114834,1,4,0:0:0:0:
256,192,115093,1,4,0:0:0:0:
224,192,115610,2,4,L|320:192,6,70.0799856071475
256,192,116127,1,4,0:0:0:0:
256,192,116515,1,4,0:0:0:0:
256,192,116903,1,4,0:0:0:0:
256,192,117032,1,8,0:0:0:0:
256,192,117162,1,4,0:0:0:0:
224,192,117679,2,4,L|320:192,2,70.0799856071475
256,192,117937,1,8,0:0:0:0:
256,192,118067,1,8,0:0:0:0:
256,192,118196,1,8,0:0:0:0:
256,192,118455,1,4,0:0:0:0:
256,192,118713,1,4,0:0:0:0:
256,192,118972,1,4,0:0:0:0:
256,192,119231,1,4,0:0:0:0:
256,192,119489,1,4,0:0:0:0:
256,192,119618,1,8,0:0:0:0:
256,192,119747,1,4,0:0:0:0:
256,192,120006,1,4,0:0:0:0:
256,192,120265,1,12,0:0:0:0:
256,192,120653,1,12,0:0:0:0:
256,192,120911,1,0,0:0:0:0:
256,192,121041,1,12,0:0:0:0:
256,192,121300,1,4,0:0:0:0:
256,192,121429,1,0,0:0:0:0:
256,192,121687,1,4,0:0:0:0:
256,192,121817,1,0,0:0:0:0:
256,192,121946,1,8,0:0:0:0:
256,192,122075,1,4,0:0:0:0:
256,192,122205,1,8,0:0:0:0:
256,192,122334,1,4,0:0:0:0:
256,192,122722,1,4,0:0:0:0:
256,192,123110,1,4,0:0:0:0:
256,192,123369,1,4,0:0:0:0:
224,192,123886,2,0,L|320:192,6,70.0799856071475
256,192,124403,1,4,0:0:0:0:
256,192,124791,1,4,0:0:0:0:
256,192,125179,1,4,0:0:0:0:
256,192,125308,1,0,0:0:0:0:
256,192,125438,1,4,0:0:0:0:
256,192,125696,1,8,0:0:0:0:
256,192,125825,1,0,0:0:0:0:
224,192,125955,2,0,L|320:192,8,70.0799856071475
256,192,126731,1,4,0:0:0:0:
256,192,126989,1,4,0:0:0:0:
256,192,127248,1,4,0:0:0:0:
256,192,127377,1,8,0:0:0:0:
256,192,127507,1,4,0:0:0:0:
256,192,127765,1,4,0:0:0:0:
256,192,128023,1,4,0:0:0:0:
256,192,128282,1,4,0:0:0:0:
256,192,128541,1,4,0:0:0:0:
256,192,128929,1,4,0:0:0:0:
256,192,129317,1,4,0:0:0:0:
256,192,129446,1,8,0:0:0:0:
256,192,129576,1,4,0:0:0:0:
224,192,130093,2,0,L|320:192,6,70.0799856071475
256,192,130610,1,4,0:0:0:0:
256,192,130868,1,8,0:0:0:0:
256,192,130998,1,4,0:0:0:0:
256,192,131386,1,4,0:0:0:0:
256,192,131645,1,4,0:0:0:0:
256,192,131774,1,0,0:0:0:0:
256,192,132032,1,0,0:0:0:0:
224,192,132161,2,4,L|320:192,6,70.0799856071475
256,192,132679,1,4,0:0:0:0:
256,192,132808,1,8,0:0:0:0:
256,192,133067,1,4,0:0:0:0:
256,192,133196,1,8,0:0:0:0:
256,192,133455,1,4,0:0:0:0:
256,192,133714,1,4,0:0:0:0:
256,192,133972,1,8,0:0:0:0:
256,192,134101,1,0,0:0:0:0:
224,192,134230,2,4,L|320:192,8,70.0799856071475
256,192,135007,1,4,0:0:0:0:
256,192,135265,1,4,0:0:0:0:
256,192,135524,1,4,0:0:0:0:
256,192,135783,1,4,0:0:0:0:
256,192,136041,1,4,0:0:0:0:
256,192,136170,1,8,0:0:0:0:
256,192,136299,1,4,0:0:0:0:
256,192,136558,1,4,0:0:0:0:
256,192,136817,1,12,0:0:0:0:
256,192,137205,1,4,0:0:0:0:
256,192,137334,1,0,0:0:0:0:
256,192,137593,1,12,0:0:0:0:
256,192,137722,1,8,0:0:0:0:
256,192,137851,1,4,0:0:0:0:
256,192,137980,1,8,0:0:0:0:
256,192,138110,1,0,0:0:0:0:
256,192,138239,1,0,0:0:0:0:
256,192,138368,1,8,0:0:0:0:
256,192,138627,1,0,0:0:0:0:
256,192,138756,1,8,0:0:0:0:
256,192,138886,1,0,0:0:0:0:
256,192,138950,1,8,0:0:0:0:
256,192,139015,1,0,0:0:0:0:
256,192,139080,1,8,0:0:0:0:
256,192,139144,1,0,0:0:0:0:
256,192,139274,1,8,0:0:0:0:
256,192,139403,1,8,0:0:0:0:
256,192,139468,1,0,0:0:0:0:
256,192,139532,1,8,0:0:0:0:
256,192,139597,1,8,0:0:0:0:
256,192,139661,1,0,0:0:0:0:
256,192,139791,1,0,0:0:0:0:
256,192,139920,1,0,0:0:0:0:
256,192,140049,1,8,0:0:0:0:
256,192,140179,1,8,0:0:0:0:
256,192,140308,1,0,0:0:0:0:
256,192,140437,1,0,0:0:0:0:
256,192,140567,1,8,0:0:0:0:
256,192,140696,1,0,0:0:0:0:
256,192,140782,1,0,0:0:0:0:
256,192,140868,1,0,0:0:0:0:
256,192,140955,1,8,0:0:0:0:
256,192,141041,1,8,0:0:0:0:
256,192,141127,1,0,0:0:0:0:
256,192,141213,1,8,0:0:0:0:
256,192,141299,1,0,0:0:0:0:
256,192,141386,1,8,0:0:0:0:
256,192,141472,1,8,0:0:0:0:
256,192,141558,1,0,0:0:0:0:
256,192,141644,1,0,0:0:0:0:
256,192,141730,1,8,0:0:0:0:
256,192,141817,1,0,0:0:0:0:
256,192,141903,1,0,0:0:0:0:
256,192,141989,1,8,0:0:0:0:
256,192,142075,1,8,0:0:0:0:
256,192,142161,1,0,0:0:0:0:
256,192,142248,1,8,0:0:0:0:
256,192,142334,1,8,0:0:0:0:
256,192,142420,1,8,0:0:0:0:
256,192,142506,1,8,0:0:0:0:
256,192,142549,1,0,0:0:0:0:
256,192,142765,1,0,0:0:0:0:
256,192,142894,1,0,0:0:0:0:
256,192,143153,1,0,0:0:0:0:
256,192,143282,1,8,0:0:0:0:
256,192,143368,1,0,0:0:0:0:
256,192,143541,1,8,0:0:0:0:
256,192,143670,1,0,0:0:0:0:
256,192,143799,1,0,0:0:0:0:
256,192,144058,1,0,0:0:0:0:
256,192,144187,1,8,0:0:0:0:
256,192,144317,1,0,0:0:0:0:
256,192,144446,1,8,0:0:0:0:
256,192,144511,1,0,0:0:0:0:
256,192,144575,1,8,0:0:0:0:
256,192,145093,1,0,0:0:0:0:
256,192,145222,1,0,0:0:0:0:
256,192,145286,1,0,0:0:0:0:
256,192,145351,1,8,0:0:0:0:
256,192,145416,1,0,0:0:0:0:
256,192,145480,1,8,0:0:0:0:
256,192,145545,1,8,0:0:0:0:
256,192,145610,1,0,0:0:0:0:
256,192,145674,1,8,0:0:0:0:
256,192,145739,1,0,0:0:0:0:
256,192,145804,1,8,0:0:0:0:
256,192,145868,1,8,0:0:0:0:
256,192,145933,1,8,0:0:0:0:
256,192,145998,1,0,0:0:0:0:
256,192,146062,1,8,0:0:0:0:
256,192,146127,1,0,0:0:0:0:
256,192,146213,1,8,0:0:0:0:
256,192,146299,1,0,0:0:0:0:
256,192,146386,1,0,0:0:0:0:
256,192,146472,1,8,0:0:0:0:
256,192,146558,1,0,0:0:0:0:
256,192,146644,1,0,0:0:0:0:
256,192,146838,1,0,0:0:0:0:
256,192,146903,1,0,0:0:0:0:
256,192,147097,1,0,0:0:0:0:
256,192,147161,1,8,0:0:0:0:
256,192,147291,1,0,0:0:0:0:
256,192,147549,1,0,0:0:0:0:
256,192,147679,1,8,0:0:0:0:
256,192,147808,1,0,0:0:0:0:
256,192,147873,1,8,0:0:0:0:
256,192,148067,1,0,0:0:0:0:
256,192,148196,1,0,0:0:0:0:
256,192,148261,1,8,0:0:0:0:
256,192,148325,1,8,0:0:0:0:
256,192,148390,1,8,0:0:0:0:
256,192,148455,1,8,0:0:0:0:
256,192,148541,1,0,0:0:0:0:
256,192,148627,1,8,0:0:0:0:
256,192,148713,1,8,0:0:0:0:
256,192,148778,1,0,0:0:0:0:
256,192,148843,1,8,0:0:0:0:
256,192,148907,1,8,0:0:0:0:
256,192,148972,1,0,0:0:0:0:
256,192,149101,1,0,0:0:0:0:
256,192,149230,1,8,0:0:0:0:
256,192,149317,1,8,0:0:0:0:
256,192,149403,1,0,0:0:0:0:
256,192,149489,1,8,0:0:0:0:
256,192,149618,1,8,0:0:0:0:
256,192,149748,1,0,0:0:0:0:
256,192,149920,1,0,0:0:0:0:
256,192,150093,1,8,0:0:0:0:
256,192,150265,1,0,0:0:0:0:
256,192,150437,1,8,0:0:0:0:
256,192,150610,1,0,0:0:0:0:
256,192,150782,1,0,0:0:0:0:
256,192,150955,1,8,0:0:0:0:
256,192,151127,1,0,0:0:0:0:
256,192,151299,1,8,0:0:0:0:
256,192,151364,1,8,0:0:0:0:
256,192,151429,1,8,0:0:0:0:
256,192,151558,1,8,0:0:0:0:
256,192,151687,1,0,0:0:0:0:
256,192,151817,1,0,0:0:0:0:
256,192,151946,1,8,0:0:0:0:
256,192,152075,1,0,0:0:0:0:
256,192,152205,1,0,0:0:0:0:
256,192,152334,1,8,0:0:0:0:
256,192,152463,1,8,0:0:0:0:
256,192,152593,1,0,0:0:0:0:
256,192,152722,1,0,0:0:0:0:
256,192,152851,1,8,0:0:0:0:
256,192,152937,1,0,0:0:0:0:
256,192,153110,1,8,0:0:0:0:
256,192,153368,1,8,0:0:0:0:
256,192,153498,1,0,0:0:0:0:
256,192,153756,1,0,0:0:0:0:
256,192,153821,1,8,0:0:0:0:
256,192,153886,1,8,0:0:0:0:
256,192,154015,1,0,0:0:0:0:
256,192,154144,1,8,0:0:0:0:
256,192,154274,1,8,0:0:0:0:
256,192,154403,1,0,0:0:0:0:
256,192,154532,1,8,0:0:0:0:
256,192,154661,1,0,0:0:0:0:
256,192,154748,1,0,0:0:0:0:
256,192,154834,1,8,0:0:0:0:
256,192,154920,1,8,0:0:0:0:
256,192,155049,1,0,0:0:0:0:
256,192,155114,1,8,0:0:0:0:
256,192,155265,1,8,0:0:0:0:
256,192,155351,1,0,0:0:0:0:
256,192,155502,1,0,0:0:0:0:
256,192,156213,1,0,0:0:0:0:
256,192,156472,1,0,0:0:0:0:
256,192,157248,1,8,0:0:0:0:
256,192,157506,1,8,0:0:0:0:
256,192,157636,1,8,0:0:0:0:
256,192,157765,1,0,0:0:0:0:
256,192,157894,1,8,0:0:0:0:
256,192,158024,1,8,0:0:0:0:
256,192,158282,1,0,0:0:0:0:
256,192,158411,1,8,0:0:0:0:
256,192,158541,1,0,0:0:0:0:
256,192,158670,1,8,0:0:0:0:
256,192,158799,1,8,0:0:0:0:
256,192,158929,1,8,0:0:0:0:
256,192,159058,1,0,0:0:0:0:
256,192,159144,1,8,0:0:0:0:
256,192,159230,1,0,0:0:0:0:
256,192,159317,1,0,0:0:0:0:
256,192,159575,1,8,0:0:0:0:
256,192,159705,1,8,0:0:0:0:
256,192,159963,1,8,0:0:0:0:
256,192,160093,1,8,0:0:0:0:
256,192,160351,1,0,0:0:0:0:
256,192,160610,1,0,0:0:0:0:
256,192,161127,1,8,0:0:0:0:
256,192,161256,1,0,0:0:0:0:
256,192,161386,1,8,0:0:0:0:
256,192,161450,1,8,0:0:0:0:
256,192,161515,1,8,0:0:0:0:
256,192,161644,1,8,0:0:0:0:
256,192,162291,1,8,0:0:0:0:
256,192,162420,1,0,0:0:0:0:
256,192,162549,1,8,0:0:0:0:
256,192,162679,1,0,0:0:0:0:
256,192,162765,1,8,0:0:0:0:
256,192,162851,1,0,0:0:0:0:
256,192,162937,1,8,0:0:0:0:
256,192,163024,1,0,0:0:0:0:
256,192,163110,1,8,0:0:0:0:
256,192,163196,1,0,0:0:0:0:
256,192,163282,1,8,0:0:0:0:
256,192,163368,1,0,0:0:0:0:
256,192,163455,1,8,0:0:0:0:
256,192,163541,1,0,0:0:0:0:
256,192,163627,1,8,0:0:0:0:
256,192,163713,1,4,0:0:0:0:
256,192,163972,1,0,0:0:0:0:
256,192,164230,1,0,0:0:0:0:
256,192,164489,1,0,0:0:0:0:
256,192,164748,1,0,0:0:0:0:
256,192,165006,1,0,0:0:0:0:
256,192,165265,1,0,0:0:0:0:
256,192,165524,1,8,0:0:0:0:
256,192,165782,1,8,0:0:0:0:
256,192,166041,1,0,0:0:0:0:
256,192,166300,1,8,0:0:0:0:
256,192,166558,1,0,0:0:0:0:
256,192,166817,1,0,0:0:0:0:
256,192,166946,1,8,0:0:0:0:
256,192,167075,1,8,0:0:0:0:
256,192,167205,1,0,0:0:0:0:
256,192,167334,1,8,0:0:0:0:
256,192,167420,1,0,0:0:0:0:
256,192,167506,1,0,0:0:0:0:
256,192,167593,1,0,0:0:0:0:
256,192,167851,1,8,0:0:0:0:
256,192,168110,1,0,0:0:0:0:
256,192,168368,1,0,0:0:0:0:
256,192,168627,1,0,0:0:0:0:
256,192,168886,1,0,0:0:0:0:
256,192,168972,1,8,0:0:0:0:
256,192,169058,1,0,0:0:0:0:
256,192,169144,1,8,0:0:0:0:
256,192,169230,1,0,0:0:0:0:
256,192,169317,1,8,0:0:0:0:
256,192,169403,1,0,0:0:0:0:
256,192,169489,1,8,0:0:0:0:
256,192,169575,1,0,0:0:0:0:
256,192,169662,1,8,0:0:0:0:
256,192,169726,1,8,0:0:0:0:
256,192,169791,1,0,0:0:0:0:
256,192,169920,1,8,0:0:0:0:
256,192,170049,1,0,0:0:0:0:
256,192,170179,1,8,0:0:0:0:
256,192,170437,1,0,0:0:0:0:
256,192,170567,1,8,0:0:0:0:
256,192,170696,1,0,0:0:0:0:
256,192,170825,1,8,0:0:0:0:
256,192,170955,1,12,0:0:0:0:
256,192,171989,1,4,0:0:0:0:
256,192,172377,1,8,0:0:0:0:
256,192,172765,1,0,0:0:0:0:
256,192,173024,1,0,0:0:0:0:
256,192,173411,1,8,0:0:0:0:
256,192,173541,1,0,0:0:0:0:
256,192,173799,1,8,0:0:0:0:
256,192,174058,1,8,0:0:0:0:
256,192,174317,1,0,0:0:0:0:
256,192,174446,1,0,0:0:0:0:
256,192,174575,1,8,0:0:0:0:
256,192,174705,1,8,0:0:0:0:
256,192,174834,1,0,0:0:0:0:
256,192,175093,1,0,0:0:0:0:
256,192,175222,1,8,0:0:0:0:
256,192,175351,1,0,0:0:0:0:
256,192,175480,1,0,0:0:0:0:
256,192,175610,1,8,0:0:0:0:
256,192,175868,1,0,0:0:0:0:
256,192,176127,1,4,0:0:0:0:
256,192,176515,1,8,0:0:0:0:
256,192,176903,1,0,0:0:0:0:
256,192,177162,1,0,0:0:0:0:
256,192,177549,1,0,0:0:0:0:
256,192,177679,1,8,0:0:0:0:
256,192,177937,1,8,0:0:0:0:
256,192,178196,1,0,0:0:0:0:
256,192,178325,1,8,0:0:0:0:
256,192,178455,1,0,0:0:0:0:
256,192,178584,1,0,0:0:0:0:
256,192,178713,1,8,0:0:0:0:
256,192,178843,1,8,0:0:0:0:
256,192,178972,1,0,0:0:0:0:
256,192,179360,1,8,0:0:0:0:
256,192,179489,1,0,0:0:0:0:
256,192,179618,1,8,0:0:0:0:
256,192,179748,1,8,0:0:0:0:
256,192,179877,1,0,0:0:0:0:
256,192,179942,1,0,0:0:0:0:
256,192,180006,1,8,0:0:0:0:
256,192,180136,1,0,0:0:0:0:
256,192,180265,1,4,0:0:0:0:
256,192,180653,1,8,0:0:0:0:
256,192,181041,1,0,0:0:0:0:
256,192,181300,1,0,0:0:0:0:
256,192,181687,1,8,0:0:0:0:
256,192,181817,1,0,0:0:0:0:
256,192,181946,1,0,0:0:0:0:
256,192,182075,1,8,0:0:0:0:
256,192,182205,1,8,0:0:0:0:
256,192,182334,1,8,0:0:0:0:
256,192,182593,1,0,0:0:0:0:
256,192,182722,1,0,0:0:0:0:
256,192,182851,1,8,0:0:0:0:
256,192,182981,1,8,0:0:0:0:
256,192,183110,1,0,0:0:0:0:
256,192,183369,1,0,0:0:0:0:
256,192,183498,1,8,0:0:0:0:
256,192,183627,1,0,0:0:0:0:
256,192,183756,1,8,0:0:0:0:
256,192,183886,1,8,0:0:0:0:
256,192,183972,1,0,0:0:0:0:
256,192,184058,1,0,0:0:0:0:
256,192,184144,1,8,0:0:0:0:
256,192,184209,1,8,0:0:0:0:
256,192,184274,1,0,0:0:0:0:
256,192,184403,1,4,0:0:0:0:
256,192,184791,1,8,0:0:0:0:
256,192,185179,1,0,0:0:0:0:
256,192,185438,1,0,0:0:0:0:
256,192,185825,1,8,0:0:0:0:
256,192,185955,1,0,0:0:0:0:
256,192,186213,1,8,0:0:0:0:
256,192,186343,1,8,0:0:0:0:
256,192,186472,1,0,0:0:0:0:
256,192,186601,1,8,0:0:0:0:
256,192,186730,1,0,0:0:0:0:
256,192,186989,1,8,0:0:0:0:
256,192,187119,1,8,0:0:0:0:
256,192,187248,1,0,0:0:0:0:
256,192,187506,1,0,0:0:0:0:
256,192,187593,1,8,0:0:0:0:
256,192,187679,1,0,0:0:0:0:
256,192,187765,1,8,0:0:0:0:
256,192,187851,1,0,0:0:0:0:
256,192,187937,1,8,0:0:0:0:
256,192,188024,1,0,0:0:0:0:
256,192,188110,1,8,0:0:0:0:
256,192,188196,1,0,0:0:0:0:
256,192,188282,1,8,0:0:0:0:
256,192,188411,1,0,0:0:0:0:
256,192,188541,1,4,0:0:0:0:
256,192,188929,1,0,0:0:0:0:
256,192,189058,1,8,0:0:0:0:
256,192,189317,1,0,0:0:0:0:
256,192,189576,1,0,0:0:0:0:
256,192,189963,1,8,0:0:0:0:
256,192,190093,1,0,0:0:0:0:
256,192,190351,1,8,0:0:0:0:
256,192,190610,1,8,0:0:0:0:
256,192,190869,1,0,0:0:0:0:
256,192,190998,1,0,0:0:0:0:
256,192,191127,1,8,0:0:0:0:
256,192,191257,1,8,0:0:0:0:
256,192,191386,1,0,0:0:0:0:
256,192,191450,1,0,0:0:0:0:
256,192,191515,1,8,0:0:0:0:
256,192,191645,1,0,0:0:0:0:
256,192,191774,1,8,0:0:0:0:
256,192,191903,1,0,0:0:0:0:
256,192,192032,1,0,0:0:0:0:
256,192,192162,1,8,0:0:0:0:
256,192,192420,1,0,0:0:0:0:
256,192,192679,1,4,0:0:0:0:
256,192,193067,1,0,0:0:0:0:
256,192,193196,1,8,0:0:0:0:
256,192,193455,1,0,0:0:0:0:
256,192,193714,1,0,0:0:0:0:
256,192,194101,1,8,0:0:0:0:
256,192,194231,1,8,0:0:0:0:
256,192,194489,1,8,0:0:0:0:
256,192,194748,1,0,0:0:0:0:
256,192,194877,1,8,0:0:0:0:
256,192,195007,1,0,0:0:0:0:
256,192,195071,1,8,0:0:0:0:
256,192,195136,1,0,0:0:0:0:
256,192,195200,1,0,0:0:0:0:
256,192,195265,1,8,0:0:0:0:
256,192,195395,1,8,0:0:0:0:
256,192,195524,1,0,0:0:0:0:
256,192,195912,1,8,0:0:0:0:
256,192,196041,1,0,0:0:0:0:
256,192,196170,1,8,0:0:0:0:
256,192,196300,1,8,0:0:0:0:
256,192,196429,1,0,0:0:0:0:
256,192,196494,1,0,0:0:0:0:
256,192,196558,1,8,0:0:0:0:
256,192,196688,1,0,0:0:0:0:
256,192,196817,1,4,0:0:0:0:
256,192,197205,1,0,0:0:0:0:
256,192,197334,1,8,0:0:0:0:
256,192,197593,1,0,0:0:0:0:
256,192,197852,1,0,0:0:0:0:
256,192,198239,1,8,0:0:0:0:
256,192,198369,1,0,0:0:0:0:
256,192,198498,1,0,0:0:0:0:
256,192,198627,1,8,0:0:0:0:
256,192,198757,1,8,0:0:0:0:
256,192,198886,1,8,0:0:0:0:
256,192,199015,1,0,0:0:0:0:
256,192,199080,1,8,0:0:0:0:
256,192,199145,1,0,0:0:0:0:
256,192,199274,1,0,0:0:0:0:
256,192,199403,1,8,0:0:0:0:
256,192,199533,1,8,0:0:0:0:
256,192,199597,1,8,0:0:0:0:
256,192,199662,1,0,0:0:0:0:
256,192,199921,1,0,0:0:0:0:
256,192,200050,1,8,0:0:0:0:
256,192,200179,1,0,0:0:0:0:
256,192,200308,1,8,0:0:0:0:
256,192,200438,1,8,0:0:0:0:
256,192,200524,1,0,0:0:0:0:
256,192,200610,1,0,0:0:0:0:
256,192,200696,1,8,0:0:0:0:
256,192,200761,1,8,0:0:0:0:
256,192,200826,1,0,0:0:0:0:
256,192,200955,1,4,0:0:0:0:
256,192,201343,1,0,0:0:0:0:
256,192,201472,1,8,0:0:0:0:
256,192,201731,1,0,0:0:0:0:
256,192,201990,1,0,0:0:0:0:
256,192,202377,1,8,0:0:0:0:
256,192,202507,1,0,0:0:0:0:
256,192,202765,1,8,0:0:0:0:
256,192,202895,1,8,0:0:0:0:
256,192,203024,1,0,0:0:0:0:
256,192,203153,1,8,0:0:0:0:
256,192,203218,1,8,0:0:0:0:
256,192,203282,1,0,0:0:0:0:
256,192,203411,1,0,0:0:0:0:
256,192,203541,1,8,0:0:0:0:
256,192,203605,1,0,0:0:0:0:
256,192,203671,1,8,0:0:0:0:
256,192,203735,1,8,0:0:0:0:
256,192,203800,1,0,0:0:0:0:
256,192,203929,1,0,0:0:0:0:
256,192,204058,12,0,213368,0:0:0:0:
