osu file format v14

[General]
AudioFilename: 07 I shall....mp3
AudioLeadIn: 0
PreviewTime: 221848
Countdown: 0
SampleSet: Soft
StackLeniency: 0.4
Mode: 0
LetterboxInBreaks: 0
WidescreenStoryboard: 0

[Editor]
Bookmarks: 28776,56205,69919,97348,124776,152205,179633,207062,210276,213276,216705,220776,236205,249919,277348,304776,332205
DistanceSpacing: 1.5
BeatDivisor: 4
GridSize: 8
TimelineZoom: 2.6

[Metadata]
Title:I shall...
TitleUnicode:I shall...
Artist:CHICACO
ArtistUnicode:CHICACO
Creator:ScubDomino
Version:Paradise
Source:東方妖々夢 ~ Perfect Cherry Blossom.
Tags:同人音楽 ziki_7 ヤヤネヒロコ PLATONIC SOUL ZUN Jun'ya Ota 東方project Touhou doujin ongaku comiket 88 c88 上海アリス幻樂団 Team Shanghai Alice 無何有の郷 mukau no sato Deep Mountain ESQUARIA Letty Whiterock レティホワイトロック future bass yayane hiroko
BeatmapID:1539260
BeatmapSetID:729191

[Difficulty]
HPDrainRate:7
CircleSize:3
OverallDifficulty:8.5
ApproachRate:9.3
SliderMultiplier:1.5
SliderTickRate:1

[Events]
//Background and Video events
0,0,"noblur.jpg",0,0
//Break Periods
2,177321,178281
2,220928,221995
//Storyboard Layer 0 (Background)
//Storyboard Layer 1 (Fail)
//Storyboard Layer 2 (Pass)
//Storyboard Layer 3 (Foreground)
//Storyboard Sound Samples

[TimingPoints]
1407,428.571428571429,4,2,0,40,1,0
28818,-1000,4,2,0,40,0,0
31390,-500,4,2,0,40,0,0
33104,-666.666666666667,4,2,0,40,0,0
33961,-374.953130858643,4,2,0,40,0,0
36532,-750.018750468762,4,2,0,40,0,0
39961,-333.333333333333,4,2,0,40,0,0
40818,-750.187546886722,4,2,0,40,0,0
42532,-1000,4,2,0,40,0,0
45104,-500,4,2,0,40,0,0
47997,-375.093773443361,4,2,0,40,0,0
50247,-750.018750468762,4,2,0,40,0,0
51961,-500,4,2,0,40,0,0
53675,-375.000937502344,4,2,0,40,0,0
54961,-750.018750468762,4,2,0,40,0,0
56247,-181.818181818181,4,2,0,25,0,0
56890,-290.697674418605,4,2,0,25,0,0
57961,-222.222222222222,4,2,0,25,0,0
58604,-355.871886120996,4,2,0,25,0,0
59675,-285.714285714286,4,2,0,25,0,0
60318,-456.62100456621,4,2,0,25,0,0
61390,-400,4,2,0,25,0,0
62032,-320.512820512821,4,2,0,25,0,0
63104,-200,4,2,3,30,0,0
66532,-200,4,2,3,35,0,0
67390,-200,4,2,3,40,0,0
68675,-200,4,2,3,35,0,0
69104,-200,4,2,2,40,0,0
69978,-40,4,2,2,70,0,1
70604,-33.3333333333333,4,2,2,70,0,1
71140,-66.6666666666667,4,2,2,70,0,1
71461,-100,4,2,2,70,0,1
72104,-33.3333333333333,4,2,2,70,0,1
72318,-33.3333333333333,4,2,2,50,0,1
72532,-200,4,2,2,70,0,1
73175,-100,4,2,2,70,0,1
73390,-40,4,2,2,70,0,1
74032,-33.3333333333333,4,2,2,70,0,1
74568,-66.6666666666667,4,2,2,70,0,1
74890,-100,4,2,2,70,0,1
75532,-33.3333333333333,4,2,2,70,0,1
75747,-33.3333333333333,4,2,2,40,0,1
75961,-66.6666666666667,4,2,2,70,0,1
76390,-333.333333333333,4,2,2,70,0,1
76818,-40,4,2,2,70,0,1
77461,-33.3333333333333,4,2,2,70,0,1
77997,-66.6666666666667,4,2,2,70,0,1
78318,-100,4,2,2,70,0,1
78961,-33.3333333333333,4,2,2,70,0,1
79390,-500,4,2,2,70,0,1
79711,-500,4,2,2,53,0,1
80032,-100,4,2,2,70,0,1
80247,-40,4,2,2,70,0,1
81961,-50,4,2,2,70,0,1
83247,-66.6666666666667,4,2,2,70,0,1
83675,-40,4,2,2,70,0,1
84318,-33.3333333333333,4,2,2,70,0,1
84854,-66.6666666666667,4,2,2,70,0,1
85390,-100,4,2,2,70,0,1
85818,-44.4444444444445,4,2,2,70,0,1
85925,-44.4444444444445,4,2,2,40,0,1
86032,-44.4444444444445,4,2,2,30,0,1
86246,-200,4,2,2,70,0,1
86782,-200,4,2,2,45,0,1
86889,-100,4,2,2,70,0,1
87104,-40,4,2,2,70,0,1
87425,-40,4,2,99,5,0,1
87532,-66.6666666666667,4,2,2,70,0,1
88282,-66.6666666666667,4,2,2,70,0,1
88818,-100,4,2,2,70,0,1
89246,-33.3333333333333,4,2,2,70,0,1
89836,-66.6666666666667,4,2,2,70,0,1
90317,-100,4,2,2,70,0,1
90532,-40,4,2,2,70,0,1
91177,-33.3333333333333,4,2,2,70,0,1
91711,-66.6666666666667,4,2,2,70,0,1
92032,-100,4,2,2,70,0,1
92675,-33.3333333333333,4,2,2,70,0,1
93103,-66.6666666666667,4,2,2,70,0,1
93746,-100,4,2,2,70,0,1
93961,-40,4,2,2,70,0,1
95675,-50,4,2,2,70,0,1
96978,-50,4,2,2,70,0,0
97407,-45.4545454545455,4,2,2,70,0,1
98461,-66.6666666666667,4,2,2,70,0,1
98889,-133.333333333333,4,2,2,70,0,1
99532,-33.3333333333333,4,2,2,70,0,1
99747,-40,4,2,2,50,0,1
99961,-200,4,2,2,70,0,1
100604,-100,4,2,2,70,0,1
100818,-40,4,2,2,70,0,1
101142,-40,4,2,99,5,0,1
101247,-500,4,2,2,70,0,1
101890,-66.6666666666667,4,2,2,40,0,1
101997,-66.6666666666667,4,2,2,70,0,1
102318,-133.333333333333,4,2,2,70,0,1
102961,-33.3333333333333,4,2,2,70,0,1
103390,-66.6666666666667,4,2,2,70,0,1
103818,-333.333333333333,4,2,2,70,0,1
104247,-45.4545454545455,4,2,2,70,0,1
105318,-66.6666666666667,4,2,2,70,0,1
105746,-133.333333333333,4,2,2,70,0,1
106389,-33.3333333333333,4,2,2,70,0,1
106818,-500,4,2,2,70,0,1
107461,-100,4,2,2,70,0,1
107675,-40,4,2,2,70,0,1
108104,-33.3333333333333,4,2,2,70,0,1
108747,-66.6666666666667,4,2,2,70,0,1
108847,-50,4,2,2,70,0,1
111104,-40,4,2,2,70,0,1
112175,-66.6666666666667,4,2,2,70,0,1
112603,-133.333333333333,4,2,2,70,0,1
113247,-44.4444444444445,4,2,2,70,0,1
113354,-44.4444444444445,4,2,2,40,0,1
113461,-44.4444444444445,4,2,2,30,0,1
113675,-200,4,2,2,70,0,1
114211,-200,4,2,2,45,0,1
114318,-100,4,2,2,70,0,1
114532,-40,4,2,2,70,0,1
114854,-40,4,2,99,5,0,1
114961,-66.6666666666667,4,2,2,70,0,1
115604,-66.6666666666667,4,2,2,70,0,1
116034,-133.333333333333,4,2,2,70,0,1
116675,-33.3333333333333,4,2,2,70,0,1
117318,-66.6666666666667,4,2,2,70,0,1
117961,-44.4444444444445,4,2,2,70,0,1
119032,-66.6666666666667,4,2,2,70,0,1
119460,-133.333333333333,4,2,2,70,0,1
120103,-33.3333333333333,4,2,2,70,0,1
120532,-66.6666666666667,4,2,2,70,0,1
121175,-100,4,2,2,70,0,1
121389,-40,4,2,2,70,0,1
121818,-33.3333333333333,4,2,2,70,0,1
122461,-66.6666666666667,4,2,2,70,0,1
122561,-50,4,2,2,70,0,1
123961,-66.6666666666667,4,2,2,70,0,1
124835,-1000,4,2,0,40,0,0
127390,-500,4,2,0,40,0,0
129104,-1000,4,2,0,40,0,0
130818,-250,4,2,0,40,0,0
131675,-1000,4,2,0,40,0,0
134247,-500,4,2,0,40,0,0
135961,-1000,4,2,0,40,0,0
137675,-375.009375234381,4,2,0,40,0,0
138538,-500,4,2,0,40,0,0
141104,-250,4,2,0,40,0,0
142818,-500,4,2,0,40,0,0
144532,-250,4,2,0,40,0,0
145390,-500,4,2,0,40,0,0
147961,-250,4,2,0,40,0,0
149675,-166.666666666667,4,2,0,40,0,0
151390,-1000,4,2,0,40,0,0
152247,-100,4,2,2,40,0,0
153532,-140.252454417952,4,2,2,40,0,0
153961,-60.0000240000096,4,2,2,40,0,0
154818,-100,4,2,2,40,0,0
155675,-125,4,2,2,40,0,0
157389,-75.0018750468762,4,2,2,40,0,0
159104,-125,4,2,2,40,0,0
159961,-60.0024000960038,4,2,2,40,0,0
160392,-120.00048000192,4,2,2,40,0,0
160821,-60.0000240000096,4,2,2,40,0,0
161677,-100,4,2,2,40,0,0
164247,-75.0018750468762,4,2,2,40,0,0
165961,-100,4,2,2,40,0,0
167246,-175.438596491228,4,2,2,40,0,0
168104,-75.0187546886722,4,2,2,40,0,0
168532,-166.666666666667,4,2,2,40,0,0
169389,-111.111111111111,4,2,2,40,0,0
170247,-166.666666666667,4,2,2,40,0,0
170890,-111.111111111111,4,2,2,40,0,0
171532,-66.6666666666667,4,2,2,40,0,0
172818,-125,4,2,2,40,0,0
173675,-75.0018750468762,4,2,2,40,0,0
174104,-150.01500150015,4,2,2,40,0,0
174961,-75.0018750468762,4,2,2,40,0,0
175389,-125,4,2,2,40,0,0
177104,-200,4,2,2,40,0,0
177961,-75.0018750468762,4,2,2,40,0,0
178604,-1000,4,2,99,10,0,0
178818,-200,4,2,2,50,0,0
179692,-40,4,2,2,70,0,1
180318,-33.3333333333333,4,2,2,70,0,1
180854,-66.6666666666667,4,2,2,70,0,1
181175,-33.3333333333333,4,2,2,70,0,1
181390,-100,4,2,2,70,0,1
181818,-33.3333333333333,4,2,2,70,0,1
182246,-200,4,2,2,70,0,1
182889,-100,4,2,2,70,0,1
183104,-40,4,2,2,70,0,1
183720,-33.3333333333333,4,2,2,70,0,1
184256,-66.6666666666667,4,2,2,70,0,1
184604,-33.3333333333333,4,2,2,70,0,1
184818,-100,4,2,2,70,0,1
185220,-33.3333333333333,4,2,2,70,0,1
185649,-66.6666666666667,4,2,2,70,0,1
186078,-333.333333333333,4,2,2,70,0,1
186506,-40,4,2,2,70,0,1
187149,-33.3333333333333,4,2,2,70,0,1
187685,-66.6666666666667,4,2,2,70,0,1
188006,-100,4,2,2,70,0,1
188649,-33.3333333333333,4,2,2,70,0,1
189078,-500,4,2,2,70,0,1
189961,-40,4,2,2,70,0,1
191675,-50,4,2,2,70,0,1
192961,-66.6666666666667,4,2,2,70,0,1
193389,-40,4,2,2,70,0,1
194032,-33.3333333333333,4,2,2,70,0,1
194568,-66.6666666666667,4,2,2,70,0,1
195104,-100,4,2,2,70,0,1
195532,-44.4444444444445,4,2,2,70,0,1
195639,-44.4444444444445,4,2,2,40,0,1
195746,-44.4444444444445,4,2,2,30,0,1
195960,-200,4,2,2,70,0,1
196497,-200,4,2,2,45,0,1
196604,-100,4,2,2,70,0,1
196818,-40,4,2,2,70,0,1
197139,-40,4,2,2,5,0,1
197246,-66.6666666666667,4,2,2,70,0,1
197996,-66.6666666666667,4,2,2,70,0,1
198532,-100,4,2,2,70,0,1
198960,-33.3333333333333,4,2,2,70,0,1
199550,-66.6666666666667,4,2,2,70,0,1
200031,-100,4,2,2,70,0,1
200247,-40,4,2,2,70,0,1
201425,-80,4,2,2,70,0,1
201747,-120.00048000192,4,2,2,70,0,1
202390,-40,4,2,2,70,0,1
202818,-66.6666666666667,4,2,2,70,0,1
203461,-100,4,2,2,70,0,1
203675,-40,4,2,2,70,0,1
205390,-50,4,2,2,70,0,1
207121,-133.333333333333,4,2,2,50,0,0
207747,-133.333333333333,4,2,2,45,0,0
208390,-166.666666666667,4,2,2,40,0,0
209032,-166.666666666667,4,2,2,33,0,0
209675,-1000,4,2,2,25,0,0
209701,-1000,4,2,99,5,0,0
211604,-1000,4,2,2,20,0,0
212916,-1000,4,2,99,5,0,0
215890,-1000,4,2,2,15,0,0
216773,-1000,4,2,99,5,0,0
220818,-333.333333333333,4,2,0,30,0,0
224247,-333.333333333333,4,2,0,30,0,0
236247,-133.333333333333,4,2,3,25,0,0
237961,-200,4,2,3,25,0,0
239675,-333.333333333333,4,2,3,25,0,0
241390,-500,4,2,3,25,0,0
243104,-250,4,2,3,30,0,0
246532,-250,4,2,3,35,0,0
248247,-133.333333333333,4,2,3,30,0,0
248675,-133.333333333333,4,2,3,25,0,0
249104,-66.6666666666667,4,2,2,50,0,0
249978,-40,4,2,2,70,0,1
250577,-33.3333333333333,4,2,2,70,0,1
251113,-66.6666666666667,4,2,2,70,0,1
251434,-100,4,2,2,70,0,1
252077,-33.3333333333333,4,2,2,70,0,1
252505,-200,4,2,2,70,0,1
253148,-100,4,2,2,70,0,1
253363,-40,4,2,2,70,0,1
254005,-33.3333333333333,4,2,2,70,0,1
254541,-66.6666666666667,4,2,2,70,0,1
254863,-100,4,2,2,70,0,1
255505,-33.3333333333333,4,2,2,70,0,1
255934,-66.6666666666667,4,2,2,70,0,1
256363,-333.333333333333,4,2,2,70,0,1
256791,-40,4,2,2,70,0,1
257434,-33.3333333333333,4,2,2,70,0,1
257970,-66.6666666666667,4,2,2,70,0,1
258291,-100,4,2,2,70,0,1
258934,-33.3333333333333,4,2,2,70,0,1
259363,-500,4,2,2,70,0,1
260005,-100,4,2,2,70,0,1
260220,-40,4,2,2,70,0,1
261934,-50,4,2,2,70,0,1
263220,-66.6666666666667,4,2,2,70,0,1
263648,-40,4,2,2,70,0,1
264291,-33.3333333333333,4,2,2,70,0,1
264827,-66.6666666666667,4,2,2,70,0,1
265363,-100,4,2,2,70,0,1
265818,-44.4444444444445,4,2,2,70,0,1
265925,-44.4444444444445,4,2,2,40,0,1
266032,-44.4444444444445,4,2,2,30,0,1
266219,-200,4,2,2,70,0,1
266782,-200,4,2,2,50,0,1
266862,-100,4,2,2,70,0,1
267077,-40,4,2,2,70,0,1
267398,-40,4,2,99,10,0,1
267505,-66.6666666666667,4,2,2,70,0,1
268255,-66.6666666666667,4,2,2,70,0,1
268791,-100,4,2,2,70,0,1
269219,-33.3333333333333,4,2,2,70,0,1
269809,-66.6666666666667,4,2,2,70,0,1
270290,-100,4,2,2,70,0,1
270505,-40,4,2,2,70,0,1
271711,-80,4,2,2,70,0,1
272032,-120.000048000019,4,2,2,70,0,1
272675,-40,4,2,2,70,0,1
273103,-66.6666666666667,4,2,2,70,0,1
273746,-100,4,2,2,70,0,1
273961,-40,4,2,2,70,0,1
275692,-50,4,2,2,70,0,1
276978,-50,4,2,2,70,0,0
277407,-45.4545454545455,4,2,2,70,0,1
278461,-66.6666666666667,4,2,2,70,0,1
278889,-133.333333333333,4,2,2,70,0,1
279532,-33.3333333333333,4,2,2,70,0,1
279747,-40,4,2,2,70,0,1
279961,-200,4,2,2,70,0,1
280604,-100,4,2,2,70,0,1
280818,-40,4,2,2,70,0,1
281142,-40,4,2,99,5,0,1
281247,-500,4,2,2,70,0,1
281890,-66.6666666666667,4,2,2,70,0,1
282318,-133.333333333333,4,2,2,70,0,1
282961,-33.3333333333333,4,2,2,70,0,1
283390,-66.6666666666667,4,2,2,70,0,1
283818,-333.333333333333,4,2,2,70,0,1
284247,-45.4545454545455,4,2,2,70,0,1
285318,-66.6666666666667,4,2,2,70,0,1
285746,-133.333333333333,4,2,2,70,0,1
286389,-33.3333333333333,4,2,2,70,0,1
286818,-500,4,2,2,70,0,1
287461,-100,4,2,2,70,0,1
287675,-40,4,2,2,70,0,1
288104,-33.3333333333333,4,2,2,70,0,1
288747,-66.6666666666667,4,2,2,70,0,1
288847,-50,4,2,2,70,0,1
291104,-40,4,2,2,70,0,1
292175,-66.6666666666667,4,2,2,70,0,1
292603,-133.333333333333,4,2,2,70,0,1
293247,-44.4444444444445,4,2,2,70,0,1
293354,-44.4444444444445,4,2,2,40,0,1
293461,-40,4,2,2,30,0,1
293675,-200,4,2,2,70,0,1
294211,-200,4,2,2,50,0,1
294318,-100,4,2,2,70,0,1
294532,-40,4,2,2,70,0,1
294854,-40,4,2,99,5,0,1
294961,-66.6666666666667,4,2,2,70,0,1
295604,-66.6666666666667,4,2,2,70,0,1
296034,-133.333333333333,4,2,2,70,0,1
296675,-33.3333333333333,4,2,2,70,0,1
297318,-66.6666666666667,4,2,2,70,0,1
297961,-44.4444444444445,4,2,2,70,0,1
299032,-66.6666666666667,4,2,2,70,0,1
299460,-133.333333333333,4,2,2,70,0,1
300103,-33.3333333333333,4,2,2,70,0,1
300532,-66.6666666666667,4,2,2,70,0,1
301175,-100,4,2,2,70,0,1
301389,-40,4,2,2,70,0,1
301818,-33.3333333333333,4,2,2,70,0,1
302461,-66.6666666666667,4,2,2,70,0,1
302561,-50,4,2,2,70,0,1
303961,-66.6666666666667,4,2,2,70,0,1
304835,-75.0187546886722,4,2,2,40,0,0
306318,-133.333333333333,4,2,2,40,0,0
306961,-100,4,2,2,40,0,0
307390,-500,4,2,2,40,0,0
308247,-75.0187546886722,4,2,2,40,0,0
309747,-133.333333333333,4,2,2,40,0,0
310390,-100,4,2,2,40,0,0
311247,-100,4,2,2,40,0,0
311675,-75.0187546886722,4,2,2,40,0,0
313175,-133.333333333333,4,2,2,40,0,0
313818,-100,4,2,2,40,0,0
314247,-500,4,2,2,40,0,0
314675,-100,4,2,2,40,0,0
318506,-75.0187546886722,4,2,2,40,0,0
320006,-133.333333333333,4,2,2,40,0,0
320649,-100,4,2,2,40,0,0
321078,-500,4,2,2,40,0,0
321935,-133.333333333333,4,2,2,40,0,0
323435,-133.333333333333,4,2,2,40,0,0
324078,-100,4,2,2,40,0,0
324935,-100,4,2,2,40,0,0
325363,-75.0187546886722,4,2,2,40,0,0
326863,-133.333333333333,4,2,2,40,0,0
327506,-100,4,2,2,40,0,0
327935,-500,4,2,2,40,0,0
328363,-100,4,2,2,45,0,0
328818,-66.6666666666667,4,2,2,45,0,0
330104,-100,4,2,2,45,0,0
330532,-500,4,2,2,50,0,0
331390,-1000,4,2,2,50,0,0
331818,-1000,4,2,2,20,0,0
332247,-1000,4,2,0,5,0,0

[Colours]
Combo1 : 233,228,177
Combo2 : 236,200,185
Combo3 : 203,179,206
Combo4 : 130,148,234

[HitObjects]
256,192,27121,12,0,28407,0:0:0:0:
256,368,28835,5,6,0:0:0:0:
440,312,29478,5,0,0:0:0:0:
456,217,29692,2,0,L|461:186,1,30,8|0,0:0|0:0,0:0:0:0:
312,360,31193,5,2,0:0:0:0:
302,264,31407,2,0,L|299:233,2,30,8|0|2,0:0|0:0|0:0,0:0:0:0:
440,312,32907,5,0,0:0:0:0:
456,217,33121,2,0,L|462:182,1,33.7499989700318,8|0,0:0|0:0,0:0:0:0:
302,264,33978,6,0,L|299:233,2,30,2|2|2,0:0|0:0|0:0,0:0:0:0:
312,360,34835,1,8,0:0:0:0:
200,360,35264,1,0,0:0:0:0:
256,368,35692,5,2,0:0:0:0:
72,312,36335,5,0,0:0:0:0:
56,217,36549,2,0,L|51:186,1,30,8|0,0:0|0:0,0:0:0:0:
210,264,37407,6,0,L|213:233,1,30,2|0,0:0|0:0,0:0:0:0:
200,360,38264,1,8,0:0:0:0:
200,360,38692,1,0,0:0:0:0:
256,368,39121,5,2,0:0:0:0:
72,312,39764,5,2,0:0:0:0:
56,217,39978,2,0,L|50:182,2,33.7499989700318,8|2|2,0:0|0:0|0:0,0:0:0:0:
210,264,40835,6,0,L|213:233,1,30,2|0,0:0|0:0,0:0:0:0:
200,360,41692,5,8,0:0:0:0:
312,360,42014,1,2,0:0:0:0:
200,360,42228,5,2,0:0:0:0:
312,360,42335,1,2,0:0:0:0:
256,256,42549,5,2,0:0:0:0:
448,248,43192,5,0,0:0:0:0:
466,138,43406,2,0,L|472:96,1,30,8|0,0:0|0:0,0:0:0:0:
312,288,44907,5,2,0:0:0:0:
294,178,45121,2,0,L|287:136,2,30,8|0|2,0:0|0:0|0:0,0:0:0:0:
448,248,46621,5,0,0:0:0:0:
466,138,46835,2,0,L|472:96,1,30,8|0,0:0|0:0,0:0:0:0:
312,288,47478,5,2,0:0:0:0:
312,288,47692,1,2,0:0:0:0:
294,178,48014,2,0,L|287:136,1,30,2|0,0:0|0:0,0:0:0:0:
312,288,48549,5,8,0:0:0:0:
200,288,48978,1,0,0:0:0:0:
256,256,49407,5,2,0:0:0:0:
64,248,50050,5,0,0:0:0:0:
46,138,50264,2,0,L|39:96,1,30,8|2,0:0|0:0,0:0:0:0:
64,248,51121,1,2,0:0:0:0:
200,288,51764,5,2,0:0:0:0:
218,178,51978,2,0,L|224:136,2,30,8|2|2,0:0|0:0|0:0,0:0:0:0:
64,248,53478,5,0,0:0:0:0:
46,138,53692,2,0,L|39:96,1,30,8|2,0:0|0:0,0:0:0:0:
64,248,54335,5,2,0:0:0:0:
64,248,54549,1,2,0:0:0:0:
200,288,55193,5,0,0:0:0:0:
218,178,55407,2,0,L|224:136,1,30,8|0,0:0|0:0,0:0:0:0:
200,288,56264,6,0,P|288:312|312:304,1,103.125003147125,4|0,0:0|0:0,0:0:0:0:
296,309,56907,6,0,P|245:311|200:288,1,103.125003147125,2|0,0:0|0:0,0:0:0:0:
80,192,57978,6,0,P|83:264|95:281,1,84.3749974250794,2|0,0:0|0:0,0:0:0:0:
88,272,58621,6,0,P|73:233|80:192,1,84.3749974250794,2|0,0:0|0:0,0:0:0:0:
121,62,59692,6,0,P|89:67|64:88,1,65.624997997284,2|0,0:0|0:0,0:0:0:0:
63,88,60335,6,0,P|89:67|121:62,1,65.624997997284,2|0,0:0|0:0,0:0:0:0:
248,40,61407,6,0,P|237:19|218:6,1,46.875,2|0,0:0|0:0,0:0:0:0:
218,6,62049,6,0,P|237:19|248:40,1,46.875,2|0,0:0|0:0,0:0:0:0:
248,40,62692,1,2,0:0:0:0:
336,104,63121,6,0,P|330:126|313:142,1,37.5,2|0,0:0|0:0,0:0:0:0:
312,240,63549,2,0,P|290:249|267:247,1,37.5,2|0,0:0|0:0,0:0:0:0:
192,312,63978,2,0,P|170:302|157:283,1,37.5,2|0,0:0|0:0,0:0:0:0:
62,264,64407,2,0,P|55:241|62:219,1,37.5,2|0,0:0|0:0,0:0:0:0:
312,240,64835,6,0,P|333:230|356:232,1,37.5,2|0,0:0|0:0,0:0:0:0:
224,144,65264,2,0,P|238:126|260:118,1,37.5,2|0,0:0|0:0,0:0:0:0:
112,96,65692,2,0,P|117:73|134:57,1,37.5,2|0,0:0|0:0,0:0:0:0:
0,96,66121,2,0,P|-4:73|3:51,1,37.5,2|0,0:0|0:0,0:0:0:0:
215,214,66549,5,2,0:0:0:0:
9,206,66764,1,2,0:0:0:0:
232,223,66978,5,2,0:0:0:0:
49,306,67192,1,2,0:0:0:0:
250,227,67406,5,2,0:0:0:0:
143,362,67621,1,2,0:0:0:0:
269,226,67834,5,2,0:0:0:0:
248,369,68049,1,2,0:0:0:0:
270,227,68264,5,2,0:0:0:0:
284,239,68371,1,2,0:0:0:0:
296,253,68478,1,2,0:0:0:0:
306,268,68585,1,2,0:0:0:0:
314,286,68692,1,2,0:0:0:0:
318,304,68799,1,2,0:0:0:0:
322,321,68907,1,2,0:0:0:0:
322,340,69014,1,2,0:0:0:0:
182,358,69121,6,0,P|185:307|203:352,1,131.25,2|0,0:3|0:0,0:0:0:0:
182,358,69978,6,2,P|58:206|85:-18,1,375,6|0,0:3|0:0,0:0:0:0:
60,34,70621,2,0,L|173:25,1,112.500004291535
349,102,70835,1,8,0:0:0:0:
349,102,71049,5,2,0:3:0:0:
172,25,71157,2,2,L|59:34,1,112.500004291535,2|0,0:3|0:3,0:0:0:0:
461,111,71478,5,2,0:3:0:0:
349,102,71692,2,0,L|461:111,1,112.500004291535
461,111,72121,6,0,L|349:102,1,112.500004291535,8|0,0:1|0:0,0:0:0:0:
175,256,72335,5,2,0:3:0:0:
175,256,72442,1,2,0:3:0:0:
200,135,72549,6,2,P|217:134|236:136,1,37.5,8|0,0:0|0:0,0:0:0:0:
57,294,72871,2,2,P|47:277|40:260,1,37.5,2|0,0:3|0:0,0:0:0:0:
267,338,73192,2,2,P|257:353|246:368,1,37.5,2|0,0:3|0:0,0:0:0:0:
479,0,73407,6,2,P|367:99|418:330,1,375,2|0,0:3|0:0,0:0:0:0:
394,306,74049,2,0,P|450:258|466:225,1,112.500004291535
260,87,74264,1,8,0:0:0:0:
260,87,74478,5,2,0:3:0:0:
394,306,74585,2,2,P|450:258|466:225,1,112.500004291535,2|0,0:3|0:3,0:0:0:0:
239,344,74907,5,2,0:3:0:0:
207,241,75121,2,2,P|218:313|239:344,1,112.500004291535,0|0,0:0|0:0,0:0:0:0:
240,344,75549,6,0,P|211:296|207:241,1,112.500004291535,8|0,0:1|0:0,0:0:0:0:
430,83,75764,5,2,0:3:0:0:
430,83,75871,1,2,0:3:0:0:
430,83,75978,6,2,L|438:-11,3,56.2500021457673,8|0|0|0,0:0|0:0|0:3|0:0,0:0:0:0:
111,192,76407,6,0,L|108:169,1,22.4999993133545,2|0,0:0|0:0,0:0:0:0:
377,358,76835,6,2,P|201:298|18:329,1,375,2|0,0:3|0:0,0:0:0:0:
18,328,77478,2,0,L|7:208,1,112.500004291535
97,45,77692,1,8,0:0:0:0:
97,45,77907,5,2,0:3:0:0:
7,215,78014,2,2,L|17:326,1,112.500004291535,2|0,0:3|0:0,0:0:0:0:
339,205,78335,5,2,0:3:0:0:
348,92,78549,2,0,L|339:205,1,112.500004291535
339,204,78978,6,2,L|348:91,1,112.500004291535,8|0,0:1|0:0,0:0:0:0:
17,326,79192,2,2,L|7:215,1,112.500004291535,2|0,0:3|0:0,0:0:0:0:
132,93,79407,6,2,L|130:115,2,22.5,2|2|2,0:3|0:3|0:3,0:0:0:0:
473,25,80264,6,2,P|338:113|122:88,1,375,2|0,0:3|0:0,0:0:0:0:
132,93,80907,2,0,P|154:147|154:188,1,93.75
19,355,81121,5,8,0:0:0:0:
28,247,81264,5,0,0:0:0:0:
115,308,81407,5,0,0:0:0:0:
0,357,81549,5,2,0:0:0:0:
35,230,81692,5,0,0:0:0:0:
128,322,81835,5,0,0:0:0:0:
0,357,81978,6,2,P|112:301|320:357,1,300,2|0,0:3|0:0,0:0:0:0:
279,327,82621,1,2,0:3:0:0:
131,39,82835,6,2,P|275:69|410:9,1,300,8|0,0:0|0:0,0:0:0:0:
410,9,83692,6,2,P|365:188|448:356,1,375,2|0,0:3|0:0,0:0:0:0:
444,352,84335,2,0,L|300:339,1,112.500004291535
173,255,84549,1,8,0:0:0:0:
331,342,84764,5,2,0:3:0:0:
173,255,84871,2,2,L|60:264,1,112.500004291535,2|0,0:3|0:0,0:0:0:0:
288,239,85192,5,2,0:3:0:0:
265,134,85407,2,0,P|290:183|289:239,1,112.500004291535
288,239,85835,6,0,P|290:183|265:134,1,112.500004291535,8|8,0:1|0:1,0:0:0:0:
415,245,86121,5,8,0:1:0:0:
445,65,86264,6,2,P|416:91|400:130,1,75,8|0,0:0|0:0,0:0:0:0:
401,123,86799,1,2,0:3:0:0:
401,123,86907,1,2,0:3:0:0:
34,128,87121,6,2,P|137:280|115:421,1,281.25,2|0,0:3|0:0,0:0:0:0:
133,370,87549,2,0,L|189:365,1,56.2500021457673
42,262,87764,2,0,L|99:258,1,56.2500021457673
386,347,87978,1,8,0:0:0:0:
189,365,88192,5,2,0:3:0:0:
386,347,88299,2,2,P|314:329|272:275,1,112.500004291535,2|0,0:3|0:0,0:0:0:0:
375,232,88621,5,2,0:3:0:0:
383,122,88835,2,0,P|368:176|375:232,1,112.500004291535,2|0,0:0|0:0,0:0:0:0:
375,232,89264,6,0,P|376:140|430:65,1,112.500004291535,8|0,0:1|0:0,0:0:0:0:
185,35,89478,2,2,P|230:67|261:113,1,112.500004291535,2|0,0:3|0:0,0:0:0:0:
287,303,89692,6,2,P|285:335|268:377,2,56.2500021457673,8|0|0,0:0|0:0|0:0,0:0:0:0:
0,182,89907,2,2,P|127:172|213:215,1,225.000008583069,2|0,0:3|0:0,0:0:0:0:
444,9,90549,6,2,P|351:124|383:389,1,375,2|0,0:3|0:0,0:0:0:0:
355,342,91192,2,0,P|416:289|432:250,1,112.500004291535
231,130,91407,1,8,0:0:0:0:
355,342,91621,5,2,0:3:0:0:
231,130,91728,2,2,P|245:50|234:9,1,112.500004291535,2|0,0:3|0:0,0:0:0:0:
121,69,92049,5,2,0:3:0:0:
355,342,92264,2,2,P|416:289|432:250,1,112.500004291535,2|0,0:0|0:0,0:0:0:0:
428,261,92692,6,0,P|400:309|355:342,1,112.500004291535,8|0,0:1|0:0,0:0:0:0:
241,304,92907,2,0,P|185:303|134:280,1,112.500004291535,2|0,0:3|0:0,0:0:0:0:
261,14,93121,6,2,P|317:109|317:221,1,225.000008583069,2|0,0:3|0:0,0:0:0:0:
0,88,93978,6,2,P|154:186|198:364,1,375,2|0,0:3|0:0,0:0:0:0:
198,363,94621,2,0,P|139:346|104:312,1,93.75
392,184,94835,5,8,0:0:0:0:
330,273,94978,5,0,0:0:0:0:
285,176,95121,5,0,0:0:0:0:
409,191,95264,21,2,0:0:0:0:
315,284,95407,5,0,0:0:0:0:
281,158,95549,5,0,0:0:0:0:
409,191,95692,6,2,P|285:184|118:286,1,300,2|0,0:3|0:0,0:0:0:0:
134,266,96335,1,2,0:3:0:0:
4,29,96549,6,2,P|142:83|288:56,1,300,8|0,0:0|0:0,0:0:0:0:
144,376,97407,6,2,P|320:318|499:366,1,330.000010070801,6|0,0:3|0:0,0:0:0:0:
200,224,98264,1,8,0:0:0:0:
200,224,98478,5,2,0:3:0:0:
287,55,98585,2,2,L|297:168,1,112.500004291535,2|0,0:3|0:0,0:0:0:0:
72,272,98907,6,2,L|81:159,1,112.500004291535,2|0,0:3|0:0,0:0:0:0:
81,159,99549,6,0,L|72:272,1,112.5,8|0,0:1|0:0,0:0:0:0:
296,167,99764,5,2,0:3:0:0:
296,167,99870,1,2,0:3:0:0:
354,264,99978,6,2,P|337:272|320:277,1,37.5,8|0,0:0|0:0,0:0:0:0:
351,69,100299,2,2,P|366:78|379:91,1,37.5,2|0,0:3|0:0,0:0:0:0:
184,168,100621,2,2,P|184:149|189:131,1,37.5,2|0,0:3|0:0,0:0:0:0:
69,314,100835,6,2,P|207:292|342:327,1,281.25,2|0,0:3|0:0,0:0:0:0:
342,327,101264,6,2,L|340:349,1,22.5,2|0,0:0|0:0,0:0:0:0:
380,92,101692,1,8,0:0:0:0:
380,92,101907,5,2,0:3:0:0:
308,186,102014,2,2,P|271:145|259:91,1,112.500004291535,2|0,0:3|0:0,0:0:0:0:
497,106,102335,6,2,P|479:158|439:196,1,112.500004291535,2|0,0:3|0:0,0:0:0:0:
439,196,102978,6,0,P|479:158|497:106,1,112.500004291535,8|0,0:1|0:0,0:0:0:0:
259,90,103192,2,0,P|271:145|308:186,1,112.500004291535,2|0,0:3|0:0,0:0:0:0:
360,344,103407,6,2,L|365:281,3,56.2500021457673,8|0|0|0,0:0|0:0|0:0|0:0,0:0:0:0:
54,225,103835,2,0,L|56:248,1,22.4999993133545,2|0,0:0|0:0,0:0:0:0:
271,95,104264,6,2,P|237:274|78:361,1,330.000010070801,2|0,0:3|0:0,0:0:0:0:
166,50,105121,1,8,0:0:0:0:
166,50,105335,5,2,0:3:0:0:
379,78,105442,2,2,P|311:99|224:73,1,112.500004291535,2|0,0:3|0:0,0:0:0:0:
40,156,105764,6,2,P|95:153|148:172,1,112.500004291535,2|0,0:3|0:0,0:0:0:0:
148,172,106407,6,2,P|95:153|40:156,1,112.500004291535,8|0,0:1|0:0,0:0:0:0:
269,93,106621,2,2,P|325:97|378:78,1,112.500004291535,2|0,0:3|0:0,0:0:0:0:
481,200,106835,6,2,L|483:176,2,22.5,2|2|2,0:3|0:3|0:3,0:0:0:0:
144,368,107692,6,2,P|176:212|24:18,1,375,6|0,0:3|0:0,0:0:0:0:
64,38,108335,2,0,P|112:47|207:12,1,112.500004291535
376,169,108549,5,8,0:0:0:0:
367,61,108692,5,0,0:0:0:0:
280,122,108835,5,0,0:0:0:0:
395,171,108978,5,2,0:0:0:0:
360,44,109121,5,0,0:0:0:0:
267,136,109264,5,0,0:0:0:0:
482,221,109407,6,2,P|363:205|216:310,1,300,2|0,0:3|0:0,0:0:0:0:
220,302,110049,1,2,0:3:0:0:
0,51,110264,6,2,P|95:124|275:106,1,300,8|0,0:0|0:0,0:0:0:0:
9,338,111121,6,2,P|194:354|393:226,1,375,2|0,0:3|0:0,0:0:0:0:
85,232,111978,1,8,0:0:0:0:
85,232,112192,5,2,0:3:0:0:
288,136,112299,2,2,L|128:149,1,112.500004291535,2|0,0:3|0:0,0:0:0:0:
387,233,112621,6,2,L|499:242,1,112.500004291535,2|0,0:3|0:0,0:0:0:0:
499,242,113264,6,0,L|387:233,1,112.500004291535,8|8,0:1|0:1,0:0:0:0:
272,256,113549,5,8,0:1:0:0:
375,49,113692,6,2,P|398:78|410:113,1,75,8|0,0:0|0:0,0:0:0:0:
411,114,114228,1,2,0:3:0:0:
411,114,114335,1,2,0:3:0:0:
203,361,114549,6,2,P|260:227|202:47,1,281.25,2|0,0:3|0:0,0:0:0:0:
236,97,114978,2,0,L|172:102,1,56.2500021457673
144,207,115192,2,0,L|80:212,1,56.2500021457673
404,82,115407,1,8,0:0:0:0:
236,97,115621,5,2,0:3:0:0:
404,82,115728,2,2,P|350:55|322:6,1,112.500004291535,2|0,0:3|0:0,0:0:0:0:
456,335,116049,6,0,P|486:288|496:233,1,112.500004291535,2|0,0:3|0:0,0:0:0:0:
496,233,116692,6,0,P|485:288|455:335,1,112.500004291535,8|0,0:1|0:0,0:0:0:0:
404,82,116907,2,2,P|440:39|489:13,1,112.500004291535,2|0,0:3|0:0,0:0:0:0:
456,335,117121,6,2,L|399:330,2,56.2500021457673,8|0|0,0:0|0:0|0:0,0:0:0:0:
193,136,117335,2,2,P|286:197|397:196,1,225.000008583069,2|0,0:3|0:0,0:0:0:0:
99,311,117978,6,2,P|169:187|116:-22,1,337.500012874604,2|0,0:3|0:0,0:0:0:0:
254,312,118835,1,8,0:0:0:0:
254,312,119049,5,2,0:3:0:0:
393,134,119157,2,2,P|325:154|271:223,1,112.500004291535,2|0,0:3|0:0,0:0:0:0:
393,261,119478,2,2,P|377:329|409:410,1,112.500004291535,2|0,0:3|0:0,0:0:0:0:
385,369,120121,6,0,P|377:314|393:260,1,112.500004291535,8|0,0:1|0:0,0:0:0:0:
294,181,120335,2,0,P|338:147|393:134,1,112.500004291535,2|0,0:3|0:0,0:0:0:0:
60,15,120549,6,2,P|151:54|384:-3,1,337.500012874604,2|0,0:3|0:0,0:0:0:0:
228,372,121407,6,2,P|209:269|-30:124,1,375,2|0,0:3|0:0,0:0:0:0:
0,122,122049,2,0,P|3:178|38:246,1,112.500004291535
209,370,122264,5,8,0:0:0:0:
200,262,122407,5,0,0:0:0:0:
113,323,122550,5,0,0:0:0:0:
228,372,122692,5,2,0:0:0:0:
193,245,122835,5,0,0:0:0:0:
100,337,122978,5,0,0:0:0:0:
321,280,123121,6,2,P|331:186|185:0,1,300,2|0,0:3|0:0,0:0:0:0:
224,19,123764,1,2,0:3:0:0:
288,336,123978,6,2,P|367:243|489:219,1,225.000008583069,8|0,0:0|0:0,0:0:0:0:
256,368,124835,5,6,0:0:0:0:
430,349,125478,5,0,0:0:0:0:
439,236,125692,2,0,L|441:205,1,30,8|0,0:0|0:0,0:0:0:0:
82,349,127193,5,0,0:0:0:0:
73,236,127407,2,0,L|70:205,2,30,8|0|2,0:0|0:0|0:0,0:0:0:0:
430,349,128907,5,0,0:0:0:0:
439,236,129121,2,0,L|441:205,1,30,8|0,0:0|0:0,0:0:0:0:
82,349,130622,5,2,0:0:0:0:
73,236,130835,2,0,L|70:205,2,30,8|0|0,0:0|0:0|0:0,0:0:0:0:
256,368,131692,5,2,0:0:0:0:
400,320,132335,5,0,0:0:0:0:
409,207,132549,2,0,L|411:176,1,30,8|0,0:0|0:0,0:0:0:0:
112,320,134049,5,0,0:0:0:0:
103,207,134264,2,0,L|100:176,2,30,8|0|2,0:0|0:0|0:0,0:0:0:0:
400,320,135764,5,0,0:0:0:0:
409,207,135978,2,0,L|411:176,1,30,8|0,0:0|0:0,0:0:0:0:
112,320,137478,5,0,0:0:0:0:
103,207,137692,2,0,L|100:176,2,30,8|0|0,0:0|0:0|0:0,0:0:0:0:
256,192,138549,5,2,0:0:0:0:
376,296,139193,5,0,0:0:0:0:
391,93,139407,2,0,L|393:60,2,30,8|0|0,0:0|0:0|0:0,0:0:0:0:
136,296,140907,5,0,0:0:0:0:
121,93,141121,2,0,L|118:60,3,30,8|0|0|0,0:0|0:0|0:0|0:0,0:0:0:0:
256,192,141978,5,2,0:0:0:0:
376,296,142621,5,0,0:0:0:0:
391,93,142835,2,0,L|393:60,2,30,8|0|0,0:0|0:0|0:0,0:0:0:0:
136,296,144335,5,2,0:0:0:0:
121,93,144549,2,0,L|118:60,2,30,8|0|0,0:0|0:0|0:0,0:0:0:0:
256,192,145407,5,2,0:0:0:0:
400,272,146049,5,2,0:0:0:0:
415,69,146264,2,0,L|417:36,2,30,8|0|0,0:0|0:0|0:0,0:0:0:0:
112,272,147764,5,2,0:0:0:0:
97,69,147978,2,0,L|94:36,2,30,8|0|0,0:0|0:0|0:0,0:0:0:0:
256,192,148835,5,2,0:0:0:0:
400,272,149478,5,2,0:0:0:0:
415,69,149692,2,0,L|417:36,5,30,8|0|0|0|0|0,0:0|0:0|0:0|0:0|0:0|0:0,0:0:0:0:
256,192,150549,5,2,0:0:0:0:
256,376,151192,5,0,0:0:0:0:
256,64,151407,2,0,L|256:36,1,26.25,8|0,0:0|0:0,0:0:0:0:
165,133,152264,6,0,P|261:179|343:136,1,187.5,6|0,0:3|0:0,0:0:0:0:
215,288,152907,1,0,0:0:0:0:
289,367,153121,2,0,P|262:317|215:288,1,112.5,8|0,0:0|0:0,0:0:0:0:
492,183,153549,6,0,P|403:243|399:335,1,187.5,2|0,0:3|0:0,0:0:0:0:
393,316,154407,6,0,P|412:227|492:183,1,187.5,2|0,0:3|0:0,0:0:0:0:
492,183,154835,6,0,P|403:243|399:335,1,187.5,8|0,0:0|0:0,0:0:0:0:
500,292,155478,1,2,0:3:0:0:
254,31,155692,6,0,P|309:75|326:175,1,150,2|0,0:3|0:0,0:0:0:0:
168,256,156335,1,2,0:3:0:0:
91,137,156549,6,0,P|110:208|167:255,1,150,8|0,0:0|0:0,0:0:0:0:
330,149,157192,6,0,P|310:77|253:30,1,150,2|0,0:3|0:0,0:0:0:0:
91,136,157835,6,0,P|110:208|167:255,1,150,2|0,0:3|0:0,0:0:0:0:
210,141,158264,1,8,0:0:0:0:
91,136,158478,6,0,P|110:207|167:254,1,150,2|0,0:3|0:0,0:0:0:0:
210,141,158907,1,0,0:0:0:0:
435,245,159121,6,0,P|366:265|285:233,1,150,2|0,0:3|0:0,0:0:0:0:
210,141,159764,1,2,0:3:0:0:
39,168,159978,6,0,P|119:121|209:140,1,187.5,8|0,0:0|0:0,0:0:0:0:
209,140,160407,6,0,P|138:120|40:168,1,187.162497001333,2|0,0:3|0:0,0:0:0:0:
293,239,161264,6,0,P|372:285|461:266,1,187.162497001333,2|0,0:3|0:0,0:0:0:0:
461,266,161692,6,0,P|372:285|293:239,1,187.5,8|0,0:0|0:0,0:0:0:0:
390,161,162335,1,2,0:3:0:0:
181,284,162549,6,0,P|176:210|218:149,1,150,2|0,0:3|0:0,0:0:0:0:
294,240,163192,1,2,0:3:0:0:
147,63,163407,6,0,P|215:36|286:56,1,150,8|0,0:0|0:0,0:0:0:0:
286,57,164049,6,0,P|215:36|146:63,1,150,2|0,0:3|0:0,0:0:0:0:
180,283,164692,6,0,P|175:209|217:148,1,150,2|0,0:3|0:0,0:0:0:0:
294,240,165121,1,8,0:0:0:0:
180,283,165335,6,0,P|175:209|217:148,1,150,2|0,0:3|0:0,0:0:0:0:
294,240,165764,1,0,0:0:0:0:
42,149,165978,6,0,P|19:77|27:-18,1,150,6|0,0:3|0:0,0:0:0:0:
51,261,166621,1,2,0:3:0:0:
217,148,166835,2,0,P|221:207|194:290,1,112.5,8|0,0:0|0:0,0:0:0:0:
42,149,167264,6,0,P|19:77|27:-18,1,150,2|0,0:3|0:0,0:0:0:0:
21,3,168121,6,0,P|19:77|42:149,1,150,2|0,0:3|0:0,0:0:0:0:
217,148,168549,6,0,P|221:207|194:290,1,112.5,8|0,0:0|0:0,0:0:0:0:
138,343,169192,1,2,0:3:0:0:
481,314,169407,6,0,P|406:284|310:281,1,168.749994850159,2|0,0:0|0:0,0:0:0:0:
241,359,170049,1,2,0:3:0:0:
217,148,170264,2,0,P|266:168|340:169,1,112.499996566773,8|0,0:0|0:0,0:0:0:0:
318,279,170907,6,0,P|402:283|481:314,1,168.749994850159,2|0,0:3|0:0,0:0:0:0:
480,313,171549,6,0,P|402:283|318:279,1,168.750006437302,2|0,0:3|0:0,0:0:0:0:
241,359,171978,5,8,0:0:0:0:
480,313,172192,2,0,P|402:283|318:279,1,168.750006437302,2|0,0:3|0:0,0:0:0:0:
241,359,172621,1,0,0:0:0:0:
324,171,172835,6,0,L|310:21,1,150,2|0,0:3|0:0,0:0:0:0:
203,104,173478,1,2,0:3:0:0:
493,163,173692,6,0,L|480:313,1,150,8|0,0:0|0:0,0:0:0:0:
480,313,174121,6,0,L|493:163,1,150,2|0,0:3|0:0,0:0:0:0:
310,21,174978,6,0,L|324:171,1,150,2|0,0:3|0:0,0:0:0:0:
480,313,175407,6,0,L|493:163,1,150,8|0,0:0|0:0,0:0:0:0:
504,60,176049,1,2,0:3:0:0:
224,288,176264,6,0,L|374:275,1,150,2|0,0:3|0:0,0:0:0:0:
490,263,176907,1,2,0:3:0:0:
374,275,177121,5,8,0:0:0:0:
224,287,178835,6,0,P|177:285|222:264,1,131.25,2|0,0:3|0:0,0:0:0:0:
224,287,179692,6,2,P|104:232|57:-15,1,375,6|0,0:3|0:0,0:0:0:0:
46,11,180335,2,0,P|108:86|182:110,1,112.500004291535
265,119,180549,1,8,0:0:0:0:
265,119,180764,5,2,0:3:0:0:
119,92,180871,2,2,P|75:58|46:10,1,112.500004291535,2|0,0:3|0:0,0:0:0:0:
265,119,181192,6,0,P|316:97|372:96,1,112.500004291535,2|0,0:3|0:0,0:0:0:0:
167,231,181407,6,0,P|160:286|134:336,1,112.500004291535
133,336,181835,6,0,P|159:286|167:231,1,112.500004291535
265,119,182049,5,2,0:3:0:0:
265,119,182157,1,2,0:3:0:0:
286,236,182264,6,2,P|316:228|333:218,1,37.5,8|0,0:0|0:0,0:0:0:0:
153,78,182585,2,2,P|144:107|145:127,1,37.5,2|0,0:3|0:0,0:0:0:0:
356,41,182907,2,2,P|334:19|316:9,1,37.5,2|0,0:3|0:0,0:0:0:0:
47,124,183121,6,2,P|232:124|384:228,1,375,2|0,0:3|0:0,0:0:0:0:
384,228,183764,2,0,P|281:278|223:266,1,112.500004291535
99,233,183978,1,8,0:0:0:0:
99,233,184192,5,2,0:3:0:0:
286,277,184299,2,2,P|340:263|384:228,1,112.500004291535,2|0,0:3|0:0,0:0:0:0:
99,233,184621,6,0,P|84:286|92:342,1,112.500004291535,2|0,0:3|0:0,0:0:0:0:
230,93,184835,6,2,P|191:53|139:32,1,112.500004291535,2|0,0:0|0:0,0:0:0:0:
139,32,185264,6,0,P|191:53|231:93,1,112.500004291535,8|0,0:1|0:0,0:0:0:0:
286,277,185478,1,2,0:3:0:0:
286,277,185585,1,2,0:3:0:0:
286,277,185692,2,2,L|279:348,3,56.2500021457673,8|0|0|0,0:0|0:0|0:0|0:0,0:0:0:0:
0,201,186121,6,0,L|2:224,1,22.4999993133545,2|0,0:0|0:0,0:0:0:0:
81,27,186549,6,2,P|38:205|126:366,1,375,2|0,0:3|0:0,0:0:0:0:
126,366,187192,2,0,P|152:301|201:268,1,112.500004291535
338,256,187407,1,8,0:0:0:0:
338,256,187621,5,2,0:3:0:0:
183,275,187728,2,2,P|143:313|126:366,1,112.500004291535,2|0,0:3|0:0,0:0:0:0:
194,36,188049,5,2,0:3:0:0:
244,131,188264,2,2,P|231:77|194:36,1,112.500004291535,0|0,0:0|0:0,0:0:0:0:
194,36,188692,6,0,P|231:77|244:131,1,112.500004291535,8|0,0:1|0:0,0:0:0:0:
445,260,188907,2,2,P|391:272|338:256,1,112.500004291535,2|0,0:3|0:0,0:0:0:0:
125,366,189121,6,2,P|127:352|131:338,2,22.5,2|2|2,0:3|0:3|0:3,0:0:0:0:
0,111,189978,6,2,P|54:259|287:330,1,375,2|0,0:3|0:0,0:0:0:0:
244,337,190621,2,0,P|208:266|210:228,1,93.75
285,70,190835,5,8,0:0:0:0:
195,131,190978,5,0,0:3:0:0:
292,176,191121,5,0,0:3:0:0:
277,52,191263,5,2,0:0:0:0:
184,146,191406,5,0,0:3:0:0:
310,180,191549,5,0,0:3:0:0:
277,52,191692,6,2,P|289:191|186:348,1,300,2|0,0:3|0:0,0:0:0:0:
184,146,192335,1,2,0:3:0:0:
64,368,192549,6,2,P|74:221|0:94,1,300,10|0,0:0|0:0,0:0:0:0:
0,93,193407,6,2,P|165:100|369:-9,1,375,2|0,0:3|0:0,0:0:0:0:
349,9,194049,2,0,P|324:84|347:188,1,112.500004291535
433,253,194264,1,8,0:0:0:0:
324,116,194478,5,2,0:0:0:0:
433,253,194585,2,2,P|429:308|408:360,1,112.500004291535,2|0,0:3|0:0,0:0:0:0:
178,284,194907,5,2,0:3:0:0:
290,274,195121,2,0,L|177:283,1,112.5,2|0,0:0|0:0,0:0:0:0:
177,283,195549,6,0,L|290:274,1,112.5,8|8,0:1|0:1,0:0:0:0:
433,253,195835,5,8,0:1:0:0:
264,126,195978,6,2,L|343:132,1,75,8|0,0:0|0:0,0:0:0:0:
338,132,196514,1,2,0:3:0:0:
338,132,196621,1,2,0:3:0:0:
148,32,196835,6,2,P|216:151|176:282,1,281.25,2|0,0:3|0:0,0:0:0:0:
177,282,197264,2,0,L|89:274,1,56.2500021457673
112,170,197478,2,0,L|24:162,1,56.2500021457673
364,298,197692,1,8,0:0:0:0:
177,282,197907,5,2,0:3:0:0:
364,298,198014,2,2,P|296:316|259:388,1,112.500004291535,2|0,0:3|0:0,0:0:0:0:
264,201,198335,5,2,0:3:0:0:
219,98,198549,2,0,P|250:145|262:199,1,112.500004291535,2|0,0:2|0:2,0:2:0:0:
263,200,198978,6,0,P|242:129|191:75,1,112.500004291535,8|0,0:1|0:0,0:0:0:0:
430,25,199192,2,2,P|395:68|378:122,1,112.500004291535,2|0,0:3|0:0,0:0:0:0:
364,298,199407,6,2,L|369:361,2,56.2500021457673,8|0|0,0:0|0:0|0:0,0:0:0:0:
37,312,199621,2,2,P|143:292|286:363,1,225.000008583069,2|0,0:3|0:0,0:0:0:0:
121,52,200264,6,2,P|213:185|446:215,1,375,2|0,0:3|0:0,0:0:0:0:
412,225,200907,2,0,P|376:144|320:104,1,93.75
248,328,201121,1,8,0:0:0:0:
412,225,201335,5,2,0:3:0:0:
247,327,201442,2,2,P|196:306|140:306,1,93.75,2|0,0:3|0:0,0:0:0:0:
56,328,201764,5,2,0:3:0:0:
412,225,201978,2,2,P|376:144|320:104,1,93.75,2|0,0:0|0:0,0:0:0:0:
373,141,202407,6,0,P|399:180|412:225,1,93.75,8|0,0:1|0:0,0:0:0:0:
304,288,202621,2,0,P|299:334|281:377,1,93.75,2|0,0:3|0:0,0:0:0:0:
40,112,202835,6,2,P|168:112|264:184,1,225.000008583069,2|0,0:3|0:0,0:0:0:0:
0,344,203692,6,2,P|128:288|352:352,1,375,2|0,0:3|0:0,0:0:0:0:
346,347,204335,2,0,P|344:256|311:207,1,93.75
160,136,204549,5,8,0:0:0:0:
148,244,204692,5,0,0:3:0:0:
244,199,204835,5,0,0:3:0:0:
140,130,204977,5,2,0:0:0:0:
152,261,205120,5,0,0:3:0:0:
259,186,205263,5,0,0:3:0:0:
0,256,205407,6,2,P|120:264|264:400,1,300,2|0,0:3|0:0,0:0:0:0:
160,136,206049,1,2,0:3:0:0:
296,224,206264,6,2,P|296:136|464:8,1,300,8|0,0:0|0:0,0:0:0:0:
447,8,207121,6,0,L|457:124,1,112.500004291535,4|0,0:0|0:0,0:0:0:0:
379,212,207764,2,0,L|389:328,1,112.500004291535,2|0,0:0|0:0,0:0:0:0:
271,65,208407,2,0,L|279:167,1,89.9999972534181,2|0,0:0|0:0,0:0:0:0:
201,242,209050,2,0,L|209:344,1,89.9999972534181,2|0,0:0|0:0,0:0:0:0:
101,177,209692,6,0,L|96:110,1,67.5,2|0,0:0|0:0,0:0:0:0:
265,218,212907,6,0,P|286:153|309:122,1,105,2|0,0:2|0:0,0:0:0:0:
400,312,216764,6,0,P|469:321|512:371,1,138.75,2|0,0:2|0:0,0:0:0:0:
512,371,222549,5,4,0:0:0:0:
512,371,223192,6,0,L|508:325,1,44.999998626709,2|0,0:0|0:0,0:0:0:0:
492,169,223835,1,2,0:0:0:0:
492,169,224264,1,2,0:0:0:0:
400,362,224906,6,0,L|396:316,1,44.999998626709,2|0,0:0|0:0,0:0:0:0:
384,204,225549,1,2,0:0:0:0:
384,204,225978,1,2,0:0:0:0:
288,353,226620,6,0,L|283:307,1,44.999998626709,2|0,0:0|0:0,0:0:0:0:
276,239,227263,1,2,0:0:0:0:
276,239,227692,1,2,0:0:0:0:
176,344,228335,6,0,L|171:298,1,44.999998626709,2|0,0:0|0:0,0:0:0:0:
168,274,228978,1,2,0:0:0:0:
31,202,229407,5,2,0:0:0:0:
31,202,230049,6,0,L|34:156,1,44.999998626709,2|0,0:0|0:0,0:0:0:0:
51,0,230692,1,2,0:0:0:0:
51,0,231122,1,2,0:0:0:0:
143,193,231764,6,0,L|146:147,1,44.999998626709,2|0,0:0|0:0,0:0:0:0:
159,35,232407,1,2,0:0:0:0:
159,35,232835,1,2,0:0:0:0:
255,184,233478,6,0,L|259:138,1,44.999998626709,2|0,0:0|0:0,0:0:0:0:
267,70,234121,1,2,0:0:0:0:
267,70,234549,5,2,0:0:0:0:
256,192,234657,12,0,235835,0:0:0:0:
196,22,236264,6,0,P|146:37|100:86,3,112.500004291535,6|2|2|2,0:0|0:0|0:0|0:0,0:0:0:0:
349,147,237978,2,0,P|319:104|258:75,3,75,2|2|2|2,0:0|0:0|0:0|0:0,0:0:0:0:
264,283,239692,2,0,P|288:254|302:220,3,44.999998626709,2|2|2|2,0:0|0:0|0:0|0:0,0:0:0:0:
123,246,241407,2,0,P|143:256|164:262,2,30,2|2|2,0:0|0:0|0:0,0:0:0:0:
123,246,242692,6,0,P|123:261|122:274,1,22.5,2|0,0:0|0:0,0:0:0:0:
103,81,243121,6,0,P|103:66|106:51,1,30,2|0,0:0|0:0,0:0:0:0:
200,114,243549,2,0,P|210:103|221:93,1,30,2|0,0:0|0:0,0:0:0:0:
245,224,243978,2,0,P|259:222|274:222,1,30,2|0,0:0|0:0,0:0:0:0:
205,352,244406,2,0,P|217:360|228:369,1,30,2|0,0:0|0:0,0:0:0:0:
82,354,244835,6,0,P|67:353|52:350,1,30,2|0,0:0|0:0,0:0:0:0:
100,238,245264,2,0,P|89:227|79:216,1,30,2|0,0:0|0:0,0:0:0:0:
230,128,245692,2,0,P|228:113|228:98,1,30,2|0,0:0|0:0,0:0:0:0:
411,113,246120,2,0,P|419:100|428:89,1,30,2|0,0:0|0:0,0:0:0:0:
257,305,246549,5,2,0:0:0:0:
452,263,246764,1,2,0:0:0:0:
231,289,246978,5,2,0:0:0:0:
366,203,247193,1,2,0:0:0:0:
203,280,247407,5,2,0:0:0:0:
280,177,247622,1,2,0:0:0:0:
179,276,247834,5,2,0:0:0:0:
225,183,248049,1,2,0:0:0:0:
157,276,248264,5,2,0:0:0:0:
168,260,248371,1,2,0:0:0:0:
177,242,248478,1,2,0:0:0:0:
183,224,248585,1,2,0:0:0:0:
185,204,248692,1,2,0:0:0:0:
183,184,248799,1,2,0:0:0:0:
178,165,248906,1,2,0:0:0:0:
169,148,249014,1,2,0:0:0:0:
69,202,249121,5,8,0:0:0:0:
120,320,249264,5,0,0:0:0:0:
246,308,249407,5,0,0:0:0:0:
276,183,249549,5,0,0:0:0:0:
403,172,249692,5,0,0:0:0:0:
453,289,249835,5,0,0:0:0:0:
356,374,249978,6,2,P|337:189|484:37,1,375,6|0,0:3|0:0,0:0:0:0:
451,51,250621,2,0,P|488:112|483:211,1,112.500004291535
364,235,250835,1,8,0:0:0:0:
494,151,251049,5,2,0:3:0:0:
364,235,251157,2,2,P|317:289|221:314,1,112.500004291535,2|0,0:3|0:0,0:0:0:0:
67,152,251478,5,2,0:3:0:0:
161,208,251692,2,0,P|109:190|67:152,1,112.500004291535
67,152,252121,6,0,P|109:190|162:209,1,112.500004291535,8|0,0:1|0:0,0:0:0:0:
290,304,252335,5,2,0:3:0:0:
290,304,252442,1,2,0:3:0:0:
301,190,252549,6,2,P|293:165|280:150,1,37.5,8|0,0:0|0:0,0:0:0:0:
183,346,252871,2,2,P|166:365|159:383,1,37.5,2|0,0:3|0:0,0:0:0:0:
377,370,253192,2,2,P|400:372|419:371,1,37.5,2|0,0:3|0:0,0:0:0:0:
183,346,253407,6,2,P|352:327|484:126,1,375,2|0,0:3|0:0,0:0:0:0:
475,175,254049,2,0,P|408:124|328:123,1,112.500004291535
261,201,254264,1,8,0:0:0:0:
381,118,254478,5,2,0:3:0:0:
261,201,254585,2,2,P|218:237|165:253,1,112.500004291535,2|0,0:3|0:0,0:0:0:0:
32,61,254907,5,2,0:3:0:0:
30,170,255121,2,0,P|19:115|33:61,1,112.500004291535
33,60,255549,6,2,P|19:115|30:170,1,112.500004291535,8|0,0:1|0:0,0:0:0:0:
165,253,255764,5,2,0:3:0:0:
165,253,255871,1,2,0:3:0:0:
165,253,255978,2,2,L|228:258,3,56.2500021457673,8|0|0|0,0:0|0:0|0:0|0:0,0:0:0:0:
385,138,256407,6,0,L|408:136,1,22.4999993133545,2|0,0:0|0:0,0:0:0:0:
165,253,256835,6,2,P|285:189|573:285,1,375,2|0,0:3|0:0,0:0:0:0:
512,229,257478,2,0,P|456:288|384:312,1,112.500004291535
282,356,257692,1,8,0:0:0:0:
428,301,257907,5,2,0:3:0:0:
282,356,258014,2,2,P|258:278|274:203,1,112.500004291535,2|0,0:3|0:0,0:0:0:0:
391,127,258335,5,2,0:3:0:0:
287,93,258549,2,0,P|366:111|422:162,1,112.500004291535
391,128,258978,6,2,P|342:101|287:93,1,112.500004291535,8|0,0:1|0:0,0:0:0:0:
428,301,259192,2,2,P|476:272|512:229,1,112.500004291535,2|0,0:3|0:0,0:0:0:0:
260,247,259407,6,2,P|259:258|258:270,2,22.5,2|2|2,0:3|0:3|0:3,0:0:0:0:
200,368,260264,6,2,P|215:198|97:24,1,375,2|0,0:3|0:0,0:0:0:0:
108,31,260907,2,0,P|61:107|57:163,1,93.75
56,244,261121,5,8,0:0:0:0:
159,196,261264,5,0,0:0:0:0:
253,261,261407,5,0,0:0:0:0:
246,373,261549,5,2,0:0:0:0:
350,325,261692,5,0,0:0:0:0:
361,211,261835,5,0,0:0:0:0:
253,261,261978,6,2,P|399:257|506:356,1,300,2|0,0:3|0:0,0:0:0:0:
506,356,262621,1,2,0:3:0:0:
158,99,262835,6,2,P|298:135|442:46,1,300,8|0,0:0|0:0,0:0:0:0:
0,368,263692,6,2,P|96:305|369:327,1,375,2|0,0:3|0:0,0:0:0:0:
347,314,264335,2,0,L|332:146,1,112.500004291535
433,112,264549,1,8,0:0:0:0:
336,201,264764,5,2,0:3:0:0:
433,112,264871,2,2,L|447:-55,1,112.500004291535,2|0,0:3|0:0,0:0:0:0:
217,136,265192,5,2,0:3:0:0:
320,107,265407,2,0,P|264:108|216:136,1,112.5
216,136,265835,6,0,P|264:108|320:107,1,112.5,8|8,0:1|0:1,0:0:0:0:
450,222,266121,1,8,0:1:0:0:
261,329,266264,6,2,P|260:273|286:224,1,75,8|0,0:0|0:0,0:0:0:0:
266,255,266799,1,2,0:3:0:0:
266,255,266907,1,2,0:3:0:0:
139,373,267121,6,2,P|135:245|14:77,1,281.25,2|0,0:3|0:0,0:0:0:0:
60,114,267549,2,0,L|116:119,1,56.2500021457673
52,225,267764,2,0,L|108:230,1,56.2500021457673
280,64,267978,1,8,0:0:0:0:
116,119,268192,5,2,0:3:0:0:
280,64,268299,2,2,L|407:52,1,112.500004291535,2|0,0:3|0:0,0:0:0:0:
226,163,268621,6,0,P|258:203|290:219,1,56.2500021457673,2|0,0:3|0:0,0:0:0:0:
67,330,268835,2,2,P|100:281|107:225,1,112.5,2|0,0:0|0:0,0:0:0:0:
107,229,269264,6,0,P|99:284|67:330,1,112.5,8|0,0:1|0:1,0:1:0:0:
74,17,269478,2,0,P|82:72|114:117,1,112.5,2|0,0:3|0:3,0:3:0:0:
215,261,269692,6,2,P|250:272|284:288,2,56.2500021457673,8|0|0,0:0|0:0|0:0,0:0:0:0:
114,117,269907,2,2,P|216:159|327:149,1,225.000008583069,2|0,0:3|0:0,0:0:0:0:
8,352,270549,6,2,P|216:352|360:256,1,375,2|0,2:3|2:0,2:0:0:0:
352,264,271192,2,0,P|265:244|217:182,1,93.75
278,91,271407,1,8,0:0:0:0:
263,242,271621,5,2,0:3:0:0:
278,91,271728,2,2,P|270:2|314:-62,1,93.75,2|0,0:3|0:0,0:0:0:0:
379,37,272049,5,2,0:3:0:0:
352,264,272264,2,2,P|265:244|217:182,1,93.75,2|0,0:0|0:0,0:0:0:0:
262,242,272692,6,0,P|305:261|352:264,1,93.75,8|0,0:1|0:0,0:0:0:0:
423,148,272907,2,0,P|460:120|486:81,1,93.75,2|0,0:3|0:0,0:0:0:0:
235,44,273121,6,2,P|205:149|262:242,1,225.000008583069,2|0,0:3|0:0,0:0:0:0:
0,310,273978,6,2,P|180:275|336:371,1,375,2|0,0:3|0:0,0:0:0:0:
335,371,274621,2,0,L|344:260,1,93.75
512,177,274835,5,8,0:0:0:0:
463,290,274978,5,0,0:0:0:0:
342,278,275121,5,0,0:0:0:0:
313,158,275263,5,2,0:0:0:0:
191,148,275406,5,0,0:0:0:0:
143,260,275549,5,0,0:0:0:0:
234,339,275692,6,2,P|175:209|28:162,1,300,2|0,0:3|0:0,0:0:0:0:
305,209,276335,1,2,0:3:0:0:
190,84,276549,6,2,P|332:97|446:-5,1,300,8|0,0:0|0:0,0:0:0:0:
444,0,277407,6,2,P|394:204|455:350,1,330.000010070801,6|0,0:3|0:0,0:0:0:0:
276,78,278264,1,8,0:0:0:0:
276,78,278478,5,2,0:3:0:0:
138,225,278585,2,2,L|257:214,1,112.500004291535,2|0,0:3|0:0,0:0:0:0:
388,87,278907,6,2,L|268:76,1,112.500004291535,2|0,0:3|0:0,0:0:0:0:
275,77,279549,6,0,L|388:87,1,112.500004291535,8|0,0:1|0:0,0:0:0:0:
383,236,279764,5,2,0:3:0:0:
383,236,279871,1,2,0:3:0:0:
387,86,279978,6,2,P|375:100|368:117,1,37.5,8|0,0:0|0:0,0:0:0:0:
509,314,280299,2,2,P|502:296|490:281,1,37.5,2|0,0:3|0:0,0:0:0:0:
251,305,280621,2,2,P|269:308|287:305,1,37.5,2|0,0:3|0:0,0:0:0:0:
122,231,280835,6,2,P|252:279|383:236,1,281.25,2|0,0:3|0:0,0:0:0:0:
382,236,281264,6,0,L|381:259,1,22.5,2|0,0:0|0:0,0:0:0:0:
389,38,281692,1,8,0:0:0:0:
389,38,281907,5,2,0:3:0:0:
327,132,282014,2,2,P|279:68|287:-4,1,112.500004291535,2|0,0:3|0:0,0:0:0:0:
498,44,282335,6,2,P|466:117|400:146,1,112.500004291535,2|0,0:3|0:0,0:0:0:0:
441,135,282978,6,0,P|482:97|498:44,1,112.500004291535,8|0,0:1|0:0,0:0:0:0:
275,37,283192,2,2,P|288:92|327:132,1,112.500004291535,2|0,0:3|0:0,0:0:0:0:
379,233,283407,6,2,L|375:314,3,56.2500021457673,8|0|0|0,0:0|0:0|0:0|0:0,0:0:0:0:
124,160,283835,2,0,L|122:137,1,22.4999993133545,2|0,0:0|0:0,0:0:0:0:
0,305,284264,6,2,P|124:272|293:376,1,330.000010070801,2|0,0:3|0:0,0:0:0:0:
45,158,285121,1,8,0:0:0:0:
45,158,285335,5,2,0:3:0:0:
259,110,285442,2,2,P|182:129|134:178,1,112.500004291535,2|0,0:3|0:0,0:0:0:0:
295,214,285764,6,2,P|342:244|397:252,1,112.500004291535,2|0,0:3|0:0,0:0:0:0:
397,252,286407,6,0,P|342:244|295:214,1,112.500004291535,8|0,0:1|0:0,0:0:0:0:
156,148,286621,2,2,P|203:118|259:110,1,112.500004291535,2|0,0:3|0:0,0:0:0:0:
372,113,286835,6,2,L|369:136,2,22.5,2|2|2,0:3|0:3|0:3,0:0:0:0:
288,368,287692,6,2,P|288:256|112:32,1,375,2|0,0:3|0:0,0:0:0:0:
142,47,288335,2,0,P|160:128|128:192,1,112.500004291535
16,320,288549,5,8,0:0:0:0:
129,270,288692,5,0,0:0:0:0:
211,362,288835,5,0,0:0:0:0:
324,312,288978,5,2,0:0:0:0:
312,190,289121,5,0,0:0:0:0:
193,164,289264,5,0,0:0:0:0:
129,270,289407,6,2,P|275:213|415:245,1,300,2|0,0:3|0:0,0:0:0:0:
410,242,290049,1,2,0:3:0:0:
4,37,290264,6,2,P|144:106|286:86,1,300,8|0,0:0|0:0,0:0:0:0:
282,88,291121,6,2,P|156:164|113:419,1,375,2|0,0:3|0:0,0:0:0:0:
75,87,291978,1,8,0:0:0:0:
75,87,292192,5,2,0:3:0:0:
256,224,292299,2,2,L|383:235,1,112.500004291535,2|0,0:3|0:0,0:0:0:0:
128,288,292621,6,2,L|0:299,1,112.500004291535,2|0,0:3|0:0,0:0:0:0:
15,297,293264,6,0,L|128:288,1,112.500004291535,8|8,0:1|0:1,0:0:0:0:
256,224,293549,5,8,0:1:0:0:
192,108,293692,6,2,P|144:153|124:215,1,75,8|0,0:0|0:0,0:0:0:0:
140,161,294228,1,2,0:3:0:0:
140,161,294335,1,2,0:3:0:0:
313,362,294549,6,2,P|296:259|402:110,1,281.25,2|0,0:3|0:0,0:0:0:0:
388,117,294978,2,0,L|392:173,1,56.2500021457673
504,191,295192,2,0,L|508:247,1,56.2500021457673
231,43,295407,1,8,0:0:0:0:
388,117,295621,5,2,0:3:0:0:
231,43,295728,2,2,P|182:106|188:179,1,112.500004291535,2|0,0:3|0:0,0:0:0:0:
89,280,296049,6,2,P|133:346|205:362,1,112.500004291535,2|0,0:3|0:0,0:0:0:0:
161,359,296692,6,8,P|114:329|89:280,1,112.500004291535,8|0,0:1|0:1,0:1:0:0:
224,120,296907,2,2,P|183:157|163:211,1,112.500004291535,2|0,0:3|0:0,0:0:0:0:
302,289,297121,6,2,L|245:284,2,56.2500021457673,8|0|0,0:0|0:0|0:0,0:0:0:0:
491,73,297335,2,2,P|402:163|274:179,1,225.000008583069,2|0,0:3|0:0,0:0:0:0:
460,375,297978,6,2,P|358:311|132:307,1,337.500012874604,2|0,0:3|0:0,0:0:0:0:
309,183,298835,1,8,0:0:0:0:
309,183,299049,5,2,0:3:0:0:
115,108,299157,2,2,P|153:159|214:180,1,112.500004291535,2|0,0:3|0:0,0:0:0:0:
246,79,299478,2,2,P|306:58|345:7,1,112.500004291535,2|0,0:3|0:0,0:0:0:0:
337,22,300121,6,0,P|299:62|246:79,1,112.500004291535,8|0,0:1|0:0,0:0:0:0:
196,178,300335,2,0,P|146:153|115:108,1,112.500004291535,2|0,0:3|0:0,0:0:0:0:
30,346,300549,6,2,P|120:302|378:366,1,337.500012874604,2|0,0:3|0:0,0:0:0:0:
175,18,301407,6,2,P|319:129|499:104,1,375,2|0,0:3|0:0,0:0:0:0:
499,104,302049,2,0,P|481:177|436:220,1,112.500004291535
203,234,302264,5,8,0:0:0:0:
316,184,302407,5,0,0:0:0:0:
398,276,302550,5,0,0:0:0:0:
511,226,302693,5,2,0:0:0:0:
499,104,302836,5,0,0:0:0:0:
380,78,302979,5,0,0:0:0:0:
316,184,303121,6,2,P|373:53|523:41,1,300,2|0,0:3|0:0,0:0:0:0:
512,37,303764,1,2,0:3:0:0:
376,368,303978,6,2,P|266:275|114:292,1,225.000008583069,8|0,0:0|0:0,0:0:0:0:
414,215,304835,5,6,0:3:0:0:
247,114,305264,6,0,P|198:169|125:183,1,150
130,188,305692,5,8,0:0:0:0:
133,225,305907,1,0,0:0:0:0:
136,262,306121,1,0,0:0:0:0:
46,245,306335,6,0,P|103:260|138:299,1,112.500004291535,2|0,0:0|0:0,0:0:0:0:
239,214,306978,2,0,P|271:164|319:142,1,75,2|0,0:0|0:0,0:0:0:0:
385,254,307407,6,0,L|353:251,2,30,8|0|0,0:0|0:0|0:0,0:0:0:0:
384,254,308692,6,0,P|423:174|407:87,1,149.962503272192,2|0,0:0|0:0,0:0:0:0:
415,110,309121,5,8,0:0:0:0:
381,107,309335,1,0,0:0:0:0:
348,104,309549,1,0,0:0:0:0:
257,9,309764,6,0,P|298:46|314:100,1,112.500004291535,2|0,0:0|0:0,0:0:0:0:
91,141,310407,2,0,P|102:86|140:46,1,75,2|0,0:0|0:0,0:0:0:0:
288,218,310835,6,0,P|262:231|235:236,3,37.5,8|0|0|0,0:0|0:0|0:0|0:0,0:0:0:0:
404,213,311264,6,2,P|405:185|415:158,1,37.5,2|0,0:0|0:0,0:0:0:0:
351,316,311478,2,2,P|374:331|392:352,1,37.5,2|0,0:0|0:0,0:0:0:0:
288,218,311692,5,2,0:3:0:0:
212,0,312121,6,0,P|288:37|316:121,1,149.962503272192,2|0,0:0|0:0,0:0:0:0:
310,97,312549,5,8,0:0:0:0:
276,99,312764,1,0,0:0:0:0:
243,102,312978,1,0,0:0:0:0:
169,204,313192,6,0,P|176:149|209:104,1,112.500004291535,2|0,0:0|0:0,0:0:0:0:
356,228,313835,2,0,P|324:201|291:192,1,75,2|0,0:0|0:0,0:0:0:0:
234,336,314264,6,0,L|236:304,2,30,8|0|0,0:0|0:0|0:0,0:0:0:0:
234,336,315549,6,0,P|310:315|373:336,1,112.5,2|0,0:0|0:0,0:0:0:0:
465,322,315978,6,0,L|471:401,2,50,8|0|0,0:0|0:0|0:0,0:0:0:0:
399,216,316407,6,0,L|395:167,2,50
482,96,316835,6,0,P|431:57|342:66,1,150,2|0,0:0|0:0,0:0:0:0:
188,0,317692,2,0,P|135:36|116:123,1,150,2|0,0:0|0:0,0:0:0:0:
4,249,318549,5,2,0:3:0:0:
4,249,318978,6,0,P|84:226|168:268,1,150,2|0,0:0|0:0,0:0:0:0:
148,251,319407,5,8,0:0:0:0:
145,284,319621,1,0,0:0:0:0:
142,317,319835,1,0,0:0:0:0:
236,304,320049,6,0,P|191:310|132:358,1,112.500004291535,2|0,0:0|0:0,0:0:0:0:
353,271,320692,6,0,P|357:295|356:320,2,50,2|0|0,0:0|0:0|0:0,0:0:0:0:
270,182,321121,6,0,L|272:150,2,30,8|0|0,0:0|0:0|0:0,0:0:0:0:
336,32,322407,6,0,L|331:-15,3,28.1250010728836,2|0|0|0,0:0|0:0|0:0|0:0,0:0:0:0:
332,36,322835,5,8,0:0:0:0:
298,39,323049,1,0,0:0:0:0:
265,42,323263,1,0,0:0:0:0:
174,137,323478,6,0,P|215:100|231:46,1,112.500004291535,2|0,0:0|0:0,0:0:0:0:
45,145,324121,2,0,P|56:199|95:239,1,75,2|0,0:0|0:0,0:0:0:0:
185,255,324549,6,0,L|216:257,6,18.75,8|0|0|0|0|0|0,0:0|0:0|0:0|0:0|0:0|0:0|0:0,0:0:0:0:
291,187,324978,2,0,L|309:185,6,18.75
383,101,325407,5,2,0:3:0:0:
383,101,325835,2,0,P|318:71|239:84,1,149.962503272192
238,86,326264,5,2,0:0:0:0:
235,119,326478,1,0,0:0:0:0:
232,152,326692,1,0,0:0:0:0:
139,127,326907,6,0,P|202:150|235:204,1,112.500004291535,2|0,0:0|0:0,0:0:0:0:
42,281,327549,2,0,P|30:214|60:159,1,75,2|0,0:0|0:0,0:0:0:0:
169,294,327978,6,0,L|166:325,1,30,8|0,0:0|0:0,0:0:0:0:
166,323,328835,6,0,P|288:300|496:384,1,337.500012874604,2|0,0:3|0:0,0:0:0:0:
483,372,329692,6,0,L|473:260,2,75.000002861023,8|0|0,0:0|0:0|0:0,0:0:0:0:
401,204,330121,6,0,L|393:113,2,50,2|0|0,0:0|0:0|0:0,0:0:0:0:
288,112,330549,6,0,L|283:64,1,30,2|0,0:3|0:0,0:0:0:0:
182,63,331407,6,0,L|180:48,2,15,8|0|4,2:0|2:0|0:0,2:0:0:0:
