osu file format v14

[General]
AudioFilename: audio.mp3
AudioLeadIn: 0
PreviewTime: 50963
Countdown: 0
SampleSet: Soft
StackLeniency: 0.6
Mode: 0
LetterboxInBreaks: 0
WidescreenStoryboard: 1

[Editor]
DistanceSpacing: 1.2
BeatDivisor: 2
GridSize: 16
TimelineZoom: 0.7999998

[Metadata]
Title:Voice Memo No. 5
TitleUnicode:ボイスメモ No.5
Artist:CHANMINA
ArtistUnicode:ちゃんみな
Creator:Beren
Version:Normal
Source:
Tags:garden akito -akito ruchuers axey japanese rap pop rhyan besco ryosuke dr.r sakai note-book -me.- Rhyan Besco Ryosuke Dr.R Sakai hip hop
BeatmapID:2609958
BeatmapSetID:1255845

[Difficulty]
HPDrainRate:3
CircleSize:3
OverallDifficulty:4
ApproachRate:5
SliderMultiplier:1.6
SliderTickRate:1

[Events]
//Background and Video events
0,0,"IMG_1283(20200913-205611).JPG",0,0
//Break Periods
//Storyboard Layer 0 (Background)
//Storyboard Layer 1 (Fail)
//Storyboard Layer 2 (Pass)
//Storyboard Layer 3 (Foreground)
Sprite,Foreground,Centre,"SB\51.png",320,240 M,0,13599,,493,380 F,0,13599,13735,0,1 F,0,13735,16871,1 P,0,16871,,A F,0,16871,17417,1,0
//Storyboard Layer 4 (Overlay)
//Storyboard Sound Samples

[TimingPoints]
561,545.454545454546,4,2,1,30,1,0
561,-111.111111111111,4,2,1,30,0,0
17742,-100,4,2,1,60,0,0
52924,-100,4,2,1,80,0,0
87833,-100,4,2,1,60,0,0
105288,-100,4,2,1,80,0,0
140742,-125,4,2,1,40,0,0
157651,-125,4,2,1,5,0,0

[Colours]
Combo1 : 239,148,148
Combo2 : 234,222,140
Combo3 : 194,235,146
Combo4 : 163,208,233
Combo5 : 180,180,218
Combo6 : 227,159,224

[HitObjects]
72,192,561,5,0,0:0:0:0:
72,192,1106,2,0,P|72:88|168:182,1,287.999991210938,8|8,0:0|0:0,0:0:0:0:
345,207,2742,1,0,0:0:0:0:
345,207,3288,2,0,P|472:200|395:115,1,287.999991210938,8|8,0:0|0:0,0:0:0:0:
244,163,4924,1,0,0:0:0:0:
244,163,5470,2,0,P|150:208|261:288,1,287.999991210938,8|8,0:0|0:0,0:0:0:0:
400,203,7106,1,0,0:0:0:0:
400,203,7651,2,0,P|424:291|421:369,2,143.999995605469,8|0|8,0:0|0:0|0:0,0:0:0:0:
423,34,9288,5,0,0:0:0:0:
423,34,9833,2,0,B|330:42|326:132|326:132|382:103|471:123,1,287.999991210938,8|8,0:0|0:0,0:0:0:0:
345,253,11470,1,0,0:0:0:0:
345,253,12015,2,0,B|438:261|442:351|442:351|386:322|297:342,1,287.999991210938,8|8,0:0|0:0,0:0:0:0:
142,347,13651,5,0,0:0:0:0:
142,347,14197,2,0,B|49:339|45:249|45:249|101:278|185:256,1,287.999991210938,8|8,0:0|0:0,0:0:0:0:
291,131,15833,1,0,0:0:0:0:
134,57,16379,2,0,P|69:31|-4:47,2,143.999995605469,8|0|8,0:0|0:0|0:0,0:0:0:0:
315,119,18015,6,0,P|387:133|437:113,1,120,2|8,0:3|0:1,0:0:0:0:
476,105,18561,2,0,L|496:25,2,80,8|8|0,0:0|0:1|0:0,0:0:0:0:
365,259,19651,1,8,0:0:0:0:
270,274,19924,1,8,0:1:0:0:
175,259,20197,2,0,P|170:199|179:140,1,120,8|8,0:1|0:1,0:0:0:0:
158,97,20742,2,0,L|143:12,2,80,8|8|8,0:0|0:1|0:1,0:0:0:0:
28,238,21833,2,0,L|22:330,1,80,8|8,0:0|0:1,0:0:0:0:
118,331,22379,6,0,P|205:352|293:321,1,160,2|8,0:3|0:0,0:0:0:0:
326,255,23197,1,8,0:1:0:0:
422,251,23470,2,0,L|529:249,1,80,8|2,0:1|0:0,0:0:0:0:
493,153,24015,1,8,0:0:0:0:
396,150,24288,1,8,0:1:0:0:
299,166,24561,2,0,P|292:106|303:47,1,120,8|8,0:1|0:1,0:0:0:0:
255,49,25106,2,0,L|164:47,1,80,8|8,0:0|0:1,0:0:0:0:
183,142,25651,2,0,P|195:220|164:309,1,160,8|8,0:1|0:0,0:0:0:0:
357,344,26742,6,0,L|488:350,1,120,2|8,0:3|0:1,0:0:0:0:
483,301,27288,2,0,L|485:211,2,80,8|8|8,0:0|0:1|0:1,0:0:0:0:
306,224,28379,1,8,0:0:0:0:
218,263,28651,1,8,0:1:0:0:
129,225,28924,2,0,P|123:177|148:95,1,120,8|8,0:1|0:1,0:0:0:0:
140,60,29470,2,0,L|55:58,2,80,8|8|8,0:0|0:1|0:1,0:0:0:0:
330,88,30561,1,8,0:0:0:0:
425,91,30833,1,8,0:1:0:0:
407,185,31106,6,0,P|351:240|267:210,1,160,2|8,0:3|0:0,0:0:0:0:
228,140,31924,1,8,0:1:0:0:
133,158,32197,2,0,L|50:166,1,80,8|2,0:1|0:0,0:0:0:0:
46,261,32742,1,8,0:0:0:0:
22,354,33015,1,8,0:1:0:0:
117,339,33288,2,0,L|271:337,1,120,8|8,0:1|0:1,0:0:0:0:
271,304,33833,2,0,L|355:297,1,80,8|2,0:0|0:0,0:0:0:0:
444,321,34379,2,0,P|463:233|435:157,1,160,8|8,0:1|0:0,0:0:0:0:
310,28,35470,5,10,0:3:0:0:
167,139,36833,2,0,L|40:137,2,120,8|8|2,0:1|0:1|0:3,0:0:0:0:
346,189,39015,2,0,L|483:182,2,120,8|8|2,0:1|0:1|0:3,0:0:0:0:
210,300,41197,2,0,L|70:297,2,120,8|8|2,0:1|0:1|0:3,0:0:0:0:
368,202,43379,2,0,L|513:200,2,120,8|8|2,0:1|0:1|0:3,0:0:0:0:
277,32,44742,5,8,0:0:0:0:
78,49,45561,2,0,L|60:148,1,80,8|8,0:1|0:0,0:0:0:0:
66,175,45970,2,0,P|133:204|211:190,1,120,8|2,0:1|0:3,0:0:0:0:
321,73,46924,5,8,0:0:0:0:
470,232,47742,2,0,L|469:335,1,80,8|8,0:1|0:0,0:0:0:0:
428,337,48151,2,0,P|378:351|284:329,1,120,8|2,0:1|0:3,0:0:0:0:
122,307,49106,5,8,0:0:0:0:
273,62,49924,2,0,L|285:160,1,80,8|8,0:1|0:0,0:0:0:0:
285,189,50333,2,0,L|274:328,1,120,8|2,0:1|0:3,0:0:0:0:
96,110,52924,6,0,P|164:82|263:93,1,160,10|8,0:3|0:0,0:0:0:0:
343,74,53742,2,0,L|343:132,1,40,8|0,0:1|0:0,0:0:0:0:
349,161,54015,2,0,L|442:170,1,80,8|2,0:1|0:0,0:0:0:0:
508,223,54561,1,8,0:0:0:0:
491,317,54833,1,8,0:1:0:0:
398,341,55106,2,0,P|334:317|234:337,1,160,2|8,0:3|0:0,0:0:0:0:
149,338,55924,2,0,L|92:354,1,40,8|0,0:1|0:0,0:0:0:0:
64,332,56197,2,0,P|48:297|52:236,1,80,8|2,0:1|0:0,0:0:0:0:
108,182,56742,1,8,0:0:0:0:
25,132,57015,1,8,0:1:0:0:
69,45,57288,6,0,P|132:7|221:23,1,160,2|8,0:3|0:0,0:0:0:0:
308,37,58106,1,8,0:1:0:0:
402,55,58379,2,0,L|411:137,1,80,8|2,0:1|0:0,0:0:0:0:
428,229,58924,2,0,L|331:239,1,80,8|8,0:0|0:1,0:0:0:0:
252,223,59470,2,0,P|273:297|242:379,1,160,2|8,0:3|0:0,0:0:0:0:
150,380,60288,1,8,0:1:0:0:
84,309,60561,2,0,P|62:234|89:134,1,160,2|8,0:3|0:0,0:0:0:0:
87,59,61379,1,2,0:3:0:0:
182,61,61651,6,0,L|300:70,1,80,2|2,0:3|0:0,0:0:0:0:
262,163,62197,1,8,0:0:0:0:
356,147,62470,2,0,L|420:144,1,40,8|0,0:1|0:0,0:0:0:0:
410,99,62742,2,0,L|497:105,1,80,8|2,0:1|0:0,0:0:0:0:
491,200,63288,1,8,0:0:0:0:
458,290,63561,1,8,0:1:0:0:
375,337,63833,2,0,P|305:362|211:333,1,160,2|8,0:3|0:0,0:0:0:0:
127,341,64651,2,0,L|82:338,1,40,8|0,0:1|0:0,0:0:0:0:
76,291,64924,2,0,P|65:245|74:207,1,80,8|2,0:1|0:0,0:0:0:0:
90,118,65470,1,8,0:0:0:0:
185,126,65742,1,8,0:1:0:0:
200,31,66015,6,0,P|268:7|359:39,1,160,2|8,0:3|0:0,0:0:0:0:
427,87,66833,1,8,0:1:0:0:
346,139,67106,2,0,L|328:238,1,80,8|2,0:1|0:0,0:0:0:0:
237,237,67651,1,8,0:0:0:0:
218,331,67924,1,8,0:1:0:0:
311,353,68197,2,0,P|385:332|467:363,1,160,2|8,0:3|0:0,0:0:0:0:
501,271,69015,1,8,0:1:0:0:
473,179,69288,2,0,P|395:163|319:185,1,160,2|8,0:3|0:0,0:0:0:0:
234,138,70106,1,2,0:3:0:0:
148,95,70378,6,0,L|68:88,1,80,2|2,0:3|0:0,0:0:0:0:
40,181,70924,2,0,P|24:268|26:287,1,80,8|8,0:0|0:1,0:0:0:0:
111,298,71470,2,0,P|186:282|267:315,1,160,8|8,0:1|0:0,0:0:0:0:
353,341,72288,1,8,0:1:0:0:
348,244,72561,2,0,L|347:147,1,80,2|2,0:3|0:0,0:0:0:0:
443,164,73106,2,0,P|449:128|441:76,1,80,8|8,0:0|0:1,0:0:0:0:
350,65,73651,2,0,P|268:51|185:107,1,160,8|8,0:1|0:0,0:0:0:0:
106,96,74470,1,8,0:1:0:0:
66,183,74742,6,0,L|51:291,1,80,2|2,0:3|0:0,0:0:0:0:
112,339,75288,2,0,L|212:338,1,80,8|8,0:0|0:1,0:0:0:0:
274,289,75833,2,0,P|325:335|417:335,1,160,8|8,0:1|0:0,0:0:0:0:
508,333,76651,1,8,0:1:0:0:
494,237,76924,2,0,L|476:57,1,160,2|8,0:3|0:0,0:0:0:0:
391,35,77742,1,8,0:1:0:0:
312,90,78015,2,0,P|299:184|332:237,1,160,8|8,0:1|0:0,0:0:0:0:
326,332,78833,1,8,0:1:0:0:
229,331,79106,6,0,L|95:339,1,80,2|2,0:3|0:0,0:0:0:0:
58,304,79651,1,8,0:0:0:0:
49,208,79924,1,8,0:1:0:0:
140,178,80197,2,0,P|228:154|299:204,1,160,8|8,0:1|0:0,0:0:0:0:
380,182,81015,1,8,0:1:0:0:
466,224,81288,2,0,L|472:308,1,80,2|2,0:3|0:0,0:0:0:0:
389,352,81833,2,0,P|341:359|294:339,1,80,8|8,0:0|0:1,0:0:0:0:
289,256,82379,2,0,L|294:96,1,160,8|8,0:1|0:0,0:0:0:0:
354,20,83197,1,8,0:1:0:0:
432,74,83470,6,0,L|511:74,1,80,2|2,0:3|0:0,0:0:0:0:
506,170,84015,1,8,0:0:0:0:
502,266,84288,1,8,0:1:0:0:
406,259,84561,2,0,L|286:249,1,80,8|2,0:1|0:0,0:0:0:0:
230,243,85106,1,8,0:0:0:0:
237,147,85379,1,8,0:1:0:0:
204,56,85651,2,0,L|112:64,1,80,2|2,0:3|0:0,0:0:0:0:
68,141,86197,1,8,0:0:0:0:
41,233,86470,1,8,0:1:0:0:
64,325,86742,2,0,L|167:351,1,80,8|2,0:1|0:0,0:0:0:0:
233,314,87288,2,0,P|265:233|249:161,1,160,8|10,0:0|0:3,0:0:0:0:
99,44,88379,5,8,0:0:0:0:
386,56,89197,2,0,L|401:153,1,80,8|8,0:1|0:0,0:0:0:0:
416,179,89606,2,0,L|408:309,1,120,8|2,0:1|0:3,0:0:0:0:
232,376,90561,5,8,0:0:0:0:
59,277,91379,2,0,L|53:177,1,80,8|8,0:1|0:0,0:0:0:0:
35,152,91788,2,0,L|53:27,1,120,8|2,0:1|0:3,0:0:0:0:
242,9,92742,5,8,0:0:0:0:
453,160,93561,2,0,P|398:178|358:166,1,80,8|8,0:1|0:0,0:0:0:0:
335,151,93970,2,0,P|263:140|199:185,1,120,8|2,0:1|0:3,0:0:0:0:
41,223,94924,5,0,0:0:0:0:
251,330,95742,2,0,P|326:347|359:341,1,80,8|8,0:1|0:0,0:0:0:0:
376,344,96151,2,0,P|443:325|511:347,1,120,8|2,0:1|0:3,0:0:0:0:
495,143,97106,5,8,0:0:0:0:
327,50,97651,2,0,L|223:46,2,80,8|8|8,0:1|0:1|0:0,0:0:0:0:
359,85,98333,2,0,P|373:142|360:216,1,120,8|2,0:1|0:3,0:0:0:0:
250,356,99288,5,8,0:0:0:0:
103,232,99833,2,0,L|6:234,2,80,8|8|8,0:1|0:1|0:0,0:0:0:0:
114,185,100515,2,0,P|101:124|121:50,1,120,8|2,0:1|0:3,0:0:0:0:
302,44,101470,5,8,0:0:0:0:
277,234,102015,2,0,L|274:335,2,80,8|8|8,0:1|0:1|0:0,0:0:0:0:
308,197,102697,2,0,P|381:193|454:206,1,120,8|2,0:1|0:3,0:0:0:0:
54,297,105288,6,0,P|128:322|221:280,1,160,10|8,0:3|0:0,0:0:0:0:
240,208,106106,2,0,L|245:142,1,40,8|0,0:1|0:0,0:0:0:0:
242,119,106379,2,0,P|240:79|248:39,1,80,8|2,0:1|0:0,0:0:0:0:
342,27,106924,1,8,0:0:0:0:
373,117,107197,1,8,0:1:0:0:
358,212,107470,2,0,P|435:196|510:222,1,160,2|8,0:3|0:0,0:0:0:0:
492,316,108288,2,0,L|439:338,1,40,8|0,0:1|0:0,0:0:0:0:
413,355,108561,2,0,L|333:355,1,80,8|2,0:1|0:0,0:0:0:0:
254,299,109106,1,8,0:0:0:0:
168,342,109379,1,8,0:1:0:0:
76,310,109652,6,0,P|38:247|54:158,1,160,2|8,0:3|0:0,0:0:0:0:
100,83,110470,1,8,0:1:0:0:
193,62,110743,2,0,L|202:144,1,80,8|2,0:1|0:0,0:0:0:0:
258,219,111288,2,0,L|355:229,1,80,8|8,0:0|0:1,0:0:0:0:
428,195,111834,2,0,P|454:120|433:44,1,160,2|8,0:3|0:0,0:0:0:0:
337,53,112652,1,8,0:1:0:0:
240,52,112925,2,0,P|162:36|86:58,1,160,2|8,0:3|0:0,0:0:0:0:
53,148,113743,1,2,0:3:0:0:
66,242,114015,6,0,L|184:251,1,80,2|2,0:3|0:0,0:0:0:0:
241,260,114561,1,8,0:0:0:0:
241,164,114833,2,0,L|248:105,1,40,8|0,0:1|0:0,0:0:0:0:
267,81,115106,2,0,P|306:79|346:87,1,80,8|2,0:1|0:0,0:0:0:0:
442,85,115651,1,8,0:0:0:0:
479,173,115924,1,8,0:1:0:0:
476,270,116197,2,0,P|399:290|325:264,1,160,2|8,0:3|0:0,0:0:0:0:
311,169,117015,2,0,L|247:165,1,40,8|0,0:1|0:0,0:0:0:0:
222,165,117288,2,0,P|216:204|222:243,1,80,8|2,0:1|0:0,0:0:0:0:
228,339,117833,1,8,0:0:0:0:
132,332,118106,1,8,0:1:0:0:
82,251,118379,6,0,P|43:182|57:105,1,160,2|8,0:3|0:0,0:0:0:0:
142,59,119197,1,8,0:1:0:0:
236,76,119470,2,0,L|245:158,1,80,8|2,0:1|0:0,0:0:0:0:
335,186,120015,2,0,L|345:283,1,80,8|8,0:0|0:1,0:0:0:0:
337,361,120561,2,0,P|411:340|493:371,1,160,2|8,0:3|0:0,0:0:0:0:
484,270,121379,1,0,0:0:0:0:
447,181,121652,2,0,P|425:104|441:27,1,160,2|8,0:3|0:0,0:0:0:0:
346,43,122470,1,2,0:3:0:0:
250,51,122742,6,0,P|169:42|89:95,1,160,2|8,0:3|0:0,0:0:0:0:
68,169,123561,1,8,0:1:0:0:
88,262,123834,2,0,P|161:290|238:274,1,160,8|8,0:1|0:0,0:0:0:0:
324,316,124652,1,0,0:0:0:0:
419,322,124925,2,0,L|418:225,1,80,2|2,0:3|0:0,0:0:0:0:
480,168,125470,2,0,P|486:132|478:80,1,80,8|8,0:0|0:1,0:0:0:0:
396,43,126015,2,0,P|314:29|231:85,1,160,8|8,0:1|0:0,0:0:0:0:
151,66,126834,1,8,0:1:0:0:
96,143,127106,6,0,L|102:329,1,160,2|8,0:3|0:0,0:0:0:0:
186,347,127924,1,8,0:1:0:0:
228,260,128197,2,0,L|233:68,1,160,8|8,0:1|0:0,0:0:0:0:
321,64,129015,1,8,0:1:0:0:
415,80,129288,2,0,L|414:168,1,80,2|2,0:3|0:0,0:0:0:0:
499,203,129833,2,0,L|491:290,1,80,8|8,0:0|0:1,0:0:0:0:
411,335,130379,2,0,P|341:370|264:354,1,160,8|8,0:1|0:0,0:0:0:0:
254,258,131197,1,8,0:1:0:0:
159,240,131470,6,0,P|84:249|2:195,1,160,2|8,0:3|0:0,0:0:0:0:
55,122,132288,1,8,0:1:0:0:
140,78,132561,2,0,P|249:49|299:82,1,160,8|8,0:1|0:0,0:0:0:0:
379,86,133379,1,0,0:0:0:0:
471,111,133652,2,0,L|477:195,1,80,2|2,0:3|0:0,0:0:0:0:
420,268,134197,2,0,P|372:275|325:255,1,80,8|8,0:0|0:1,0:0:0:0:
280,339,134743,2,0,L|120:334,1,160,8|8,0:1|0:0,0:0:0:0:
34,289,135561,1,8,0:1:0:0:
54,195,135833,6,0,P|43:113|90:46,1,160,6|8,0:3|0:0,0:0:0:0:
174,19,136652,1,8,0:1:0:0:
261,57,136924,2,0,P|265:149|233:212,1,160,8|8,0:1|0:0,0:0:0:0:
216,302,137743,1,8,0:1:0:0:
303,340,138015,2,0,L|384:342,1,80,2|2,0:0|0:0,0:0:0:0:
478,354,138561,1,8,0:0:0:0:
493,259,138834,1,8,0:1:0:0:
468,166,139106,2,0,L|388:176,1,80,8|0,0:1|0:0,0:0:0:0:
294,198,139652,2,0,P|280:120|311:47,1,160,8|2,0:0|0:0,0:0:0:0:
157,41,140742,6,0,P|41:102|94:182,1,256,8|8,0:0|0:0,0:0:0:0:
243,198,142379,1,2,0:0:0:0:
243,198,142924,2,0,P|294:308|189:355,1,256,8|8,0:0|0:0,0:0:0:0:
41,352,144561,1,2,0:0:0:0:
43,356,145106,2,0,P|0:250|109:216,1,256,8|8,0:0|0:0,0:0:0:0:
262,258,146742,1,2,0:0:0:0:
262,258,147288,2,0,P|333:265|403:285,2,128,8|0|8,0:0|0:0|0:0,0:0:0:0:
361,140,148924,5,2,0:0:0:0:
361,140,149470,2,0,B|263:127|263:127|222:71|222:71|142:62|142:62|130:58,1,256
63,197,151106,1,2,0:0:0:0:
63,197,151651,2,0,B|161:210|161:210|202:266|202:266|282:275|282:275|294:279,1,256
442,288,153288,1,2,0:0:0:0:
442,288,153833,2,0,B|436:204|380:183|380:183|336:126|392:46,1,256
226,54,155470,1,2,0:0:0:0:
226,54,156015,2,0,P|175:84|92:71,1,128
41,117,156833,1,2,0:0:0:0:
40,193,157106,2,0,P|84:241|156:240,1,128
