osu file format v14

[General]
AudioFilename: audio.mp3
AudioLeadIn: 0
PreviewTime: 50963
Countdown: 0
SampleSet: None
StackLeniency: 0.7
Mode: 0
LetterboxInBreaks: 0
WidescreenStoryboard: 1

[Editor]
Bookmarks: 105236,140145
DistanceSpacing: 1.2
BeatDivisor: 4
GridSize: 32
TimelineZoom: 0.9999999

[Metadata]
Title:Voice Memo No. 5
TitleUnicode:ボイスメモ No.5
Artist:CHANMINA
ArtistUnicode:ちゃんみな
Creator:Beren
Version:Garden's Insane
Source:
Tags:garden akito -akito ruchuers axey japanese rap pop rhyan besco ryosuke dr.r sakai note-book -me.- Rhyan Besco Ryosuke Dr.R Sakai hip hop
BeatmapID:2641466
BeatmapSetID:1255845

[Difficulty]
HPDrainRate:5
CircleSize:4
OverallDifficulty:7.5
ApproachRate:9
SliderMultiplier:2
SliderTickRate:1

[Events]
//Background and Video events
0,0,"IMG_1283(20200913-205611).JPG",0,0
//Break Periods
//Storyboard Layer 0 (Background)
//Storyboard Layer 1 (Fail)
//Storyboard Layer 2 (Pass)
//Storyboard Layer 3 (Foreground)
Sprite,Foreground,Centre,"SB\54.png",320,240 M,0,13599,,493,380 F,0,13599,13735,0,1 F,0,13735,16871,1 P,0,16871,,A F,0,16871,17417,1,0
//Storyboard Layer 4 (Overlay)
//Storyboard Sound Samples

[TimingPoints]
561,545.454545454546,4,2,1,30,1,0
561,-83.3333333333333,4,2,1,60,0,0
19651,-66.6666666666667,4,2,1,60,0,0
20197,-83.3333333333333,4,2,1,60,0,0
21833,-66.6666666666667,4,2,1,60,0,0
22379,-83.3333333333333,4,2,1,60,0,0
35470,-133.333333333333,4,2,1,60,0,0
44197,-90.9090909090909,4,2,1,60,0,0
52924,-66.6666666666667,4,2,1,80,0,0
87288,-55.5555555555556,4,2,1,80,0,0
87833,-133.333333333333,4,2,1,60,0,0
105288,-66.6666666666667,4,2,1,80,0,0
140197,-66.6666666666667,4,2,1,60,0,0
148924,-66.6666666666667,4,2,1,40,0,0

[Colours]
Combo1 : 239,148,148
Combo2 : 234,222,140
Combo3 : 194,235,146
Combo4 : 163,208,233
Combo5 : 180,180,218
Combo6 : 227,159,224

[HitObjects]
67,328,561,6,0,B|181:332|120:273|235:284,1,179.999994506836,2|0,0:0|0:0,0:0:0:0:
316,315,1106,1,8,0:0:0:0:
316,315,2197,1,8,0:0:0:0:
467,244,2742,6,0,B|357:239|410:195|281:199,1,179.999994506836,2|0,0:0|0:0,0:0:0:0:
216,228,3288,1,8,0:0:0:0:
216,228,4379,1,8,0:0:0:0:
284,280,4924,6,0,B|268:184|348:209|320:94,1,179.999994506836,2|0,0:0|0:0,0:0:0:0:
286,35,5470,1,8,0:0:0:0:
391,211,6561,1,8,0:0:0:0:
226,134,7106,6,0,B|342:142|285:82|407:92,1,179.999994506836,2|0,0:0|0:0,0:0:0:0:
476,116,7651,1,8,0:0:0:0:
221,253,8197,2,0,B|337:261|280:201|402:211,1,179.999994506836,2|0,0:0|0:0,0:0:0:0:
471,235,8742,1,8,0:0:0:0:
248,160,9288,6,0,B|235:272|303:218|302:336,1,179.999994506836,2|0,0:0|0:0,0:0:0:0:
237,379,9833,1,8,0:0:0:0:
237,379,10924,1,8,0:0:0:0:
62,305,11470,6,0,B|75:193|7:247|14:130,1,179.999994506836,2|0,0:0|0:0,0:0:0:0:
46,62,12015,1,8,0:0:0:0:
46,62,13106,1,8,0:0:0:0:
115,158,13651,6,0,B|222:168|181:104|291:120,1,179.999994506836,2|0,0:0|0:0,0:0:0:0:
359,158,14197,1,8,0:0:0:0:
137,53,15288,1,8,0:0:0:0:
420,88,15833,6,0,B|430:190|363:160|376:258,1,179.999994506836,2|0,0:0|0:0,0:0:0:0:
406,334,16379,1,8,0:0:0:0:
238,351,16924,2,0,B|228:249|295:279|282:181,1,179.999994506836,2|0,0:0|0:0,0:0:0:0:
252,105,17470,1,8,0:0:0:0:
252,105,17879,5,0,0:0:0:0:
319,56,18015,2,0,P|260:53|200:39,1,119.999996337891,2|2,0:3|0:0,0:0:0:0:
102,24,18424,2,0,P|112:51|117:84,1,59.9999981689454,8|8,0:1|0:0,0:0:0:0:
18,298,18833,2,0,P|8:274|-3:222,1,59.9999981689454,8|0,0:1|0:0,0:0:0:0:
67,182,19106,2,0,P|131:190|154:258,1,119.999996337891,8|2,0:1|0:0,0:0:0:0:
125,321,19515,1,8,0:1:0:0:
119,335,19651,2,0,B|196:365|231:316|203:316|272:244|337:302,1,225.000008583069,8|0,0:0|0:0,0:0:0:0:
420,368,20197,6,0,P|477:367|512:321,1,119.999996337891,8|2,0:1|0:0,0:0:0:0:
466,248,20606,2,0,L|481:175,1,59.9999981689454,8|8,0:1|0:0,0:0:0:0:
312,1,21015,2,0,L|299:59,1,59.9999981689454,8|0,0:1|0:0,0:0:0:0:
397,40,21288,2,0,P|462:47|485:97,1,119.999996337891,8|2,0:1|0:0,0:0:0:0:
401,142,21697,1,8,0:1:0:0:
390,133,21833,2,0,B|323:102|267:169|302:168|268:229|169:195,1,225.000008583069,8|0,0:0|0:0,0:0:0:0:
34,119,22379,6,0,P|69:74|127:78,1,119.999996337891,2|2,0:3|0:0,0:0:0:0:
223,52,22788,2,0,P|215:89|213:131,1,59.9999981689454,8|8,0:1|0:0,0:0:0:0:
112,236,23061,1,0,0:0:0:0:
102,228,23197,2,0,P|109:190|112:149,1,59.9999981689454,8|0,0:1|0:0,0:0:0:0:
272,189,23470,1,8,0:1:0:0:
282,197,23742,2,0,P|276:226|272:256,1,59.9999981689454,2|8,0:0|0:1,0:0:0:0:
350,310,24015,2,0,P|408:314|451:275,1,119.999996337891,8|8,0:0|0:1,0:0:0:0:
512,115,24561,6,0,P|467:127|366:140,1,119.999996337891,8|2,0:1|0:0,0:0:0:0:
351,47,24970,1,8,0:1:0:0:
348,58,25106,2,0,P|381:51|418:48,1,59.9999981689454,8|0,0:0|0:0,0:0:0:0:
338,205,25379,2,0,P|305:212|268:215,1,59.9999981689454,8|0,0:1|0:0,0:0:0:0:
138,101,25651,6,0,B|147:58|218:61|243:100|240:177|160:137|181:242,1,239.999992675781,8|8,0:1|0:0,0:0:0:0:
179,232,26470,1,8,0:1:0:0:
181,323,26742,5,2,0:3:0:0:
181,323,27015,1,2,0:0:0:0:
255,357,27151,1,8,0:1:0:0:
321,302,27288,2,0,P|379:290|439:285,1,119.999996337891,8|8,0:0|0:1,0:0:0:0:
492,203,27697,1,0,0:0:0:0:
480,206,27833,2,0,P|488:171|501:131,1,59.9999981689454,8|0,0:1|0:0,0:0:0:0:
442,76,28106,2,0,P|383:73|342:114,1,119.999996337891,2|8,0:0|0:0,0:0:0:0:
342,114,28651,2,0,L|282:106,1,59.9999981689454,8|0,0:1|0:0,0:0:0:0:
198,58,28924,5,8,0:1:0:0:
169,136,29061,1,0,0:0:0:0:
240,189,29197,1,2,0:0:0:0:
211,267,29333,1,8,0:1:0:0:
282,320,29470,6,0,L|341:328,1,59.9999981689454,8|0,0:0|0:0,0:0:0:0:
200,257,29742,2,0,L|120:247,1,59.9999981689454,8|0,0:1|0:0,0:0:0:0:
295,333,30015,2,0,L|420:350,1,119.999996337891,8|2,0:1|0:0,0:0:0:0:
178,384,30561,1,8,0:0:0:0:
178,384,30833,2,0,L|98:374,1,59.9999981689454,8|0,0:1|0:0,0:0:0:0:
0,225,31106,6,0,P|56:214|95:257,1,119.999996337891,2|2,0:3|0:0,0:0:0:0:
187,291,31515,1,8,0:1:0:0:
175,295,31651,2,0,P|182:236|203:165,1,119.999996337891,8|8,0:0|0:1,0:0:0:0:
111,32,32197,1,8,0:1:0:0:
111,32,32470,2,0,P|107:65|87:117,1,59.9999981689454,2|8,0:0|0:1,0:0:0:0:
199,82,32742,1,8,0:0:0:0:
199,82,32924,2,0,P|243:74|291:70,1,79.9999975585938
425,46,33288,6,0,P|388:0|331:4,2,119.999996337891,8|2|8,0:1|0:0|0:0,0:0:0:0:
479,127,34015,2,0,P|439:130|389:139,1,79.9999975585938
318,90,34379,2,0,P|306:181|290:267,1,159.999995117188,8|0,0:1|0:0,0:0:0:0:
381,316,34924,1,8,0:0:0:0:
381,316,35106,2,0,P|385:276|394:237,1,79.9999975585938,2|0,0:0|0:0,0:0:0:0:
198,384,35470,5,10,0:3:0:0:
197,383,36833,2,0,P|160:344|105:343,1,112.500004291535,8|8,0:1|0:1,0:0:0:0:
0,176,37651,5,2,0:3:0:0:
0,176,39015,2,0,L|22:304,1,112.500004291535,8|8,0:1|0:1,0:0:0:0:
135,76,39833,5,2,0:3:0:0:
135,76,41197,2,0,P|72:77|34:39,1,112.500004291535,8|8,0:1|0:1,0:0:0:0:
289,1,42015,5,2,0:3:0:0:
289,1,43379,2,0,L|273:127,1,112.500004291535,8|8,0:1|0:1,0:0:0:0:
439,239,44197,5,2,0:3:0:0:
506,175,44742,1,8,0:0:0:0:
438,114,45561,2,0,L|384:125,1,55.0000016784668,8|0,0:1|0:0,0:0:0:0:
341,212,45833,1,8,0:0:0:0:
351,210,45970,2,0,P|364:261|336:307,1,110.000003356934,8|0,0:1|0:0,0:0:0:0:
251,328,46379,5,2,0:3:0:0:
190,263,46924,1,8,0:0:0:0:
118,322,47742,2,0,L|109:376,1,55.0000016784668,8|0,0:1|0:0,0:0:0:0:
46,270,48015,1,8,0:0:0:0:
48,259,48151,1,8,0:1:0:0:
125,208,48288,1,0,0:0:0:0:
127,197,48424,1,0,0:0:0:0:
61,139,48561,5,2,0:3:0:0:
134,79,49106,1,8,0:0:0:0:
201,145,49924,2,0,L|255:138,1,55.0000016784668,8|0,0:1|0:0,0:0:0:0:
333,86,50197,1,8,0:0:0:0:
322,82,50333,2,0,P|306:146|345:187,1,110.000003356934,8|0,0:1|0:0,0:0:0:0:
406,122,50742,5,2,0:3:0:0:
406,122,51833,1,2,0:0:0:0:
406,122,52924,6,0,P|333:120|284:174,1,150.000005722046,10|2,0:3|0:0,0:0:0:0:
281,188,53333,1,0,0:0:0:0:
228,266,53470,2,0,P|265:268|302:275,1,75.0000028610231,8|0,0:0|0:0,0:0:0:0:
449,218,53742,2,0,P|411:215|374:208,1,75.0000028610231,8|0,0:1|0:0,0:0:0:0:
274,62,54015,5,8,0:1:0:0:
342,3,54151,1,0,0:0:0:0:
404,68,54288,1,2,0:0:0:0:
336,127,54424,1,0,0:0:0:0:
274,62,54561,2,0,P|236:51|185:45,1,75.0000028610231,8|0,0:0|0:0,0:0:0:0:
26,129,54833,2,0,P|76:136|118:84,1,100.000003814697,8|8,0:1|0:1,0:0:0:0:
74,29,55106,6,0,P|128:94|157:233,1,225.000008583069,2|0,0:3|0:0,0:0:0:0:
36,333,55651,2,0,P|49:297|65:263,1,75.0000028610231,8|0,0:0|0:0,0:0:0:0:
238,287,55924,2,0,P|251:251|267:217,1,75.0000028610231,8|0,0:1|0:0,0:0:0:0:
469,171,56197,5,8,0:1:0:0:
444,253,56470,1,2,0:0:0:0:
361,220,56742,2,0,P|375:170|409:70,1,150.000005722046,8|2,0:0|0:0,0:0:0:0:
493,8,57151,1,0,0:0:0:0:
507,25,57288,6,0,B|439:-5|390:43|417:43|377:100|299:70,1,225.000008583069,2|0,0:3|0:0,0:0:0:0:
216,104,57833,1,8,0:0:0:0:
152,35,57970,1,0,0:0:0:0:
216,104,58106,2,0,P|207:143|203:178,1,75.0000028610231,8|0,0:1|0:0,0:0:0:0:
45,293,58379,6,0,P|97:243|167:257,1,150.000005722046,8|2,0:1|0:0,0:0:0:0:
178,268,58788,1,0,0:0:0:0:
236,344,58924,2,0,P|200:349|161:359,1,75.0000028610231,8|0,0:0|0:0,0:0:0:0:
320,195,59197,2,0,P|358:224|361:272,1,100.000003814697,8|8,0:1|0:1,0:0:0:0:
276,265,59470,6,0,P|282:211|298:101,1,150.000005722046,2|2,0:3|0:0,0:0:0:0:
373,69,59879,1,0,0:0:0:0:
454,30,60015,1,8,0:0:0:0:
295,116,60288,1,8,0:1:0:0:
141,209,60561,6,0,P|107:200|67:193,1,75.0000028610231,2|0,0:3|0:0,0:0:0:0:
0,86,60833,2,0,P|33:94|74:102,1,75.0000028610231,2|0,0:0|0:0,0:0:0:0:
173,69,61106,1,8,0:0:0:0:
171,53,61379,1,2,0:3:0:0:
169,38,61651,6,0,P|240:27|291:79,1,150.000005722046,2|2,0:3|0:0,0:0:0:0:
294,94,62061,1,0,0:0:0:0:
373,154,62197,2,0,P|382:118|391:71,1,75.0000028610231,8|0,0:0|0:0,0:0:0:0:
277,190,62470,2,0,P|267:225|259:273,1,75.0000028610231,8|0,0:1|0:0,0:0:0:0:
509,321,62742,5,8,0:1:0:0:
443,258,62879,1,0,0:0:0:0:
422,345,63015,1,2,0:0:0:0:
356,282,63151,1,0,0:0:0:0:
330,368,63288,2,0,P|293:363|256:362,1,75.0000028610231,8|0,0:0|0:0,0:0:0:0:
67,281,63561,2,0,P|118:272|157:298,1,100.000003814697,8|8,0:1|0:1,0:0:0:0:
170,384,63833,6,0,P|176:320|212:158,1,225.000008583069,2|0,0:3|0:0,0:0:0:0:
92,74,64379,2,0,P|105:108|114:145,1,75.0000028610231,8|0,0:0|0:0,0:0:0:0:
289,105,64651,2,0,P|302:139|311:176,1,75.0000028610231,8|0,0:1|0:0,0:0:0:0:
509,220,64924,1,8,0:1:0:0:
483,133,65061,1,0,0:0:0:0:
458,48,65197,1,2,0:0:0:0:
458,48,65470,6,0,P|390:32|297:10,1,150.000005722046,8|8,0:0|0:1,0:0:0:0:
294,8,65879,1,0,0:0:0:0:
289,105,66015,6,0,P|196:83|61:57,1,225.000008583069,2|0,0:3|0:0,0:0:0:0:
0,140,66561,2,0,P|36:147|72:158,1,75.0000028610231,8|0,0:0|0:0,0:0:0:0:
181,253,66833,2,0,P|173:216|164:179,1,75.0000028610231,8|0,0:1|0:0,0:0:0:0:
253,121,67106,6,0,P|269:205|288:288,1,150.000005722046,8|2,0:1|0:0,0:0:0:0:
290,284,67515,1,0,0:0:0:0:
316,375,67651,2,0,P|278:369|241:365,1,75.0000028610231,8|0,0:0|0:0,0:0:0:0:
372,234,67924,2,0,P|411:244|478:249,1,100.000003814697,8|8,0:1|0:1,0:0:0:0:
512,180,68197,6,0,P|521:106|451:73,1,150.000005722046,2|2,0:3|0:0,0:0:0:0:
286,45,68606,1,0,0:0:0:0:
381,20,68742,2,0,P|372:60|366:104,1,75.0000028610231,8|0,0:0|0:0,0:0:0:0:
205,89,69015,1,8,0:1:0:0:
205,89,69288,6,0,P|129:74|44:64,1,150.000005722046,2|2,0:3|0:0,0:0:0:0:
38,68,69697,1,0,0:0:0:0:
78,158,69833,2,0,P|73:204|63:251,1,75.0000028610231,8|0,0:0|0:0,0:0:0:0:
217,384,70106,2,0,P|256:303|222:258,1,150.000005722046,2|2,0:3|0:3,0:0:0:0:
167,173,70515,5,0,0:0:0:0:
165,187,70651,2,0,P|205:178|258:169,1,75.0000028610231,2|0,0:0|0:0,0:0:0:0:
398,50,70924,2,0,P|332:68|237:84,1,150.000005722046,8|8,0:0|0:1,0:0:0:0:
231,83,71333,1,0,0:0:0:0:
334,162,71470,6,0,P|325:203|315:253,1,75.0000028610231,8|0,0:1|0:0,0:0:0:0:
397,289,71742,1,2,0:0:0:0:
397,289,71879,1,0,0:0:0:0:
474,230,72015,6,0,P|483:189|493:139,1,75.0000028610231,8|0,0:0|0:0,0:0:0:0:
319,328,72288,2,0,P|367:326|396:288,1,100.000003814697,8|8,0:1|0:1,0:0:0:0:
318,235,72561,6,0,P|245:249|146:274,1,150.000005722046,2|2,0:3|0:0,0:0:0:0:
156,270,72970,1,0,0:0:0:0:
49,302,73106,2,0,P|57:265|63:228,1,75.0000028610231,8|0,0:0|0:0,0:0:0:0:
111,59,73379,6,0,P|164:107|153:179,2,150.000005722046,8|8|2,0:1|0:1|0:0,0:0:0:0:
94,54,74061,1,0,0:0:0:0:
2,160,74197,2,0,P|41:148|89:138,1,75.0000028610231,8|0,0:0|0:0,0:0:0:0:
250,100,74470,1,8,0:1:0:0:
250,100,74742,5,2,0:3:0:0:
312,34,74879,1,0,0:0:0:0:
401,44,75015,1,2,0:0:0:0:
450,118,75151,1,0,0:0:0:0:
418,202,75288,2,0,P|386:195|326:183,1,75.0000028610231,8|0,0:0|0:0,0:0:0:0:
196,227,75561,5,8,0:1:0:0:
192,210,75697,1,0,0:0:0:0:
264,137,75833,2,0,P|305:196|288:267,1,150.000005722046,8|2,0:1|0:0,0:0:0:0:
278,280,76242,1,0,0:0:0:0:
291,384,76379,5,8,0:0:0:0:
291,384,76561,2,0,P|219:353|152:360,1,100.000003814697,2|0,0:0|0:0,0:0:0:0:
59,381,76924,6,0,P|117:337|111:266,1,150.000005722046,2|2,0:3|0:0,0:0:0:0:
100,250,77333,1,0,0:0:0:0:
27,177,77470,5,8,0:0:0:0:
27,177,77651,2,0,P|78:167|124:152,1,100.000003814697,2|0,0:0|0:0,0:0:0:0:
209,201,78015,6,0,P|162:145|179:74,1,150.000005722046,8|2,0:1|0:0,0:0:0:0:
190,63,78424,1,0,0:0:0:0:
295,48,78561,2,0,P|285:88|277:138,1,75.0000028610231,8|0,0:0|0:0,0:0:0:0:
365,166,78833,2,0,B|413:179|438:161|428:149|459:124|518:138,1,150.000005722046,8|2,0:1|0:3,0:0:0:0:
505,135,79379,6,0,P|495:171|489:208,1,75.0000028610231,2|0,0:0|0:0,0:0:0:0:
446,363,79651,1,8,0:0:0:0:
512,301,79788,1,0,0:0:0:0:
425,275,79924,2,0,P|388:281|351:289,1,75.0000028610231,8|0,0:1|0:0,0:0:0:0:
235,149,80197,6,0,P|306:136|361:183,1,150.000005722046,8|2,0:1|0:0,0:0:0:0:
365,198,80606,1,0,0:0:0:0:
276,240,80742,2,0,P|268:277|262:314,1,75.0000028610231,8|0,0:0|0:0,0:0:0:0:
134,384,81015,2,0,P|112:365|143:277,1,100.000003814697,8|8,0:1|0:1,0:0:0:0:
177,249,81288,6,0,P|104:267|30:277,1,150.000005722046,2|2,0:3|0:0,0:0:0:0:
13,276,81697,1,0,0:0:0:0:
121,171,81833,2,0,P|127:134|135:97,1,75.0000028610231,8|0,0:0|0:0,0:0:0:0:
25,89,82106,1,8,0:1:0:0:
25,89,82379,6,0,P|133:59|246:35,1,225.000008583069,8|0,0:1|0:0,0:0:0:0:
409,111,82924,2,0,P|356:164|283:156,1,150.000005722046,8|8,0:0|0:1,0:0:0:0:
270,151,83333,1,0,0:0:0:0:
326,73,83470,6,0,P|332:36|340:0,1,75.0000028610231,2|0,0:3|0:0,0:0:0:0:
489,167,83742,2,0,P|495:130|502:93,1,75.0000028610231,2|0,0:0|0:0,0:0:0:0:
360,203,84015,5,8,0:0:0:0:
360,203,84151,1,0,0:0:0:0:
439,251,84288,1,8,0:1:0:0:
439,251,84424,1,0,0:0:0:0:
392,328,84561,6,0,P|355:337|320:350,1,75.0000028610231,8|0,0:1|0:0,0:0:0:0:
165,226,84833,2,0,P|92:220|44:274,1,150.000005722046,2|8,0:0|0:0,0:0:0:0:
210,374,85242,1,0,0:0:0:0:
222,384,85379,2,0,P|231:327|244:259,1,100.000003814697,8|8,0:1|0:1,0:0:0:0:
249,264,85651,6,0,P|285:255|321:244,1,75.0000028610231,2|0,0:3|0:0,0:0:0:0:
481,283,85924,2,0,P|444:291|408:302,1,75.0000028610231,2|0,0:0|0:0,0:0:0:0:
325,142,86197,5,8,0:0:0:0:
412,200,86333,1,2,0:0:0:0:
393,39,86470,5,8,0:1:0:0:
435,119,86606,1,2,0:0:0:0:
486,0,86742,5,8,0:1:0:0:
503,79,86879,1,2,0:0:0:0:
512,38,87015,5,2,0:0:0:0:
512,38,87288,6,0,B|432:0|368:77|411:65|373:150|261:112,1,269.999991760254,8|0,0:0|0:0,0:0:0:0:
195,81,87833,5,10,0:3:0:0:
195,81,88379,1,8,0:0:0:0:
115,48,89197,6,0,L|78:58,1,37.5000014305115,2|0,0:0|0:0,0:0:0:0:
25,116,89470,1,8,0:0:0:0:
91,158,89606,2,0,L|73:259,1,75.0000028610231,0|0,0:0|0:0,0:0:0:0:
149,265,90015,5,2,0:3:0:0:
149,265,90561,1,8,0:0:0:0:
224,297,91379,6,0,L|260:289,1,37.5000014305115,2|0,0:0|0:0,0:0:0:0:
331,324,91651,1,8,0:0:0:0:
387,268,91788,2,0,L|398:193,1,75.0000028610231,0|0,0:0|0:0,0:0:0:0:
453,137,92197,5,2,0:3:0:0:
453,137,92742,1,8,0:0:0:0:
398,74,93561,6,0,L|361:84,1,37.5000014305115,2|0,0:0|0:0,0:0:0:0:
289,53,93833,1,8,0:0:0:0:
240,115,93970,2,0,L|228:211,1,75.0000028610231,0|0,0:0|0:0,0:0:0:0:
182,252,94379,5,2,0:3:0:0:
57,74,94924,1,8,0:0:0:0:
124,128,95470,6,0,L|115:202,1,75.0000028610231,0|0,0:0|0:0,0:0:0:0:
115,202,96015,1,8,0:0:0:0:
182,252,96151,2,0,L|173:326,1,75.0000028610231,0|0,0:0|0:0,0:0:0:0:
239,369,96561,5,2,0:3:0:0:
414,226,97106,1,8,0:0:0:0:
381,368,97651,5,8,0:1:0:0:
381,368,97924,2,0,L|387:331,1,37.5000014305115,2|0,0:0|0:0,0:0:0:0:
456,292,98197,1,8,0:0:0:0:
414,226,98333,2,0,L|315:244,1,75.0000028610231,0|0,0:0|0:0,0:0:0:0:
266,210,98742,5,2,0:3:0:0:
442,42,99288,1,8,0:0:0:0:
265,12,99833,5,8,0:1:0:0:
265,12,100106,2,0,L|327:23,1,37.5000014305115,2|0,0:0|0:0,0:0:0:0:
366,64,100379,1,8,0:0:0:0:
442,42,100515,2,0,L|458:138,1,75.0000028610231,0|0,0:0|0:0,0:0:0:0:
425,189,100924,5,2,0:3:0:0:
512,360,101470,1,8,0:0:0:0:
369,268,102015,5,8,0:1:0:0:
412,353,102288,1,2,0:0:0:0:
311,341,102561,5,8,0:0:0:0:
321,362,102697,1,0,0:0:0:0:
465,275,103106,5,8,0:1:0:0:
465,275,104197,1,2,0:0:0:0:
465,275,105288,6,0,P|391:278|337:230,1,150.000005722046,10|2,0:3|0:0,0:0:0:0:
332,213,105697,1,0,0:0:0:0:
301,126,105833,2,0,P|337:133|375:135,1,75.0000028610231,8|0,0:0|0:0,0:0:0:0:
495,66,106106,2,0,P|458:59|420:56,1,75.0000028610231,8|0,0:1|0:0,0:0:0:0:
240,55,106379,5,8,0:1:0:0:
211,139,106515,1,0,0:0:0:0:
301,126,106651,1,2,0:0:0:0:
272,210,106788,1,0,0:0:0:0:
359,202,106924,2,0,P|345:245|336:284,1,75.0000028610231,8|0,0:0|0:0,0:0:0:0:
183,371,107197,2,0,P|173:323|204:286,1,100.000003814697,8|8,0:1|0:1,0:0:0:0:
274,344,107470,6,0,P|163:326|74:260,1,225.000008583069,2|0,0:3|0:0,0:0:0:0:
50,171,108015,2,0,P|86:179|123:186,1,75.0000028610231,8|0,0:0|0:0,0:0:0:0:
230,98,108288,2,0,P|266:106|303:113,1,75.0000028610231,8|0,0:1|0:0,0:0:0:0:
410,25,108561,5,8,0:1:0:0:
506,51,108833,1,2,0:0:0:0:
430,117,109106,2,0,P|406:188|397:262,1,150.000005722046,8|2,0:0|0:0,0:0:0:0:
480,334,109515,1,0,0:0:0:0:
494,317,109651,6,0,B|426:347|377:299|404:299|364:242|286:272,1,225.000008583069,2|0,0:3|0:0,0:0:0:0:
187,299,110197,1,8,0:0:0:0:
257,358,110333,1,0,0:0:0:0:
187,299,110470,2,0,P|196:260|200:225,1,75.0000028610231,8|0,0:1|0:0,0:0:0:0:
36,95,110742,6,0,P|88:145|161:139,1,150.000005722046,8|2,0:1|0:0,0:0:0:0:
322,58,111151,1,0,0:0:0:0:
245,0,111288,2,0,P|240:36|230:75,1,75.0000028610231,8|0,0:0|0:0,0:0:0:0:
431,190,111561,2,0,P|435:138|400:106,1,100.000003814697,8|8,0:1|0:1,0:0:0:0:
324,146,111833,6,0,P|307:222|296:298,1,150.000005722046,2|2,0:3|0:0,0:0:0:0:
384,312,112242,1,0,0:0:0:0:
472,332,112379,1,8,0:0:0:0:
296,293,112651,1,8,0:1:0:0:
121,247,112924,6,0,P|84:254|48:264,1,75.0000028610231,2|0,0:3|0:0,0:0:0:0:
242,156,113197,2,0,P|234:192|226:229,1,75.0000028610231,2|0,0:0|0:0,0:0:0:0:
178,347,113470,1,8,0:0:0:0:
182,331,113742,1,2,0:3:0:0:
186,316,114015,6,0,P|258:305|319:346,1,150.000005722046,2|2,0:3|0:0,0:0:0:0:
331,364,114424,1,0,0:0:0:0:
473,283,114561,2,0,P|436:290|399:299,1,75.0000028610231,8|0,0:0|0:0,0:0:0:0:
275,240,114833,2,0,P|311:233|347:223,1,75.0000028610231,8|0,0:1|0:0,0:0:0:0:
449,138,115106,5,8,0:1:0:0:
472,51,115242,1,0,0:0:0:0:
397,0,115379,1,2,0:0:0:0:
375,87,115515,1,0,0:0:0:0:
449,138,115651,2,0,P|441:186|429:229,1,75.0000028610231,8|0,0:0|0:0,0:0:0:0:
284,334,115924,2,0,P|256:295|267:244,1,100.000003814697,8|8,0:1|0:1,0:0:0:0:
344,201,116197,6,0,P|234:227|123:241,1,225.000008583069,2|0,0:3|0:0,0:0:0:0:
47,300,116742,2,0,P|38:263|24:228,1,75.0000028610231,8|0,0:0|0:0,0:0:0:0:
221,142,117015,2,0,P|212:105|198:70,1,75.0000028610231,8|0,0:1|0:0,0:0:0:0:
0,6,117288,1,8,0:1:0:0:
28,91,117424,1,0,0:0:0:0:
106,46,117561,1,2,0:0:0:0:
106,46,117833,6,0,P|183:31|272:16,1,150.000005722046,8|2,0:0|0:0,0:0:0:0:
271,12,118242,1,0,0:0:0:0:
247,113,118379,6,0,P|367:90|481:74,1,225.000008583069,2|0,0:3|0:0,0:0:0:0:
512,155,118924,2,0,P|502:191|496:228,1,75.0000028610231,8|0,0:0|0:0,0:0:0:0:
345,300,119197,2,0,P|398:289|449:284,1,75.0000028610231,8|0,0:1|0:0,0:0:0:0:
275,199,119470,6,0,P|260:276|249:367,1,150.000005722046,8|2,0:1|0:0,0:0:0:0:
254,365,119879,1,0,0:0:0:0:
165,380,120015,2,0,P|127:374|90:370,1,75.0000028610231,8|0,0:0|0:0,0:0:0:0:
0,205,120288,2,0,P|32:241|81:244,1,100.000003814697,8|8,0:1|0:1,0:0:0:0:
160,284,120561,6,0,P|170:207|191:117,1,150.000005722046,2|2,0:3|0:0,0:0:0:0:
271,165,120970,1,0,0:0:0:0:
345,114,121106,2,0,P|352:79|358:40,1,75.0000028610231,8|0,0:0|0:0,0:0:0:0:
127,61,121379,1,8,0:1:0:0:
127,61,121651,6,0,P|179:95|268:64,1,150.000005722046,2|2,0:3|0:0,0:0:0:0:
269,56,122061,1,0,0:0:0:0:
357,40,122197,2,0,P|352:86|342:133,1,75.0000028610231,8|0,0:0|0:0,0:0:0:0:
466,259,122470,2,0,B|501:237|515:198|515:198|507:165|471:133,1,150.000005722046,2|2,0:3|0:3,0:0:0:0:
465,127,122879,1,0,0:0:0:0:
326,210,123015,6,0,P|362:201|399:194,1,75.0000028610231,2|0,0:0|0:0,0:0:0:0:
465,346,123288,2,0,P|391:358|316:377,1,150.000005722046,8|8,0:0|0:1,0:0:0:0:
298,384,123697,1,0,0:0:0:0:
131,245,123833,6,0,P|125:289|115:339,1,75.0000028610231,8|0,0:1|0:0,0:0:0:0:
206,384,124106,2,0,P|214:317|231:229,1,150.000005722046,2|8,0:0|0:0,0:0:0:0:
237,217,124515,1,0,0:0:0:0:
418,187,124651,2,0,P|389:225|340:228,1,100.000003814697,8|8,0:1|0:1,0:0:0:0:
299,152,124924,6,0,P|226:138|127:113,1,150.000005722046,2|2,0:3|0:0,0:0:0:0:
130,115,125333,1,0,0:0:0:0:
38,164,125470,2,0,P|32:122|24:81,1,75.0000028610231,8|0,0:0|0:0,0:0:0:0:
124,216,125742,1,8,0:1:0:0:
228,15,126015,5,8,0:1:0:0:
228,15,126288,2,0,P|233:55|242:96,1,75.0000028610231,2|0,0:0|0:0,0:0:0:0:
300,156,126561,1,8,0:0:0:0:
373,104,126697,1,0,0:0:0:0:
433,170,126833,2,0,P|470:175|507:177,1,75.0000028610231,8|0,0:1|0:0,0:0:0:0:
372,304,127106,1,2,0:3:0:0:
372,304,127379,6,0,P|364:267|359:230,1,75.0000028610231,2|0,0:0|0:0,0:0:0:0:
228,101,127651,2,0,P|201:168|243:228,1,150.000005722046,8|8,0:0|0:1,0:0:0:0:
261,236,128061,1,0,0:0:0:0:
380,136,128197,6,0,P|343:145|306:151,1,75.0000028610231,8|0,0:1|0:0,0:0:0:0:
148,67,128470,2,0,P|221:53|295:42,1,150.000005722046,2|8,0:0|0:0,0:0:0:0:
320,47,128879,1,0,0:0:0:0:
482,139,129015,2,0,P|489:102|498:65,1,75.0000028610231,8|0,0:1|0:0,0:0:0:0:
417,0,129288,6,0,P|398:72|382:148,1,150.000005722046,2|2,0:3|0:0,0:0:0:0:
421,227,129697,1,0,0:0:0:0:
353,285,129833,2,0,P|316:288|258:294,1,75.0000028610231,8|0,0:0|0:0,0:0:0:0:
166,214,130106,2,0,P|203:211|261:205,1,75.0000028610231,8|0,0:1|0:0,0:0:0:0:
126,384,130379,6,0,P|73:333|93:264,1,150.000005722046,2|2,0:3|0:0,0:0:0:0:
166,214,130788,1,0,0:0:0:0:
100,152,130924,2,0,P|104:114|111:77,1,75.0000028610231,8|0,0:0|0:0,0:0:0:0:
302,4,131197,2,0,P|297:41|290:78,1,75.0000028610231,2|0,0:3|0:0,0:0:0:0:
196,120,131470,1,2,0:3:0:0:
196,120,131742,6,0,P|201:81|213:36,1,75.0000028610231,2|0,0:0|0:0,0:0:0:0:
275,171,132015,2,0,P|347:182|405:135,1,150.000005722046,8|8,0:0|0:1,0:0:0:0:
409,117,132424,1,0,0:0:0:0:
486,13,132561,6,0,P|449:19|412:27,1,75.0000028610231,8|0,0:1|0:0,0:0:0:0:
320,91,132833,2,0,P|283:98|246:105,1,75.0000028610231,2|0,0:0|0:0,0:0:0:0:
74,57,133106,1,8,0:0:0:0:
170,24,133242,2,0,P|156:103|145:216,1,175.00000667572,0|8,0:0|0:1,0:0:0:0:
207,268,133651,5,2,0:3:0:0:
207,268,133924,1,2,0:0:0:0:
282,218,134061,2,0,P|354:207|412:262,1,150.000005722046,2|0,0:0|0:0,0:0:0:0:
492,289,134470,6,0,P|418:302|344:318,2,150.000005722046,8|8|2,0:1|0:1|0:0,0:0:0:0:
512,295,135151,1,0,0:0:0:0:
473,202,135288,2,0,P|478:164|487:128,1,75.0000028610231,8|0,0:0|0:0,0:0:0:0:
340,0,135561,2,0,P|335:37|326:73,1,75.0000028610231,8|0,0:1|0:0,0:0:0:0:
432,49,135833,1,6,0:3:0:0:
432,49,136106,6,0,P|475:41|522:31,1,75.0000028610231,2|0,0:0|0:0,0:0:0:0:
395,147,136379,2,0,P|329:157|238:180,1,150.000005722046,8|8,0:0|0:1,0:0:0:0:
228,186,136788,1,0,0:0:0:0:
59,94,136924,6,0,P|52:130|44:167,1,75.0000028610231,8|0,0:1|0:0,0:0:0:0:
127,224,137197,2,0,P|139:150|154:76,1,150.000005722046,2|8,0:0|0:0,0:0:0:0:
164,57,137606,1,0,0:0:0:0:
228,186,137742,2,0,P|276:186|313:154,1,100.000003814697,8|8,0:1|0:1,0:0:0:0:
321,127,138015,5,2,0:0:0:0:
256,192,138151,12,2,140197,0:0:0:0:
353,183,140742,5,8,0:0:0:0:
353,183,141833,1,8,0:0:0:0:
427,232,142379,5,2,0:0:0:0:
403,313,142924,1,8,0:0:0:0:
403,313,144015,1,8,0:0:0:0:
323,268,144561,5,2,0:0:0:0:
353,183,145106,1,8,0:0:0:0:
353,183,146197,1,8,0:0:0:0:
291,119,146742,5,8,0:1:0:0:
234,282,147288,1,8,0:1:0:0:
225,59,147833,5,8,0:1:0:0:
168,222,148379,1,8,0:0:0:0:
137,123,148924,5,2,0:0:0:0:
254,160,151106,1,2,0:0:0:0:
51,185,153288,5,2,0:0:0:0:
168,222,155470,1,2,0:0:0:0:
79,272,156561,5,2,0:0:0:0:
