osu file format v14

[General]
AudioFilename: audio.mp3
AudioLeadIn: 0
PreviewTime: 38116
Countdown: 0
SampleSet: Soft
StackLeniency: 0.7
Mode: 0
LetterboxInBreaks: 1
WidescreenStoryboard: 1

[Editor]
Bookmarks: 73662
DistanceSpacing: 0.8
BeatDivisor: 4
GridSize: 8
TimelineZoom: 1

[Metadata]
Title:Show Yourself
TitleUnicode:Show Yourself
Artist:CG5
ArtistUnicode:CG5
Creator:Doom05
Version:Normal
Source:
Tags:pop english among us wonchop
BeatmapID:2633382
BeatmapSetID:1265155

[Difficulty]
HPDrainRate:5
CircleSize:4.5
OverallDifficulty:5
ApproachRate:5
SliderMultiplier:1.6
SliderTickRate:2

[Events]
//Background and Video events
0,0,"maxresdefault.jpg",0,0
Video,0,"video.mp4"
//Break Periods
2,129323,143240
//Storyboard Layer 0 (Background)
//Storyboard Layer 1 (Fail)
//Storyboard Layer 2 (Pass)
//Storyboard Layer 3 (Foreground)
//Storyboard Layer 4 (Overlay)
//Storyboard Sound Samples

[TimingPoints]
50,504.19320683686,4,2,0,60,1,0
38368,-100,4,1,0,60,0,1
84754,-100,4,1,0,60,0,0
98871,-100,4,1,0,60,0,1
129123,-100,4,2,0,60,0,0
145257,-100,4,1,0,60,0,0
161391,-100,4,1,0,60,0,1
189626,-100,4,2,0,60,0,0

[Colours]
Combo1 : 255,128,255
Combo2 : 255,0,0
Combo3 : 0,255,255
Combo4 : 128,255,0

[HitObjects]
32,32,7108,5,0,0:0:0:0:
32,96,7360,1,0,0:0:0:0:
32,160,7612,1,0,0:0:0:0:
32,224,7864,1,0,0:0:0:0:
32,288,8117,1,0,0:0:0:0:
160,288,8621,1,2,0:0:0:0:
480,288,9629,1,0,0:0:0:0:
352,288,10133,1,2,0:0:0:0:
480,32,10890,5,0,0:0:0:0:
416,32,11142,1,0,0:0:0:0:
352,32,11394,1,0,0:0:0:0:
288,32,11646,1,2,0:0:0:0:
224,32,11898,1,0,0:0:0:0:
160,32,12150,2,0,L|160:192,1,160,0|2,0:0|0:0,0:0:0:0:
224,192,12906,2,0,L|224:352,1,160
288,352,13663,1,2,0:0:0:0:
288,288,13915,1,0,0:0:0:0:
288,224,14167,1,6,0:0:0:0:
256,32,14671,1,2,0:0:0:0:
224,224,15175,1,2,0:0:0:0:
32,192,15679,5,0,0:0:0:0:
160,192,16184,1,2,0:0:0:0:
256,32,16940,1,0,0:0:0:0:
320,32,17192,2,0,L|320:272,1,240,0|2,0:0|0:0,0:0:0:0:
32,352,18705,1,0,0:0:0:0:
160,352,19209,1,4,0:0:0:0:
256,256,19713,1,0,0:0:0:0:
256,192,19965,1,4,0:0:0:0:
32,32,23242,5,0,0:0:0:0:
32,96,23494,1,0,0:0:0:0:
32,160,23746,1,0,0:0:0:0:
32,224,23998,1,0,0:0:0:0:
32,288,24251,1,4,0:0:0:0:
160,288,24755,1,8,0:0:0:0:
480,288,25763,1,10,0:0:0:0:
352,288,26267,1,0,0:0:0:0:
480,32,27024,5,0,0:0:0:0:
416,32,27276,1,0,0:0:0:0:
352,32,27528,1,0,0:0:0:0:
288,32,27780,1,10,0:0:0:0:
224,32,28032,1,0,0:0:0:0:
160,32,28284,2,0,L|160:192,1,160,0|10,0:0|0:0,0:0:0:0:
224,192,29040,2,0,L|224:352,1,160
288,352,29797,1,10,0:0:0:0:
288,288,30049,1,0,0:0:0:0:
288,224,30301,1,6,0:0:0:0:
256,32,30805,1,10,0:0:0:0:
224,224,31309,1,2,0:0:0:0:
32,192,31813,5,8,0:0:0:0:
160,192,32318,1,2,0:0:0:0:
256,32,33074,1,0,0:0:0:0:
320,32,33326,2,0,L|320:272,1,240,0|2,0:0|0:0,0:0:0:0:
32,352,34839,1,8,0:0:0:0:
160,352,35343,1,4,0:0:0:0:
256,256,35847,1,8,0:0:0:0:
256,192,36099,1,4,0:0:0:0:
224,32,38116,5,0,0:0:0:0:
288,32,38368,2,0,L|408:32,2,120
288,96,39377,1,0,0:0:0:0:
288,160,39629,1,0,0:0:0:0:
288,224,39881,1,8,0:0:0:0:
288,224,40889,1,8,0:0:0:0:
288,32,42150,5,0,0:0:0:0:
224,32,42402,2,0,L|64:32,2,160,0|8|0,0:0|0:0|0:0,0:0:0:0:
224,96,43663,1,0,0:0:0:0:
224,160,43915,1,8,0:0:0:0:
224,160,44923,1,8,0:0:0:0:
256,224,45175,5,0,0:0:0:0:
320,224,45427,2,2,L|480:224,1,160,2|10,0:0|0:0,0:0:0:0:
480,96,46435,1,4,0:0:0:0:
480,32,46687,1,0,0:0:0:0:
352,32,47192,1,0,0:0:0:0:
288,32,47444,1,0,0:0:0:0:
288,96,47696,1,0,0:0:0:0:
288,224,48200,1,0,0:0:0:0:
224,224,48452,2,0,B|184:280|136:280|96:224,1,160,0|8,0:0|0:0,0:0:0:0:
96,160,49208,1,0,0:0:0:0:
32,160,49461,1,0,0:0:0:0:
32,96,49713,1,8,0:0:0:0:
32,96,49965,1,8,0:0:0:0:
176,32,50469,6,0,L|336:32,2,160,0|8|0,0:0|0:0|0:0,0:0:0:0:
256,160,51981,1,10,0:0:0:0:
336,288,52486,2,0,L|176:288,2,160,0|8|0,0:0|0:0|0:0,0:0:0:0:
336,224,53746,1,0,0:0:0:0:
336,160,53998,1,8,0:0:0:0:
224,32,54502,6,0,L|104:32,2,120
224,96,55511,1,0,0:0:0:0:
224,160,55763,1,0,0:0:0:0:
224,224,56015,1,8,0:0:0:0:
224,224,57023,1,8,0:0:0:0:
224,32,58284,5,0,0:0:0:0:
288,32,58536,2,0,L|448:32,2,160,0|8|0,0:0|0:0|0:0,0:0:0:0:
288,96,59797,1,0,0:0:0:0:
288,160,60049,1,8,0:0:0:0:
288,160,61057,1,8,0:0:0:0:
256,224,61309,5,0,0:0:0:0:
192,224,61561,2,2,L|32:224,1,160,2|10,0:0|0:0,0:0:0:0:
32,96,62569,1,4,0:0:0:0:
32,32,62821,1,0,0:0:0:0:
160,32,63326,1,0,0:0:0:0:
224,32,63578,1,0,0:0:0:0:
224,96,63830,1,0,0:0:0:0:
224,224,64334,1,0,0:0:0:0:
288,224,64586,2,0,B|328:280|376:280|416:224,1,160,0|8,0:0|0:0,0:0:0:0:
416,160,65342,1,0,0:0:0:0:
480,160,65595,1,0,0:0:0:0:
480,96,65847,1,8,0:0:0:0:
480,96,66099,1,8,0:0:0:0:
336,32,66603,6,0,L|176:32,2,160,0|8|0,0:0|0:0|0:0,0:0:0:0:
256,160,68115,1,10,0:0:0:0:
256,224,68368,5,0,0:0:0:0:
192,224,68620,2,0,L|192:344,2,120
256,224,69628,1,0,0:0:0:0:
128,344,70132,1,8,0:0:0:0:
32,224,70637,6,0,L|224:80,1,240
288,80,71645,1,0,0:0:0:0:
336,32,71897,1,0,0:0:0:0:
384,80,72149,1,8,0:0:0:0:
320,224,72653,6,0,L|320:344,2,120
256,224,73661,1,0,0:0:0:0:
384,344,74165,1,8,0:0:0:0:
480,224,74670,6,0,L|288:80,1,240
224,80,75678,1,0,0:0:0:0:
176,32,75930,1,0,0:0:0:0:
128,80,76182,1,8,0:0:0:0:
32,192,76687,6,0,B|80:296|152:344|288:352,1,320
480,352,78199,1,8,0:0:0:0:
480,192,78704,2,0,B|432:88|360:40|224:32,1,320
32,32,80216,1,8,0:0:0:0:
32,32,80468,1,4,0:0:0:0:
32,192,81981,5,0,0:0:0:0:
96,192,82233,1,8,0:0:0:0:
224,192,82737,1,0,0:0:0:0:
352,192,83241,1,10,0:0:0:0:
416,192,83493,1,2,0:0:0:0:
480,192,83746,5,0,0:0:0:0:
480,32,84250,1,8,0:0:0:0:
288,32,84754,1,0,0:0:0:0:
288,192,85258,2,2,L|48:192,1,240,10|0,0:0|0:0,0:0:0:0:
32,256,86267,1,8,0:0:0:0:
224,256,86771,1,0,0:0:0:0:
256,32,87527,5,0,0:0:0:0:
192,32,87779,1,0,0:0:0:0:
192,96,88031,1,0,0:0:0:0:
128,96,88283,1,8,0:0:0:0:
64,96,88535,1,0,0:0:0:0:
32,160,88788,2,0,L|192:160,1,160,0|8,0:0|0:0,0:0:0:0:
256,160,89544,2,0,L|416:160,1,160
480,160,90300,1,8,0:0:0:0:
480,224,90552,1,0,0:0:0:0:
416,224,90804,1,0,0:0:0:0:
256,224,91308,1,8,0:0:0:0:
96,224,91813,1,0,0:0:0:0:
32,224,92065,5,0,0:0:0:0:
32,160,92317,1,8,0:0:0:0:
32,96,92569,1,0,0:0:0:0:
32,32,92821,1,4,0:0:0:0:
256,32,93577,1,0,0:0:0:0:
256,96,93829,1,0,0:0:0:0:
256,160,94082,1,0,0:0:0:0:
384,160,94586,1,0,0:0:0:0:
480,32,95090,1,0,0:0:0:0:
480,96,95342,1,10,0:0:0:0:
480,224,95846,2,2,B|480:280|448:328|400:352,1,160,2|10,0:0|0:0,0:0:0:0:
336,352,96602,1,4,0:0:0:0:
32,224,98619,5,0,0:0:0:0:
96,224,98871,1,0,0:0:0:0:
160,224,99123,1,0,0:0:0:0:
224,224,99376,1,8,0:0:0:0:
288,352,99880,1,0,0:0:0:0:
352,352,100132,1,0,0:0:0:0:
416,352,100384,1,8,0:0:0:0:
480,352,101392,1,8,0:0:0:0:
480,160,102653,5,0,0:0:0:0:
416,160,102905,2,0,L|256:160,1,160,0|8,0:0|0:0,0:0:0:0:
224,32,103914,1,0,0:0:0:0:
160,32,104166,1,0,0:0:0:0:
96,32,104418,1,8,0:0:0:0:
32,32,105426,1,8,0:0:0:0:
32,96,105678,5,0,0:0:0:0:
32,160,105930,2,2,L|192:160,1,160,2|10,0:0|0:0,0:0:0:0:
256,32,106938,1,4,0:0:0:0:
320,32,107191,1,0,0:0:0:0:
384,32,107443,1,8,0:0:0:0:
480,160,107947,1,0,0:0:0:0:
416,160,108200,1,0,0:0:0:0:
352,160,108452,1,8,0:0:0:0:
288,160,108703,1,0,0:0:0:0:
288,224,108955,2,0,L|384:352,2,160,0|8|0,0:0|0:0|0:0,0:0:0:0:
224,224,110216,1,8,0:0:0:0:
224,224,110468,1,8,0:0:0:0:
32,224,110972,6,0,B|32:144|32:144|112:144,2,160,0|8|0,0:0|0:0|0:0,0:0:0:0:
224,224,112485,1,8,0:0:0:0:
400,240,112989,2,0,B|480:240|480:240|480:160,2,160,0|8|0,0:0|0:0|0:0,0:0:0:0:
336,240,114249,1,0,0:0:0:0:
336,304,114502,1,8,0:0:0:0:
96,224,115005,5,0,0:0:0:0:
160,224,115257,1,0,0:0:0:0:
224,224,115510,1,8,0:0:0:0:
288,352,116014,1,0,0:0:0:0:
352,352,116266,1,0,0:0:0:0:
416,352,116518,1,8,0:0:0:0:
480,352,117526,1,8,0:0:0:0:
480,224,118283,5,0,0:0:0:0:
480,160,118535,1,8,0:0:0:0:
480,160,118787,1,0,0:0:0:0:
416,160,119039,2,0,L|256:160,1,160,0|8,0:0|0:0,0:0:0:0:
224,32,120048,1,0,0:0:0:0:
160,32,120300,1,0,0:0:0:0:
96,32,120552,1,8,0:0:0:0:
32,32,121560,1,8,0:0:0:0:
32,96,121812,5,0,0:0:0:0:
32,160,122064,2,2,L|192:160,1,160,2|10,0:0|0:0,0:0:0:0:
256,32,123072,1,4,0:0:0:0:
320,32,123325,1,0,0:0:0:0:
384,32,123577,1,8,0:0:0:0:
480,160,124081,1,0,0:0:0:0:
416,160,124334,1,0,0:0:0:0:
352,160,124585,1,8,0:0:0:0:
288,160,124837,1,0,0:0:0:0:
288,224,125089,2,0,L|384:352,2,160,0|8|0,0:0|0:0|0:0,0:0:0:0:
224,224,126350,1,8,0:0:0:0:
224,224,126602,1,8,0:0:0:0:
32,224,127106,6,0,B|32:144|32:144|112:144,2,160,0|8|0,0:0|0:0|0:0,0:0:0:0:
224,192,128619,1,8,0:0:0:0:
256,136,128871,1,0,0:0:0:0:
288,192,129123,1,0,0:0:0:0:
32,32,145257,5,4,0:0:0:0:
160,32,145761,1,0,0:0:0:0:
288,32,146266,1,0,0:0:0:0:
416,32,146770,1,0,0:0:0:0:
480,160,147274,5,0,0:0:0:0:
352,160,147778,1,0,0:0:0:0:
224,160,148283,1,0,0:0:0:0:
96,160,148787,1,0,0:0:0:0:
32,352,149291,6,0,L|32:192,1,160
96,352,150299,2,0,L|96:192,1,160
160,352,151307,2,0,L|160:112,1,240
160,48,152316,1,0,0:0:0:0:
256,160,152820,1,0,0:0:0:0:
320,32,153324,5,4,0:0:0:0:
320,96,153576,1,0,0:0:0:0:
320,160,153828,1,0,0:0:0:0:
192,32,154333,1,10,0:0:0:0:
192,96,154585,1,0,0:0:0:0:
192,160,154837,1,0,0:0:0:0:
320,224,155341,5,4,0:0:0:0:
320,288,155593,1,0,0:0:0:0:
320,352,155845,1,0,0:0:0:0:
192,224,156350,1,10,0:0:0:0:
192,288,156602,1,0,0:0:0:0:
192,352,156854,1,0,0:0:0:0:
256,192,157358,12,8,159375,3:0:0:0:
224,32,161139,5,0,0:0:0:0:
288,32,161391,2,0,L|408:32,2,120
288,96,162400,1,0,0:0:0:0:
288,160,162652,1,0,0:0:0:0:
288,224,162904,1,8,0:0:0:0:
288,224,163912,1,8,0:0:0:0:
32,224,165173,5,0,0:0:0:0:
96,224,165425,1,0,0:0:0:0:
160,224,165677,1,0,0:0:0:0:
224,224,165930,1,8,0:0:0:0:
288,352,166434,1,0,0:0:0:0:
352,352,166686,1,0,0:0:0:0:
416,352,166938,1,8,0:0:0:0:
256,160,167946,1,8,0:0:0:0:
256,224,168198,5,0,0:0:0:0:
320,224,168450,2,2,L|480:224,1,160,2|10,0:0|0:0,0:0:0:0:
480,96,169458,1,4,0:0:0:0:
480,32,169710,1,0,0:0:0:0:
352,32,170215,1,0,0:0:0:0:
288,32,170467,1,0,0:0:0:0:
288,96,170719,1,0,0:0:0:0:
288,224,171223,1,0,0:0:0:0:
224,224,171475,2,0,B|184:280|136:280|96:224,1,160,0|8,0:0|0:0,0:0:0:0:
96,160,172231,1,0,0:0:0:0:
32,160,172484,1,0,0:0:0:0:
32,96,172736,1,8,0:0:0:0:
32,96,172988,1,8,0:0:0:0:
256,32,173492,6,0,L|256:352,1,320
480,352,175005,5,8,0:0:0:0:
480,288,175257,1,0,0:0:0:0:
416,288,175509,1,0,0:0:0:0:
352,288,175761,1,0,0:0:0:0:
352,224,176013,2,0,L|192:224,1,160,8|0,0:0|0:0,0:0:0:0:
128,224,176769,1,0,0:0:0:0:
128,160,177021,1,8,0:0:0:0:
128,160,177273,1,0,0:0:0:0:
384,160,178030,1,8,0:0:0:0:
384,160,178282,1,0,0:0:0:0:
32,288,179290,5,0,0:0:0:0:
32,224,179542,2,0,L|152:224,1,120
256,224,180299,1,0,0:0:0:0:
320,224,180551,1,0,0:0:0:0:
384,224,180803,1,0,0:0:0:0:
384,160,181055,1,8,0:0:0:0:
384,160,181306,1,0,0:0:0:0:
128,160,182063,1,8,0:0:0:0:
128,96,182315,5,0,0:0:0:0:
128,32,182567,2,2,L|288:32,1,160,2|10,0:0|0:0,0:0:0:0:
288,224,183576,1,4,0:0:0:0:
288,224,183828,1,0,0:0:0:0:
480,160,184332,1,0,0:0:0:0:
416,160,184584,1,0,0:0:0:0:
352,160,184836,1,0,0:0:0:0:
288,160,185088,1,8,0:0:0:0:
224,160,185341,1,0,0:0:0:0:
160,160,185593,2,0,L|32:256,3,160,0|8|0|8,0:0|0:0|0:0|0:0,0:0:0:0:
256,192,187609,12,0,189626,0:0:0:0:
