osu file format v14

[General]
AudioFilename: audio.mp3
AudioLeadIn: 0
PreviewTime: 38116
Countdown: 0
SampleSet: Normal
StackLeniency: 0.7
Mode: 0
LetterboxInBreaks: 1
WidescreenStoryboard: 1

[Editor]
Bookmarks: 73662
DistanceSpacing: 0.8
BeatDivisor: 4
GridSize: 8
TimelineZoom: 1

[Metadata]
Title:Show Yourself
TitleUnicode:Show Yourself
Artist:CG5
ArtistUnicode:CG5
Creator:Doom05
Version:Insane
Source:
Tags:pop english among us wonchop
BeatmapID:2640306
BeatmapSetID:1265155

[Difficulty]
HPDrainRate:6
CircleSize:5
OverallDifficulty:7
ApproachRate:8
SliderMultiplier:3.2
SliderTickRate:2

[Events]
//Background and Video events
0,0,"maxresdefault.jpg",0,0
Video,0,"video.mp4"
//Break Periods
2,20217,22234
2,36351,37360
2,96855,97863
2,129323,143240
2,173492,174759
//Storyboard Layer 0 (Background)
//Storyboard Layer 1 (Fail)
//Storyboard Layer 2 (Pass)
//Storyboard Layer 3 (Foreground)
//Storyboard Layer 4 (Overlay)
//Storyboard Sound Samples

[TimingPoints]
50,504.19320683686,4,2,0,60,1,0
38368,-100,4,1,0,60,0,1
68116,-100,4,1,0,60,0,0
98871,-100,4,1,0,60,0,1
129123,-100,4,2,0,60,0,0
145257,-100,4,1,0,60,0,0
161391,-100,4,1,0,60,0,1
189626,-100,4,2,0,60,0,0

[Colours]
Combo1 : 255,128,255
Combo2 : 255,0,0
Combo3 : 0,255,255
Combo4 : 128,255,0

[HitObjects]
32,104,7108,6,0,L|480:280,1,480
480,192,8117,1,0,0:0:0:0:
288,32,8621,1,2,0:0:0:0:
32,192,9629,1,2,0:0:0:0:
224,352,10133,1,6,0:0:0:0:
288,32,10890,5,0,0:0:0:0:
416,32,11142,2,0,L|416:352,1,320
224,32,12150,2,2,B|144:48|72:96|40:168|32:256,1,320
120,352,12906,2,2,B|200:336|272:288|304:216|312:128,1,320,0|0,0:0|0:0,0:0:0:0:
368,32,13663,1,2,0:0:0:0:
480,32,13915,1,0,0:0:0:0:
480,160,14167,2,0,B|464:208|432:232|376:232|352:232,1,160,2|0,0:0|0:0,0:0:0:0:
256,160,14671,1,2,0:0:0:0:
160,232,14923,2,0,B|136:232|80:232|48:208|32:160,1,160,2|4,0:0|0:0,0:0:0:0:
128,32,15679,5,0,0:0:0:0:
256,32,15932,1,0,0:0:0:0:
384,32,16184,1,2,0:0:0:0:
384,352,16940,1,0,0:0:0:0:
256,352,17192,1,2,0:0:0:0:
128,352,17444,1,0,0:0:0:0:
256,192,17948,1,2,0:0:0:0:
256,32,18453,1,4,0:0:0:0:
128,32,18705,2,0,L|128:352,1,320,0|4,0:0|0:0,0:0:0:0:
384,224,19713,1,0,0:0:0:0:
384,352,19965,1,4,0:0:0:0:
480,104,23242,6,0,L|32:280,1,480
32,192,24251,1,4,0:0:0:0:
224,32,24755,1,10,0:0:0:0:
480,192,25763,1,8,0:0:0:0:
288,352,26267,1,6,0:0:0:0:
224,160,26772,1,8,0:0:0:0:
224,32,27024,5,0,0:0:0:0:
96,32,27276,2,0,L|96:352,1,320,0|8,0:0|0:0,0:0:0:0:
288,32,28284,2,2,B|368:48|440:96|472:168|480:256,1,320,2|10,0:0|0:0,0:0:0:0:
392,352,29040,2,2,B|312:336|240:288|208:216|200:128,1,320,0|0,0:0|0:0,0:0:0:0:
144,32,29797,1,10,0:0:0:0:
32,32,30049,1,0,0:0:0:0:
32,160,30301,2,0,B|48:208|80:232|112:232|160:224,1,160,2|0,0:0|0:0,0:0:0:0:
256,160,30805,1,10,0:0:0:0:
352,224,31057,2,0,B|400:232|432:232|464:208|480:160,1,160,0|4,0:0|0:0,0:0:0:0:
320,144,31562,5,0,0:0:0:0:
384,32,31813,1,8,0:0:0:0:
256,32,32066,1,0,0:0:0:0:
128,32,32318,1,6,0:0:0:0:
192,240,32822,1,8,0:0:0:0:
128,352,33074,1,0,0:0:0:0:
256,352,33326,1,2,0:0:0:0:
384,352,33578,1,0,0:0:0:0:
384,224,33830,1,8,0:0:0:0:
256,224,34082,1,2,0:0:0:0:
256,32,34587,1,4,0:0:0:0:
384,32,34839,2,0,L|384:352,1,320,8|4,0:0|0:0,0:0:0:0:
128,224,35847,1,8,0:0:0:0:
128,352,36099,1,4,0:0:0:0:
32,32,38116,5,0,0:0:0:0:
96,32,38242,1,0,0:0:0:0:
160,32,38368,2,0,L|160:192,1,160,4|0,0:0|0:0,0:0:0:0:
224,192,38746,2,0,L|224:32,1,160
288,32,39124,1,0,0:0:0:0:
384,32,39377,1,0,0:0:0:0:
336,120,39629,1,0,0:0:0:0:
224,192,39881,2,0,L|224:32,2,160,8|0|0,0:0|0:0|0:0,0:0:0:0:
32,32,40889,2,0,L|32:192,2,160,8|0|0,0:0|0:0|0:0,0:0:0:0:
96,192,41771,1,2,0:0:0:0:
96,192,41898,1,10,0:0:0:0:
32,352,42150,5,0,0:0:0:0:
96,352,42276,1,0,0:0:0:0:
160,352,42402,2,0,L|160:192,1,160,0|6,0:0|0:3,0:0:0:0:
288,352,42906,1,8,0:0:0:0:
288,352,43032,1,0,0:0:0:0:
288,352,43158,1,0,0:0:0:0:
416,352,43411,1,0,0:0:0:0:
344,248,43663,1,0,0:0:0:0:
224,192,43914,2,0,L|224:352,2,160,8|0|0,0:0|0:0|0:0,0:0:0:0:
32,352,44923,1,8,0:0:0:0:
32,192,45175,5,0,0:0:0:0:
120,72,45427,2,2,B|152:112|184:136|216:112|256:72|296:32|328:8|360:32|392:72,2,320,2|10|4,0:0|0:0|0:0,0:0:0:0:
32,224,46687,1,0,0:0:0:0:
224,224,46939,1,8,0:0:0:0:
256,352,47192,1,0,0:0:0:0:
256,352,47318,1,0,0:0:0:0:
256,352,47444,1,0,0:0:0:0:
288,224,47696,1,0,0:0:0:0:
480,224,47948,1,8,0:0:0:0:
480,96,48200,1,0,0:0:0:0:
416,104,48326,1,0,0:0:0:0:
352,112,48452,2,0,L|352:272,1,160
160,272,48956,2,0,L|160:112,2,160,8|0|0,0:0|0:0|0:0,0:0:0:0:
256,192,49713,1,8,0:0:0:0:
256,192,49965,1,8,0:0:0:0:
224,352,50217,5,0,0:0:0:0:
224,352,50343,1,0,0:0:0:0:
224,352,50469,1,0,0:0:0:0:
352,352,50721,1,4,3:0:0:0:
416,192,50973,2,0,L|416:352,1,160,8|0,0:0|2:0,0:0:0:0:
480,192,51477,2,0,B|480:32|480:32|320:32,1,320,0|10,0:0|0:0,0:0:0:0:
224,224,52360,1,0,0:0:0:0:
224,224,52486,1,0,0:0:0:0:
96,224,52738,1,0,0:0:0:0:
96,224,52864,1,0,0:0:0:0:
96,224,52990,1,8,0:0:0:0:
32,160,53242,2,2,L|352:160,1,320
480,160,53998,1,10,0:0:0:0:
480,32,54250,5,0,0:0:0:0:
416,32,54376,1,0,0:0:0:0:
352,32,54502,2,0,L|352:192,1,160,4|0,0:0|0:0,0:0:0:0:
288,192,54880,2,0,L|288:32,1,160
224,32,55258,1,0,0:0:0:0:
128,32,55511,1,0,0:0:0:0:
176,112,55763,1,0,0:0:0:0:
288,192,56015,2,0,L|288:32,2,160,8|0|0,0:0|0:0|0:0,0:0:0:0:
480,32,57023,2,0,L|480:192,2,160,8|0|0,0:0|0:0|0:0,0:0:0:0:
416,192,57905,1,2,0:0:0:0:
416,192,58032,1,10,0:0:0:0:
480,352,58284,5,0,0:0:0:0:
416,352,58410,1,0,0:0:0:0:
352,352,58536,2,0,L|352:192,1,160,0|6,0:0|0:3,0:0:0:0:
224,352,59040,1,8,0:0:0:0:
224,352,59166,1,0,0:0:0:0:
224,352,59292,1,0,0:0:0:0:
96,352,59545,1,0,0:0:0:0:
160,240,59797,1,0,0:0:0:0:
288,192,60048,2,0,L|288:352,2,160,8|0|0,0:0|0:0|0:0,0:0:0:0:
480,352,61057,1,8,0:0:0:0:
480,192,61309,5,0,0:0:0:0:
392,72,61561,2,2,B|360:112|328:136|296:112|256:72|216:32|184:8|152:32|120:72,2,320,2|10|4,0:0|0:0|0:0,0:0:0:0:
480,224,62821,1,0,0:0:0:0:
288,224,63073,1,8,0:0:0:0:
256,352,63326,1,0,0:0:0:0:
256,352,63452,1,0,0:0:0:0:
256,352,63578,1,0,0:0:0:0:
224,224,63830,1,0,0:0:0:0:
32,224,64082,1,8,0:0:0:0:
32,96,64334,1,0,0:0:0:0:
96,104,64460,1,0,0:0:0:0:
160,112,64586,2,0,L|160:272,1,160
352,272,65090,2,0,L|352:112,2,160,8|0|0,0:0|0:0|0:0,0:0:0:0:
256,192,65847,1,8,0:0:0:0:
256,192,66099,1,8,0:0:0:0:
288,352,66351,5,0,0:0:0:0:
288,352,66477,1,0,0:0:0:0:
288,352,66603,1,0,0:0:0:0:
160,352,66855,1,0,0:0:0:0:
96,192,67107,2,0,L|96:352,1,160,8|0,0:0|0:0,0:0:0:0:
32,192,67611,2,0,B|32:32|32:32|192:32,1,320,0|8,0:0|0:0,0:0:0:0:
256,192,68368,5,0,0:0:0:0:
256,320,68620,2,0,B|384:320|384:320|440:320|480:272,1,240
480,160,69376,2,2,L|160:160,1,320
32,160,70132,1,12,0:0:0:0:
224,32,70511,1,0,0:0:0:0:
224,96,70637,1,0,0:0:0:0:
320,96,70889,1,0,0:0:0:0:
320,160,71015,1,0,0:0:0:0:
416,160,71267,1,0,0:0:0:0:
416,224,71393,1,0,0:0:0:0:
416,352,71645,1,0,0:0:0:0:
288,352,71897,1,0,0:0:0:0:
168,352,72149,1,8,0:0:0:0:
256,192,72401,5,0,0:0:0:0:
256,64,72653,2,0,B|128:64|128:64|72:64|32:112,1,240
32,224,73409,2,2,L|352:224,1,320
480,224,74165,1,12,0:0:0:0:
288,352,74418,1,0,0:0:0:0:
288,288,74544,1,0,0:0:0:0:
288,224,74670,1,0,0:0:0:0:
288,128,74922,1,2,0:0:0:0:
224,128,75048,1,0,0:0:0:0:
32,128,75426,1,2,0:0:0:0:
128,32,75678,1,0,0:0:0:0:
256,32,75930,1,2,0:0:0:0:
384,32,76183,5,8,0:0:0:0:
480,128,76435,1,0,0:0:0:0:
480,256,76687,2,0,B|312:304|360:216|296:216|256:168|216:216|152:216|200:304|32:256,1,480,4|0,0:0|0:0,0:0:0:0:
96,112,77695,1,0,0:0:0:0:
256,112,77947,1,0,0:0:0:0:
416,112,78199,1,8,0:0:0:0:
480,256,78704,6,0,B|312:208|360:296|296:296|256:344|216:296|152:296|200:208|32:256,1,480
64,136,79712,1,0,0:0:0:0:
192,136,79964,1,0,0:0:0:0:
320,136,80216,1,8,0:0:0:0:
448,136,80468,1,4,0:0:0:0:
256,32,80973,1,0,3:0:0:0:
256,32,81225,1,8,0:0:0:0:
256,224,81729,1,4,3:0:0:0:
224,352,81981,5,2,0:2:0:0:
192,224,82233,2,0,L|32:224,1,160,10|0,0:2|0:0,0:0:0:0:
32,64,82737,2,0,L|192:64,1,160,2|0,0:2|0:0,0:0:0:0:
320,64,83241,1,14,0:2:0:0:
320,224,83493,1,2,0:2:0:0:
480,192,83746,5,0,0:0:0:0:
480,32,83998,1,0,0:0:0:0:
376,152,84250,1,8,0:0:0:0:
32,192,84754,1,4,0:0:0:0:
224,352,85258,2,10,B|336:344|400:264|400:120|336:40|224:32,1,480,10|0,0:0|0:0,0:0:0:0:
224,160,86267,1,8,0:0:0:0:
480,160,86771,1,0,0:0:0:0:
288,224,87275,1,8,0:0:0:0:
288,352,87527,5,0,0:0:0:0:
224,224,87779,2,0,B|184:224|144:224|112:248|96:296,1,160,2|0,0:0|0:0,0:0:0:0:
32,192,88283,1,8,0:0:0:0:
32,192,88535,1,2,0:0:0:0:
96,88,88788,2,0,B|112:136|144:160|184:160|224:160,1,160
256,32,89292,1,8,0:0:0:0:
288,160,89544,2,0,B|328:160|368:160|400:136|416:88,1,160
480,192,90048,1,0,0:0:0:0:
480,192,90300,1,8,0:0:0:0:
416,296,90552,2,0,B|400:248|368:224|328:224|288:224,1,160,0|2,0:0|0:0,0:0:0:0:
160,224,91056,1,0,0:0:0:0:
32,224,91308,1,10,0:0:0:0:
160,160,91561,1,2,0:0:0:0:
256,32,91813,6,0,B|336:32|416:32|480:72|480:192,1,320,0|8,0:0|0:0,0:0:0:0:
368,272,92569,1,0,0:0:0:0:
256,352,92821,2,0,B|176:352|96:352|32:312|32:192,1,320,4|8,0:0|0:0,0:0:0:0:
224,160,93577,1,0,0:0:0:0:
288,32,93829,1,0,0:0:0:0:
416,32,94082,2,0,B|472:88|472:88|424:144|424:248|480:312,1,320
352,312,94838,1,0,0:0:0:0:
224,312,95090,1,0,0:0:0:0:
104,352,95342,2,2,L|104:32,2,320,10|2|10,0:0|0:0|0:0,0:0:0:0:
104,352,96602,1,12,0:0:0:0:
288,32,98619,5,0,0:0:0:0:
288,96,98745,1,0,0:0:0:0:
288,160,98871,1,4,0:0:0:0:
384,96,99123,1,0,0:0:0:0:
480,32,99376,1,8,0:0:0:0:
480,96,99502,1,0,0:0:0:0:
480,160,99628,1,0,0:0:0:0:
480,288,99880,1,0,0:0:0:0:
368,352,100132,1,0,0:0:0:0:
256,288,100384,1,8,0:0:0:0:
256,160,100636,1,0,0:0:0:0:
376,120,100888,2,0,P|272:32|136:120,1,320,0|8,0:0|0:0,0:0:0:0:
136,264,101644,2,0,P|240:352|376:264,1,320
376,192,102275,1,2,0:0:0:0:
376,192,102401,1,10,0:0:0:0:
224,32,102653,5,0,0:0:0:0:
224,96,102779,1,0,0:0:0:0:
224,160,102905,1,0,0:0:0:0:
128,96,103157,1,4,0:3:0:0:
128,32,103283,1,0,0:0:0:0:
32,96,103536,1,0,0:0:0:0:
32,160,103662,1,0,0:0:0:0:
32,288,103914,1,0,0:0:0:0:
144,352,104166,1,0,0:0:0:0:
256,288,104418,1,8,0:0:0:0:
256,160,104670,1,0,0:0:0:0:
136,120,104922,2,0,P|240:32|376:120,1,320,0|8,0:0|0:0,0:0:0:0:
376,256,105678,1,0,0:0:0:0:
480,328,105930,6,2,B|360:320|360:320|296:288|296:288|168:296,2,320,2|10|4,0:0|0:0|0:0,0:0:0:0:
480,160,107191,1,0,0:0:0:0:
480,32,107443,1,8,0:0:0:0:
416,160,107695,1,0,0:0:0:0:
416,160,107821,1,0,0:0:0:0:
416,160,107947,1,0,0:0:0:0:
416,32,108199,1,0,0:0:0:0:
288,32,108451,1,8,0:0:0:0:
288,160,108703,1,0,0:0:0:0:
288,160,108829,1,0,0:0:0:0:
288,160,108955,2,2,L|128:160,1,160
32,280,109459,2,0,B|48:328|80:352|120:352|160:352,2,160,10|0|2,0:0|0:0|0:0,0:0:0:0:
32,160,110216,1,8,0:0:0:0:
32,160,110468,1,8,0:0:0:0:
224,160,110720,5,0,0:0:0:0:
288,160,110846,1,0,0:0:0:0:
352,160,110972,1,0,0:0:0:0:
440,72,111224,1,0,0:0:0:0:
480,192,111476,2,0,L|480:352,1,160,8|0,0:0|0:0,0:0:0:0:
352,352,111980,2,0,L|32:352,1,320,0|12,0:0|0:0,0:0:0:0:
32,192,112863,1,0,0:0:0:0:
96,192,112989,1,2,0:0:0:0:
192,192,113241,1,2,0:0:0:0:
256,192,113367,1,0,0:0:0:0:
320,192,113493,1,8,0:0:0:0:
480,192,113745,1,2,0:0:0:0:
480,64,113997,1,0,0:0:0:0:
352,32,114249,1,0,0:0:0:0:
224,32,114501,1,8,0:0:0:0:
224,32,114753,5,0,0:0:0:0:
224,96,114879,1,0,0:0:0:0:
224,160,115005,1,4,0:0:0:0:
128,96,115257,1,8,0:3:0:0:
32,32,115510,1,8,0:0:0:0:
32,160,115762,1,0,0:0:0:0:
32,288,116014,1,4,0:3:0:0:
144,352,116266,1,0,0:0:0:0:
256,288,116518,1,8,0:0:0:0:
256,160,116770,1,2,0:3:0:0:
136,120,117022,2,0,P|240:32|376:120,1,320,4|8,0:3|0:0,0:0:0:0:
376,264,117778,2,0,P|272:352|136:264,1,320
96,144,118535,6,0,B|192:120|200:208|200:208|208:136|256:128|304:136|312:208|312:208|328:120|416:144,1,480,8|6,0:0|0:3,3:0:0:0:
480,32,119543,1,8,0:0:0:0:
480,160,119795,1,0,0:0:0:0:
480,288,120047,1,4,0:3:0:0:
368,352,120299,1,0,0:0:0:0:
256,288,120551,1,8,0:0:0:0:
256,160,120803,1,2,0:3:0:0:
376,120,121055,2,0,P|272:32|136:120,1,320,4|8,0:3|0:0,0:0:0:0:
32,160,121812,5,0,0:0:0:0:
32,328,122064,2,2,B|152:320|152:320|216:288|216:288|344:296,2,320,2|10|4,0:0|0:0|0:0,0:0:0:0:
32,160,123325,1,0,0:0:0:0:
32,32,123577,1,8,0:0:0:0:
96,160,123829,1,0,0:0:0:0:
96,160,123955,1,0,0:0:0:0:
96,160,124081,1,0,0:0:0:0:
96,32,124333,1,0,0:0:0:0:
224,32,124585,1,8,0:0:0:0:
224,160,124837,1,0,0:0:0:0:
224,160,124963,1,0,0:0:0:0:
224,160,125089,2,0,L|384:160,1,160
480,280,125593,2,0,B|464:328|432:352|392:352|352:352,2,160,8|0|0,0:0|0:0|0:0,0:0:0:0:
480,160,126350,1,8,0:0:0:0:
480,160,126602,1,8,0:0:0:0:
320,192,126854,5,0,0:0:0:0:
256,192,126980,1,0,0:0:0:0:
192,192,127106,1,0,0:0:0:0:
32,32,127610,2,0,L|32:192,1,160,8|0,0:0|2:0,0:0:0:0:
32,352,128114,2,0,L|352:352,1,320,0|8,0:0|0:0,0:0:0:0:
480,352,128871,2,0,B|464:304|432:280|392:280|352:280,1,160,4|0,0:2|0:0,2:0:0:0:
96,48,145257,6,0,B|96:104|32:192|32:192|32:240|96:336,1,320,4|0,0:0|0:0,0:0:0:0:
416,336,146266,2,0,B|480:240|480:192|480:192|416:104|416:48,1,320
320,288,147274,6,0,B|224:288|176:456|128:288|32:288,1,320
192,96,148282,2,0,B|288:96|336:-72|384:96|480:96,1,320
384,352,149291,6,0,B|320:304|320:304|256:352|256:352|192:304|192:304|128:352,1,320
128,32,150299,2,0,B|192:80|192:80|256:32|256:32|320:80|320:80|384:32,1,320
480,192,151307,2,0,B|328:240|328:240|264:192|264:192|248:192|184:256|32:192,1,480
144,128,152316,1,0,0:0:0:0:
368,128,152820,1,0,0:0:0:0:
320,320,153324,5,12,0:0:0:0:
448,320,153576,1,0,0:0:0:0:
448,192,153828,1,0,0:0:0:0:
320,192,154081,1,0,0:0:0:0:
320,64,154333,1,2,0:0:0:0:
448,64,154585,1,0,0:0:0:0:
448,192,154837,1,0,0:0:0:0:
320,192,155089,1,0,0:0:0:0:
192,192,155341,5,8,0:0:0:0:
64,192,155593,1,0,0:0:0:0:
64,320,155845,1,0,0:0:0:0:
192,320,156097,1,0,0:0:0:0:
192,192,156349,1,2,0:0:0:0:
192,64,156601,1,0,0:0:0:0:
64,64,156854,1,0,0:0:0:0:
64,192,157106,1,0,0:0:0:0:
256,192,157358,12,8,159375,3:0:0:0:
32,32,161139,5,0,0:0:0:0:
96,32,161265,1,0,0:0:0:0:
160,32,161391,2,0,L|160:192,1,160,4|0,0:0|0:0,0:0:0:0:
224,192,161769,2,0,L|224:32,1,160
288,32,162147,1,0,0:0:0:0:
416,32,162400,1,0,0:0:0:0:
416,160,162652,1,0,0:0:0:0:
224,192,162904,2,0,L|224:32,2,160,8|0|0,0:0|0:0|0:0,0:0:0:0:
32,32,163912,2,0,L|32:192,2,160,8|0|0,0:0|0:0|0:0,0:0:0:0:
224,192,164794,1,2,0:0:0:0:
224,192,164921,1,10,0:0:0:0:
288,32,165173,5,0,0:0:0:0:
288,96,165299,1,0,0:0:0:0:
288,160,165425,1,0,0:0:0:0:
384,96,165677,1,6,0:3:0:0:
480,32,165930,1,8,0:0:0:0:
480,96,166056,1,0,0:0:0:0:
480,160,166182,1,0,0:0:0:0:
480,288,166434,1,0,0:0:0:0:
368,352,166686,1,0,0:0:0:0:
256,288,166938,1,8,0:0:0:0:
256,160,167190,1,0,0:0:0:0:
376,120,167442,2,0,P|272:32|136:120,1,320,0|8,0:0|0:0,0:0:0:0:
120,192,168198,5,0,0:0:0:0:
120,312,168450,2,2,B|152:272|184:248|216:272|256:312|296:352|328:376|360:352|392:312,2,320,2|10|4,0:0|0:0|0:0,0:0:0:0:
32,160,169710,1,0,0:0:0:0:
224,160,169962,1,8,0:0:0:0:
256,32,170215,1,0,0:0:0:0:
256,32,170341,1,0,0:0:0:0:
256,32,170467,1,0,0:0:0:0:
288,160,170719,1,0,0:0:0:0:
480,160,170971,1,8,0:0:0:0:
480,288,171223,1,0,0:0:0:0:
416,280,171349,1,0,0:0:0:0:
352,272,171475,2,0,L|352:112,1,160
160,112,171979,2,0,L|160:272,2,160,8|0|0,0:0|0:0|0:0,0:0:0:0:
256,192,172736,1,8,0:0:0:0:
256,192,172988,1,8,0:0:0:0:
32,32,175509,5,4,0:0:0:0:
160,32,175761,1,0,0:0:0:0:
288,32,176013,1,8,0:0:0:0:
352,32,176139,1,0,0:0:0:0:
416,32,176265,1,0,0:0:0:0:
480,160,176517,1,0,0:0:0:0:
352,160,176769,1,0,0:0:0:0:
224,160,177021,1,8,0:0:0:0:
96,160,177273,1,0,0:0:0:0:
32,280,177526,1,2,0:0:0:0:
32,280,177652,1,2,0:0:0:0:
32,280,177778,1,2,0:0:0:0:
160,280,178030,1,8,0:0:0:0:
288,280,178282,1,0,0:0:0:0:
416,280,178534,2,0,L|416:120,2,160,0|0|10,0:0|0:0|0:0,0:0:0:0:
480,160,179290,5,0,0:0:0:0:
480,96,179416,1,0,0:0:0:0:
480,32,179542,1,0,0:0:0:0:
352,32,179794,1,0,0:0:0:0:
288,32,179920,1,0,0:0:0:0:
160,32,180172,1,0,0:0:0:0:
96,32,180298,1,0,0:0:0:0:
32,160,180550,1,0,0:0:0:0:
160,160,180802,1,0,0:0:0:0:
288,160,181054,1,8,0:0:0:0:
416,160,181306,1,0,0:0:0:0:
480,280,181559,1,2,0:0:0:0:
480,280,181685,1,2,0:0:0:0:
480,280,181811,1,2,0:0:0:0:
352,280,182063,1,8,0:0:0:0:
224,280,182315,1,0,0:0:0:0:
96,280,182567,6,2,L|96:120,1,160
160,280,183072,2,2,B|160:120|160:120|320:120,1,320,10|6,0:0|0:0,0:0:0:0:
384,120,183702,1,0,0:0:0:0:
448,120,183828,1,0,0:0:0:0:
480,248,184080,1,8,0:0:0:0:
352,248,184332,1,0,0:0:0:0:
288,248,184458,1,0,0:0:0:0:
224,248,184584,2,0,B|168:248|168:248|168:352,2,160,0|0|8,0:0|0:0|0:0,0:0:0:0:
160,136,185341,1,0,0:0:0:0:
224,136,185467,1,0,0:0:0:0:
288,136,185593,2,2,B|344:136|344:136|344:32,1,160
480,136,186097,2,2,B|424:136|424:136|424:32,1,160,10|2,0:0|0:0,0:0:0:0:
480,224,186601,2,2,B|384:352|384:352|288:224,1,320,2|8,0:0|0:0,0:0:0:0:
256,192,187609,12,0,189626,0:0:0:0:
