osu file format v14

[General]
AudioFilename: audio.mp3
AudioLeadIn: 0
PreviewTime: 38116
Countdown: 0
SampleSet: Soft
StackLeniency: 0.7
Mode: 0
LetterboxInBreaks: 1
WidescreenStoryboard: 1

[Editor]
Bookmarks: 73662
DistanceSpacing: 0.8
BeatDivisor: 4
GridSize: 8
TimelineZoom: 1

[Metadata]
Title:Show Yourself
TitleUnicode:Show Yourself
Artist:CG5
ArtistUnicode:CG5
Creator:Doom05
Version:Easy
Source:
Tags:pop english among us wonchop
BeatmapID:2676879
BeatmapSetID:1265155

[Difficulty]
HPDrainRate:3
CircleSize:4
OverallDifficulty:3
ApproachRate:3
SliderMultiplier:1.6
SliderTickRate:2

[Events]
//Background and Video events
0,0,"maxresdefault.jpg",0,0
Video,0,"video.mp4"
//Break Periods
2,129323,143240
//Storyboard Layer 0 (Background)
//Storyboard Layer 1 (Fail)
//Storyboard Layer 2 (Pass)
//Storyboard Layer 3 (Foreground)
//Storyboard Layer 4 (Overlay)
//Storyboard Sound Samples

[TimingPoints]
50,504.19320683686,4,2,0,60,1,0
38368,-100,4,1,0,60,0,1
84754,-100,4,1,0,60,0,0
98871,-100,4,1,0,60,0,1
129123,-100,4,2,0,60,0,0
145257,-100,4,1,0,60,0,0
161391,-100,4,1,0,60,0,1
189626,-100,4,2,0,60,0,0

[Colours]
Combo1 : 255,128,255
Combo2 : 255,0,0
Combo3 : 0,255,255
Combo4 : 128,255,0

[HitObjects]
208,32,8117,5,0,0:0:0:0:
304,32,8621,1,2,0:0:0:0:
304,192,9629,1,0,0:0:0:0:
208,192,10133,1,6,0:0:0:0:
32,352,11142,5,2,0:0:0:0:
256,352,12150,2,0,B|336:352|416:328|480:280,2,240,0|2|4,0:0|0:0|0:0,0:0:0:0:
32,32,15679,5,0,0:0:0:0:
128,32,16184,1,4,0:0:0:0:
32,160,17192,2,0,L|272:160,1,240,0|2,0:0|0:0,0:0:0:0:
400,160,18705,1,0,0:0:0:0:
480,224,19209,2,6,B|448:296|368:336|288:352,1,240,6|2,0:0|0:0,0:0:0:0:
304,32,24251,5,4,0:0:0:0:
208,32,24755,1,8,0:0:0:0:
208,192,25763,1,8,0:0:0:0:
304,192,26267,1,6,0:0:0:0:
480,352,27276,5,2,0:0:0:0:
256,352,28284,2,0,B|176:352|96:328|32:280,2,240,0|2|12,0:0|0:0|0:0,0:0:0:0:
352,352,30301,2,2,L|352:112,1,240,6|2,0:0|0:0,0:0:0:0:
480,32,31813,5,8,0:0:0:0:
384,32,32318,1,4,0:0:0:0:
480,160,33326,2,0,L|240:160,1,240,0|2,0:0|0:0,0:0:0:0:
112,160,34839,1,8,0:0:0:0:
32,224,35343,2,2,B|64:296|144:336|224:352,1,240,6|2,0:0|0:0,0:0:0:0:
256,32,38368,5,4,0:0:0:0:
160,32,38872,1,8,0:0:0:0:
64,32,39377,1,0,0:0:0:0:
32,120,39881,1,8,0:0:0:0:
256,120,40889,1,8,0:0:0:0:
256,352,42402,5,0,0:0:0:0:
352,352,42906,1,8,0:0:0:0:
448,352,43411,1,0,0:0:0:0:
480,264,43915,1,8,0:0:0:0:
256,264,44923,1,8,0:0:0:0:
184,192,45427,6,0,B|184:24|328:24|328:192,2,320,0|4|0,0:0|0:0|0:0,0:0:0:0:
160,352,48452,1,0,0:0:0:0:
256,352,48956,1,8,0:0:0:0:
352,352,49460,1,4,0:0:0:0:
368,112,50469,6,0,L|368:272,2,160,0|8|4,0:0|0:0|0:0,0:0:0:0:
144,112,52486,2,0,L|144:272,2,160,0|8|0,0:0|0:0|0:0,0:0:0:0:
256,32,54502,5,4,0:0:0:0:
352,32,55006,1,8,0:0:0:0:
448,32,55511,1,0,0:0:0:0:
480,120,56015,1,8,0:0:0:0:
256,120,57023,1,8,0:0:0:0:
256,352,58536,5,0,0:0:0:0:
160,352,59040,1,8,0:0:0:0:
64,352,59545,1,0,0:0:0:0:
32,264,60049,1,8,0:0:0:0:
256,264,61057,1,8,0:0:0:0:
328,192,61561,6,0,B|328:24|184:24|184:192,2,320,0|4|0,0:0|0:0|0:0,0:0:0:0:
352,352,64586,1,0,0:0:0:0:
256,352,65090,1,8,0:0:0:0:
160,352,65594,1,4,0:0:0:0:
144,112,66603,6,0,L|144:272,2,160,0|8|4,0:0|0:0|0:0,0:0:0:0:
256,104,68620,6,0,L|256:344,1,240,4|0,0:0|0:0,0:0:0:0:
24,88,70637,2,0,B|184:16|328:16|488:88,1,480,4|8,0:0|0:0,0:0:0:0:
256,104,72653,6,0,L|256:344,1,240,4|0,0:0|0:0,0:0:0:0:
488,88,74670,2,0,B|328:16|184:16|24:88,1,480,4|8,0:0|0:0,0:0:0:0:
32,192,76687,6,0,B|48:248|128:336|200:352,1,240,4|0,0:0|0:0,0:0:0:0:
312,256,78199,1,8,0:0:0:0:
312,352,78704,2,0,B|384:336|464:248|480:192,1,240,4|0,0:0|0:0,0:0:0:0:
256,160,80468,1,4,0:0:0:0:
160,32,82233,5,8,0:0:0:0:
256,32,82737,1,0,0:0:0:0:
352,32,83241,1,10,0:0:0:0:
352,128,83746,5,0,0:0:0:0:
256,128,84250,1,8,0:0:0:0:
160,128,84754,1,4,0:0:0:0:
64,160,85258,2,10,B|0:264|0:264|0:304,1,160,10|2,0:0|0:0,0:0:0:0:
88,352,86267,1,8,0:0:0:0:
184,352,86771,1,4,0:0:0:0:
160,128,87779,5,0,0:0:0:0:
256,128,88283,1,8,0:0:0:0:
352,128,88787,1,4,0:0:0:0:
448,160,89291,2,0,B|512:264|512:264|512:304,1,160,8|0,0:0|0:0,0:0:0:0:
424,352,90300,1,8,0:0:0:0:
328,352,90804,1,4,0:0:0:0:
256,288,91308,1,8,0:0:0:0:
304,32,92317,5,8,0:0:0:0:
208,32,92821,1,4,0:0:0:0:
136,224,93829,2,2,L|376:224,1,240
320,352,95342,1,10,0:0:0:0:
224,352,95846,2,2,B|144:336|64:296|32:224,1,240,2|6,0:0|0:0,0:0:0:0:
208,32,98871,5,4,0:0:0:0:
304,32,99376,1,8,0:0:0:0:
304,128,99880,1,0,0:0:0:0:
208,128,100384,1,8,0:0:0:0:
208,128,101392,1,8,0:0:0:0:
304,352,102904,5,0,0:0:0:0:
208,352,103409,1,8,0:0:0:0:
208,256,103913,1,0,0:0:0:0:
304,256,104417,1,8,0:0:0:0:
304,256,105425,1,8,0:0:0:0:
408,160,105930,6,0,B|336:112|304:128|264:176|248:176|208:128|176:112|104:160,2,320,0|4|0,0:0|0:0|0:0,0:0:0:0:
352,32,108955,1,2,0:0:0:0:
256,32,109459,1,10,0:0:0:0:
160,32,109964,1,2,0:0:0:0:
64,240,110972,6,0,B|112:280|144:288|208:304,1,160,0|8,0:0|0:0,0:0:0:0:
304,304,111980,2,0,B|368:288|400:280|448:240,1,160,0|10,0:0|0:0,0:0:0:0:
376,160,112989,2,4,L|136:160,1,240
304,32,115006,5,4,0:0:0:0:
208,32,115511,1,8,0:0:0:0:
208,128,116015,1,0,0:0:0:0:
304,128,116519,1,8,0:0:0:0:
304,128,117527,1,8,0:0:0:0:
208,352,119039,5,0,0:0:0:0:
304,352,119544,1,8,0:0:0:0:
304,256,120048,1,0,0:0:0:0:
208,256,120552,1,8,0:0:0:0:
208,256,121560,1,8,0:0:0:0:
104,160,122065,6,0,B|176:112|208:128|248:176|264:176|304:128|336:112|408:160,2,320,0|4|0,0:0|0:0|0:0,0:0:0:0:
160,32,125090,1,2,0:0:0:0:
256,32,125594,1,10,0:0:0:0:
352,32,126099,1,2,0:0:0:0:
448,240,127107,6,0,B|400:280|368:288|304:304,1,160,0|8,0:0|0:0,0:0:0:0:
208,304,128115,2,0,B|144:288|112:280|64:240,2,160,0|10|0,0:0|0:0|0:0,0:0:0:0:
48,32,145257,6,0,L|208:32,1,160,4|0,0:0|0:0,0:0:0:0:
304,32,146266,2,0,L|464:32,1,160
464,144,147274,2,0,L|304:144,1,160
208,144,148283,2,0,L|48:144,1,160
48,240,149291,6,0,L|208:240,1,160
304,240,150300,2,0,L|464:240,1,160
464,352,151308,2,0,L|304:352,1,160
208,352,152316,1,0,0:0:0:0:
112,352,152820,1,10,0:0:0:0:
32,224,153324,5,12,0:0:0:0:
128,224,153828,1,0,0:0:0:0:
128,224,154080,1,0,0:0:0:0:
128,224,154333,1,2,0:0:0:0:
384,224,155341,5,12,0:0:0:0:
480,224,155845,1,0,0:0:0:0:
480,224,156097,1,0,0:0:0:0:
480,224,156350,1,2,0:0:0:0:
256,192,157358,12,8,159375,3:0:0:0:
256,32,161391,5,4,0:0:0:0:
352,32,161895,1,8,0:0:0:0:
448,32,162400,1,0,0:0:0:0:
480,120,162904,1,8,0:0:0:0:
256,120,163912,1,8,0:0:0:0:
304,352,165425,5,0,0:0:0:0:
208,352,165930,1,8,0:0:0:0:
208,256,166434,1,0,0:0:0:0:
304,256,166938,1,8,0:0:0:0:
304,256,167946,1,8,0:0:0:0:
328,192,168450,6,0,B|328:24|184:24|184:192,2,320,0|4|0,0:0|0:0|0:0,0:0:0:0:
352,352,171475,1,0,0:0:0:0:
256,352,171979,1,8,0:0:0:0:
160,352,172483,1,4,0:0:0:0:
208,32,175509,5,4,0:0:0:0:
208,32,175761,1,0,0:0:0:0:
208,32,176013,1,8,0:0:0:0:
304,32,176517,1,0,0:0:0:0:
400,32,177021,1,8,0:0:0:0:
480,88,177526,2,2,L|480:248,1,160,2|10,0:0|0:0,0:0:0:0:
304,352,179542,5,4,0:0:0:0:
304,352,179794,1,0,0:0:0:0:
304,352,180046,1,8,0:0:0:0:
208,352,180550,1,0,0:0:0:0:
112,352,181054,1,8,0:0:0:0:
32,296,181559,2,2,L|32:136,1,160,2|10,0:0|0:0,0:0:0:0:
144,160,182567,6,2,B|192:144|208:136|208:32,1,160,2|10,0:0|0:0,0:0:0:0:
304,32,183576,2,0,B|304:136|320:144|368:160,1,160,4|8,0:0|0:0,0:0:0:0:
464,160,184584,1,0,0:0:0:0:
464,160,184836,1,0,0:0:0:0:
464,160,185088,1,8,0:0:0:0:
480,256,185593,2,2,B|360:256|360:256|328:280,2,160,2|10|2,0:0|0:0|0:0,0:0:0:0:
480,352,187105,1,8,0:0:0:0:
256,192,187609,12,0,189626,0:0:0:0:
