osu file format v14

[General]
AudioFilename: audio.mp3
AudioLeadIn: 0
PreviewTime: 91273
Countdown: 0
SampleSet: Soft
StackLeniency: 0.7
Mode: 2
LetterboxInBreaks: 0
WidescreenStoryboard: 1

[Editor]
Bookmarks: 21378,41483,61588,81692,91745,111849,131797
DistanceSpacing: 1.2
BeatDivisor: 4
GridSize: 8
TimelineZoom: 3.899999

[Metadata]
Title:Virtual mode
TitleUnicode:Virtual mode
Artist:CELLON.
ArtistUnicode:CELLON.
Creator:JBHyperion
Version:Sanyi's Overdose
Source:
Tags:BMS オオグンタマ Ooguntama DRUM STEP drumstep BOFU 2016 Fighters JBH Sanyi instrumental electronic video rhythm game
BeatmapID:2291062
BeatmapSetID:1069501

[Difficulty]
HPDrainRate:6
CircleSize:4
OverallDifficulty:9.4
ApproachRate:9.4
SliderMultiplier:1.85
SliderTickRate:2

[Events]
//Background and Video events
0,0,"inconsistent_feeling_by_loundraw-d6z0n08.jpg",0,0
//Break Periods
2,11526,15812
//Storyboard Layer 0 (Background)
//Storyboard Layer 1 (Fail)
//Storyboard Layer 2 (Pass)
//Storyboard Layer 3 (Foreground)
//Storyboard Layer 4 (Overlay)
//Storyboard Sound Samples

[TimingPoints]
1274,314.13612565445,4,2,7,60,1,0
16352,-100,4,2,0,20,0,0
16666,-100,4,2,0,22,0,0
16980,-100,4,2,0,24,0,0
17294,-100,4,2,0,26,0,0
17609,-100,4,2,0,28,0,0
17923,-100,4,2,0,30,0,0
18237,-100,4,2,0,32,0,0
18551,-100,4,2,0,34,0,0
18865,-100,4,2,0,36,0,0
19180,-100,4,2,0,38,0,0
19493,-100,4,2,0,40,0,0
19807,-100,4,2,0,42,0,0
20121,-100,4,2,0,44,0,0
20435,-100,4,2,0,46,0,0
20750,-100,4,2,1,50,0,0
21064,-100,4,2,1,60,0,0
21378,-100,4,2,9,60,0,0
21535,-100,4,2,1,60,0,0
26404,-100,4,2,1,60,0,0
26561,-100,4,2,1,60,0,0
30174,-100,4,3,2,80,0,0
30802,-100,4,3,0,70,0,0
30881,-100,4,3,2,70,0,0
31431,-100,4,2,1,60,0,0
33944,-100,4,2,9,60,0,0
35200,-100,4,2,1,60,0,0
35514,-100,4,2,1,50,0,0
35828,-100,4,2,1,60,0,0
36143,-100,4,2,1,70,0,0
36457,-100,4,2,1,50,0,0
36771,-100,4,2,1,52,0,0
37085,-100,4,2,1,54,0,0
37399,-100,4,2,1,56,0,0
37714,-100,4,2,1,58,0,0
38027,-100,4,2,1,60,0,0
38969,-100,4,2,1,65,0,0
39284,-100,4,2,1,65,0,0
39598,-58.8235294117647,4,2,1,70,0,0
39912,-41.6666666666667,4,2,1,70,0,0
40226,-100,4,2,1,75,0,0
40855,-100,4,2,1,45,0,0
41483,-100,4,3,2,80,0,0
42739,-66.6666666666667,4,2,7,80,0,0
42975,-66.6666666666667,4,2,7,80,0,0
43211,-66.6666666666667,4,2,7,80,0,0
43368,-100,4,2,8,80,0,0
43682,-100,4,3,2,65,0,0
43996,-100,4,3,2,80,0,0
45253,-66.6666666666667,4,2,7,80,0,0
45488,-66.6666666666667,4,2,7,80,0,0
45725,-66.6666666666667,4,2,7,80,0,0
45881,-100,4,2,8,80,0,0
46077,-100,4,3,2,80,0,0
46196,-100,4,3,2,65,0,0
46509,-100,4,3,2,80,0,0
47137,-100,4,3,2,65,0,0
47766,-100,4,3,2,60,0,0
48080,-100,4,3,2,50,0,0
48394,-100,4,3,2,70,0,0
48708,-100,4,2,8,80,0,0
48865,-100,4,3,2,65,0,0
49022,-100,4,3,2,80,0,0
49650,-83.3333333333333,4,3,2,65,0,0
49965,-100,4,3,2,65,0,0
50593,-100,4,2,8,65,0,0
50750,-100,4,3,2,65,0,0
51535,-100,4,3,2,80,0,0
52792,-66.6666666666667,4,2,7,80,0,0
53027,-66.6666666666667,4,2,7,80,0,0
53263,-66.6666666666667,4,2,7,80,0,0
53420,-100,4,2,8,80,0,0
53734,-100,4,3,2,65,0,0
54048,-100,4,3,2,80,0,0
55305,-66.6666666666667,4,2,7,80,0,0
55541,-66.6666666666667,4,2,7,80,0,0
55776,-66.6666666666667,4,2,7,80,0,0
55933,-100,4,2,8,80,0,0
56130,-100,4,3,2,80,0,0
56247,-100,4,3,2,65,0,0
56561,-100,4,3,2,80,0,0
57268,-100,4,3,7,70,0,0
57818,-100,4,2,8,80,0,0
58132,-100,4,3,2,80,0,0
58760,-100,4,3,2,60,0,0
59075,-100,4,3,2,80,0,0
59703,-83.3333333333333,4,3,2,80,0,0
59781,-100,4,2,1,60,0,0
60017,-100,4,2,1,60,0,0
60331,-100,4,3,2,80,0,0
60488,-100,4,2,1,70,0,0
61588,-100,4,3,2,80,0,0
63865,-100,4,2,1,80,0,0
64101,-100,4,3,2,80,0,0
64493,-100,4,2,1,70,0,0
64729,-100,4,3,2,65,0,0
65043,-100,4,3,2,80,0,0
65986,-100,4,2,7,80,0,0
66025,-100,4,3,2,60,0,0
66143,-100,4,3,2,80,0,0
66182,-100,4,3,2,60,0,0
66300,-100,4,3,2,80,0,0
66339,-100,4,3,2,60,0,0
66457,-100,4,2,7,80,0,0
66496,-100,4,3,2,60,0,0
66614,-100,4,3,2,80,0,0
67870,-100,4,2,8,80,0,0
68106,-100,4,2,1,60,0,0
68499,-100,4,3,2,80,0,0
68813,-100,4,3,2,50,0,0
68970,-100,4,3,2,60,0,0
69127,-100,4,3,2,70,0,0
69284,-100,4,3,2,40,0,0
70383,-100,4,3,2,70,0,0
70698,-100,4,3,2,70,0,0
71012,-100,4,3,2,70,0,0
71247,-100,4,3,2,80,0,0
71640,-100,4,3,2,80,0,0
72268,-100,4,3,2,80,0,0
72425,-100,4,3,2,65,0,0
72582,-100,4,3,2,80,0,0
72739,-100,4,3,2,65,0,0
72897,-100,4,3,2,80,0,0
73211,-100,4,3,2,70,0,0
74389,-100,4,2,1,70,0,0
74781,-100,4,3,2,70,0,0
75017,-100,4,2,1,70,0,0
75410,-100,4,2,1,80,0,0
75567,-100,4,2,1,80,0,0
76038,-100,4,3,2,80,0,0
76509,-100,4,3,2,80,0,0
76666,-100,4,3,2,80,0,0
77137,-100,4,2,7,80,0,0
77609,-100,4,3,2,80,0,0
77687,-100,4,2,1,80,0,0
77923,-100,4,3,2,80,0,0
78394,-100,4,2,7,80,0,0
78865,-100,4,3,2,80,0,0
78904,-100,4,2,1,80,0,0
79179,-100,4,3,2,80,0,0
79219,-100,4,2,1,80,0,0
80122,-100,4,2,9,70,0,0
80436,-100,4,2,1,80,0,0
81692,-100,4,3,2,80,0,0
81849,-100,4,3,2,30,0,0
86719,-100,4,2,1,80,0,0
88014,-100,4,2,1,40,0,0
88289,-100,4,2,1,80,0,0
88878,-100,4,2,1,40,0,0
88996,-100,4,2,1,80,0,0
89035,-100,4,2,1,40,0,0
89232,-100,4,2,1,80,0,0
91273,-100,4,3,2,70,0,0
91431,-100,4,3,2,70,0,0
91745,-100,4,3,2,80,0,1
92373,-100,4,2,1,80,0,1
92687,-100,4,3,2,80,0,1
93944,-100,4,3,2,80,0,1
94101,-100,4,2,1,80,0,1
94258,-100,4,3,2,80,0,1
94886,-100,4,2,1,80,0,1
95200,-100,4,3,2,80,0,1
97399,-100,4,2,1,80,0,1
97713,-100,4,3,2,80,0,1
99284,-100,4,3,2,80,0,1
101169,-100,4,2,1,80,0,0
101797,-100,4,3,2,80,0,1
102425,-100,4,2,1,80,0,1
102739,-100,4,3,2,80,0,1
104310,-100,4,3,2,80,0,1
104467,-100,4,3,2,80,0,1
104938,-100,4,2,1,80,0,1
105253,-100,4,3,2,80,0,1
106195,-100,4,2,1,80,0,1
106509,-100,4,3,2,80,0,1
106666,-100,4,2,1,80,0,1
106823,-100,4,3,2,80,0,1
106980,-100,4,2,1,80,0,1
107137,-100,4,3,2,80,0,1
107923,-100,4,2,1,80,0,1
108080,-100,4,3,2,80,0,1
108237,-100,4,3,2,80,0,1
109336,-100,4,2,9,80,0,1
109493,-100,4,3,2,80,0,1
110043,-100,4,2,1,80,0,1
110279,-100,4,3,2,80,0,1
110593,-100,4,2,1,80,0,1
110750,-100,4,2,1,80,0,1
111221,-100,4,2,1,70,0,1
111535,-100,4,2,1,60,0,1
111849,-100,4,3,2,90,0,0
112006,-100,4,3,2,80,0,0
113263,-100,4,2,1,80,0,0
113420,-100,4,3,2,80,0,0
114520,-100,4,2,1,80,0,0
114677,-100,4,3,2,80,0,0
114991,-100,4,2,1,80,0,0
115148,-100,4,3,2,80,0,0
117033,-100,4,2,1,80,0,0
117190,-100,4,3,2,80,0,0
118289,-100,4,2,1,80,0,0
118446,-100,4,3,2,80,0,0
119232,-100,4,2,1,80,0,0
119389,-100,4,3,2,80,0,0
120017,-100,4,2,1,80,0,0
120174,-100,4,3,2,80,0,0
120802,-100,4,2,1,80,0,0
120959,-100,4,3,2,80,0,0
121116,-100,4,2,8,80,0,0
121902,-100,4,2,1,70,0,0

[Colours]
Combo1 : 100,255,100
Combo2 : 190,120,120
Combo3 : 255,128,64
Combo4 : 255,255,100

[HitObjects]
256,192,11326,5,4,0:0:0:0:
256,192,16352,12,0,20122,0:0:0:0:
344,304,20279,6,0,P|464:152|336:72,1,370,2|0,0:0|0:0,0:0:0:0:
192,184,21064,1,2,0:0:0:0:
238,184,21142,1,2,0:0:0:0:
284,184,21221,1,2,0:0:0:0:
330,184,21299,1,2,0:0:0:0:
144,336,21378,6,0,L|40:336,2,92.5,4|0|0,0:0|0:0|0:0,0:0:0:0:
368,272,21849,1,8,0:0:0:0:
275,272,22006,1,0,0:0:0:0:
183,272,22163,1,0,0:0:0:0:
352,176,22321,2,0,L|448:176,1,92.5,2|0,0:0|0:0,0:0:0:0:
216,352,22635,5,8,0:0:0:0:
142,304,22792,1,0,0:0:0:0:
142,215,22949,1,2,0:0:0:0:
217,168,23106,1,0,0:0:0:0:
384,72,23263,1,2,0:0:0:0:
292,72,23420,1,2,0:0:0:0:
384,72,23577,1,8,0:0:0:0:
476,72,23734,1,2,0:0:0:0:
240,192,23891,6,0,L|136:192,2,92.5,8|0|2,0:0|0:0|0:0,0:0:0:0:
408,344,24363,2,0,L|504:344,2,92.5,8|0|2,0:0|0:0|0:0,0:0:0:0:
240,280,24834,2,0,L|136:280,1,92.5,8|0,0:0|0:0,0:0:0:0:
408,192,25148,6,0,L|448:192,1,23.125,8|0,0:0|0:0,0:0:0:0:
304,192,25305,2,0,L|264:192,1,23.125,8|0,0:0|0:0,0:0:0:0:
456,104,25462,2,0,L|424:104,1,23.125,8|0,0:0|0:0,0:0:0:0:
312,104,25619,2,0,L|272:104,1,23.125,8|0,0:0|0:0,0:0:0:0:
112,344,25776,1,8,0:0:0:0:
65,344,25854,1,8,0:0:0:0:
19,344,25933,1,2,0:0:0:0:
65,344,26012,1,2,0:0:0:0:
240,264,26090,1,8,0:0:0:0:
336,264,26247,1,2,0:0:0:0:
312,264,26286,1,2,0:0:0:0:
289,264,26325,1,2,0:0:0:0:
144,176,26404,5,4,0:0:0:0:
236,176,26561,1,0,0:0:0:0:
329,176,26718,1,2,0:0:0:0:
104,96,26876,2,0,L|0:96,2,92.5,4|2|2,0:0|0:0|0:0,0:0:0:0:
272,96,27347,2,0,L|384:96,1,92.5,8|0,0:0|0:0,0:0:0:0:
136,312,27661,5,8,0:0:0:0:
62,264,27818,1,0,0:0:0:0:
62,175,27975,1,0,0:0:0:0:
137,128,28132,1,2,0:0:0:0:
304,64,28289,1,8,0:0:0:0:
211,64,28446,1,0,0:0:0:0:
440,336,28603,2,0,L|440:224,1,92.5,2|0,0:0|0:0,0:0:0:0:
208,184,28917,6,0,L|80:184,2,92.5,8|0|2,0:0|0:0|0:0,0:0:0:0:
376,96,29389,2,0,L|480:96,2,92.5,2|8|2,0:0|0:0|0:0,0:0:0:0:
328,96,29781,1,2,0:0:0:0:
168,320,29860,2,0,L|64:320,1,92.5,8|0,0:0|0:0,0:0:0:0:
336,248,30174,6,0,L|392:248,2,46.25,2|2|2,0:0|0:0|0:0,0:0:0:0:
96,160,30488,1,8,0:0:0:0:
192,96,30645,2,0,L|256:96,1,46.25,2|2,0:0|0:0,0:0:0:0:
96,96,30802,2,0,L|40:96,1,46.25,4|2,0:0|0:0,0:0:0:0:
256,168,30959,1,8,0:0:0:0:
160,320,31116,2,0,L|216:320,1,46.25,2|2,0:0|0:0,0:0:0:0:
352,320,31273,2,0,L|424:320,1,46.25,2|2,0:0|0:0,0:0:0:0:
160,248,31431,5,4,0:0:0:0:
86,200,31588,1,0,0:0:0:0:
86,111,31745,1,0,0:0:0:0:
161,64,31902,1,0,0:0:0:0:
328,248,32059,2,0,L|432:248,1,92.5,2|0,0:0|0:0,0:0:0:0:
248,152,32373,2,0,L|144:152,1,92.5,2|0,0:0|0:0,0:0:0:0:
328,248,32687,5,8,0:0:0:0:
402,200,32844,1,0,0:0:0:0:
402,111,33001,1,0,0:0:0:0:
327,64,33158,1,0,0:0:0:0:
160,248,33315,2,0,L|264:248,1,92.5,2|0,0:0|0:0,0:0:0:0:
424,152,33629,2,0,L|320:152,1,92.5,2|0,0:0|0:0,0:0:0:0:
104,344,33944,6,0,B|56:344|56:344|448:200,1,462.5,4|0,0:0|0:0,0:0:0:0:
280,256,34886,2,0,L|168:256,1,92.5,0|0,0:0|0:0,0:0:0:0:
416,256,35200,6,0,L|304:256,1,92.5,2|0,0:0|0:0,0:0:0:0:
96,96,35514,2,0,L|152:96,1,46.25,2|2,0:0|0:0,0:0:0:0:
288,96,35671,2,0,L|352:96,1,46.25,2|2,0:0|0:0,0:0:0:0:
168,184,35828,2,0,L|112:184,1,46.25,2|2,0:0|0:0,0:0:0:0:
272,184,35986,2,0,L|328:184,1,46.25,2|0,0:0|0:0,0:0:0:0:
144,304,36143,1,2,0:0:0:0:
122,296,36182,1,0,0:0:0:0:
106,280,36221,1,2,0:0:0:0:
100,258,36260,1,0,0:0:0:0:
104,235,36300,1,2,0:0:0:0:
118,217,36339,1,0,0:0:0:0:
139,208,36378,1,0,0:0:0:0:
328,304,36457,6,0,L|432:304,1,92.5,8|2,0:0|0:0,0:0:0:0:
328,160,36771,2,0,L|224:160,1,92.5,2|8,0:0|0:0,0:0:0:0:
408,160,37085,2,0,L|408:56,1,92.5,2|2,0:0|0:0,0:0:0:0:
312,32,37399,2,0,L|416:32,1,92.5,8|2,0:0|0:0,0:0:0:0:
144,280,37713,6,0,L|24:280,1,92.5,2|8,0:0|0:0,0:0:0:0:
144,192,38027,2,0,L|40:192,1,92.5,2|2,0:0|0:0,0:0:0:0:
280,112,38342,2,0,L|384:112,1,92.5,8|2,0:0|0:0,0:0:0:0:
200,40,38656,2,0,L|88:40,1,92.5,8|2,0:0|0:0,0:0:0:0:
336,336,38970,6,0,L|448:336,1,92.5,8|2,0:0|0:0,0:0:0:0:
176,336,39284,2,0,L|72:336,1,92.5,8|2,0:0|0:0,0:0:0:0:
336,248,39598,2,0,L|504:248,1,157.250002999306,8|2,0:0|0:0,0:0:0:0:
272,120,39912,2,0,L|496:120,1,221.999993225098,8|2,0:0|0:0,0:0:0:0:
272,248,40226,5,2,0:0:0:0:
16,360,40855,2,0,L|16:160,1,185,0|0,0:0|0:0,0:0:0:0:
104,176,41326,1,0,0:0:0:0:
384,96,41483,5,12,0:0:0:0:
360,96,41522,1,0,0:0:0:0:
337,96,41561,1,0,0:0:0:0:
314,96,41600,1,0,0:0:0:0:
291,96,41640,1,0,0:0:0:0:
268,96,41679,1,0,0:0:0:0:
245,96,41718,1,0,0:0:0:0:
432,360,41797,2,0,P|424:256|416:256,1,138.75,8|0,0:0|0:0,0:0:0:0:
248,216,42111,2,0,L|136:216,1,92.5,8|0,0:0|0:0,0:0:0:0:
400,152,42425,2,0,L|448:152,1,46.25,2|0,0:0|0:0,0:0:0:0:
400,152,42582,2,0,L|336:152,1,46.25,0|0,0:0|0:0,0:0:0:0:
184,240,42739,6,0,L|328:240,1,138.750005292893,8|0,0:0|0:0,0:0:0:0:
322,240,42975,2,0,L|464:240,1,138.750005292893,8|0,0:0|0:0,0:0:0:0:
460,240,43211,2,0,L|384:240,1,69.3750026464463,8|0,0:0|0:0,0:0:0:0:
200,160,43368,2,0,L|200:56,1,92.5,12|0,0:0|0:0,0:0:0:0:
424,136,43682,2,0,L|368:136,1,46.25,2|2,0:0|0:0,0:0:0:0:
232,136,43839,2,0,L|168:136,1,46.25,2|2,0:0|0:0,0:0:0:0:
408,320,43996,5,12,0:0:0:0:
429,312,44035,1,0,0:0:0:0:
445,296,44074,1,0,0:0:0:0:
451,274,44113,1,0,0:0:0:0:
447,251,44153,1,2,0:0:0:0:
433,233,44192,1,0,0:0:0:0:
412,224,44231,1,2,0:0:0:0:
216,64,44310,2,0,B|120:64|120:64|184:64,1,138.75,2|0,0:0|0:0,0:0:0:0:
352,328,44624,2,0,L|472:328,1,92.5,8|2,0:0|0:0,0:0:0:0:
216,224,44938,1,2,0:0:0:0:
176,192,45016,1,0,0:0:0:0:
176,147,45095,1,0,0:0:0:0:
216,121,45173,1,0,0:0:0:0:
408,320,45253,6,0,L|264:320,1,138.750005292893,8|0,0:0|0:0,0:0:0:0:
269,320,45488,2,0,L|128:320,1,138.750005292893,8|0,0:0|0:0,0:0:0:0:
130,320,45724,2,0,L|200:320,1,69.3750026464463,8|0,0:0|0:0,0:0:0:0:
392,248,45881,2,0,L|392:136,1,92.5,12|0,0:0|0:0,0:0:0:0:
344,144,46116,1,2,0:0:0:0:
136,56,46195,2,0,L|192:56,1,46.25,2|2,0:0|0:0,0:0:0:0:
328,56,46352,2,0,L|376:56,1,46.25,8|8,0:0|0:0,0:0:0:0:
152,256,46509,5,12,0:0:0:0:
130,248,46548,1,0,0:0:0:0:
114,232,46587,1,0,0:0:0:0:
108,210,46626,1,0,0:0:0:0:
112,187,46666,1,0,0:0:0:0:
126,169,46705,1,0,0:0:0:0:
147,160,46744,1,0,0:0:0:0:
344,240,46823,2,0,L|440:240,1,92.5,8|2,0:0|0:0,0:0:0:0:
96,352,47137,2,0,L|96:72,1,277.5,8|0,0:0|0:0,0:0:0:0:
400,232,47766,6,0,L|512:232,1,92.5,2|2,0:0|0:0,0:0:0:0:
328,120,48080,2,0,L|472:120,1,138.75,2|0,0:0|0:0,0:0:0:0:
272,344,48394,2,0,L|224:344,1,46.25,8|0,0:0|0:0,0:0:0:0:
400,344,48551,2,0,L|456:344,1,46.25,0|0,0:0|0:0,0:0:0:0:
256,224,48708,2,0,L|352:224,1,92.5,4|0,0:0|0:0,0:0:0:0:
304,168,48944,1,2,0:0:0:0:
88,224,49022,5,12,0:0:0:0:
76,204,49061,1,0,0:0:0:0:
72,181,49100,1,0,0:0:0:0:
75,158,49139,1,0,0:0:0:0:
86,138,49179,1,0,0:0:0:0:
103,122,49218,1,0,0:0:0:0:
124,113,49257,1,0,0:0:0:0:
288,80,49336,2,0,L|384:80,1,92.5,8|2,0:0|0:0,0:0:0:0:
112,144,49650,2,0,L|176:144,3,55.4999983062745,8|2|2|0,0:0|0:0|0:0|0:0,0:0:0:0:
376,336,49965,2,0,L|488:336,1,92.5,8|2,0:0|0:0,0:0:0:0:
184,240,50279,5,2,0:0:0:0:
32,240,50436,1,0,0:0:0:0:
272,136,50593,1,12,0:0:0:0:
424,136,50750,1,0,0:0:0:0:
176,192,50907,1,0,0:0:0:0:
416,288,51064,2,0,L|456:288,1,23.125,8|2,0:0|0:0,0:0:0:0:
208,288,51221,2,0,L|240:288,1,23.125,8|2,0:0|0:0,0:0:0:0:
464,200,51378,2,0,L|424:200,1,23.125,8|2,0:0|0:0,0:0:0:0:
152,120,51535,5,12,0:0:0:0:
176,120,51574,1,0,0:0:0:0:
199,120,51613,1,0,0:0:0:0:
222,120,51652,1,0,0:0:0:0:
245,120,51692,1,0,0:0:0:0:
268,120,51731,1,0,0:0:0:0:
291,120,51770,1,0,0:0:0:0:
104,304,51849,2,0,B|56:304|56:304|168:304,1,138.75,8|0,0:0|0:0,0:0:0:0:
336,264,52163,2,0,L|432:264,1,92.5,8|0,0:0|0:0,0:0:0:0:
184,176,52478,1,2,0:0:0:0:
144,144,52556,1,0,0:0:0:0:
145,99,52635,1,2,0:0:0:0:
185,71,52713,1,2,0:0:0:0:
368,336,52792,6,0,L|216:336,1,138.750005292893,8|0,0:0|0:0,0:0:0:0:
229,336,53027,2,0,L|72:336,1,138.750005292893,8|0,0:0|0:0,0:0:0:0:
90,336,53263,2,0,L|160:336,1,69.3750026464463,8|0,0:0|0:0,0:0:0:0:
352,248,53420,2,0,L|352:144,1,92.5,12|0,0:0|0:0,0:0:0:0:
128,64,53734,2,0,L|184:64,1,46.25,2|2,0:0|0:0,0:0:0:0:
320,64,53891,2,0,L|368:64,1,46.25,2|2,0:0|0:0,0:0:0:0:
144,256,54048,5,12,0:0:0:0:
122,248,54087,1,0,0:0:0:0:
106,232,54126,1,0,0:0:0:0:
100,210,54165,1,0,0:0:0:0:
104,187,54205,1,0,0:0:0:0:
118,169,54244,1,0,0:0:0:0:
139,160,54283,1,0,0:0:0:0:
336,184,54363,2,0,L|480:184,1,138.75,2|0,0:0|0:0,0:0:0:0:
280,248,54677,2,0,L|184:248,1,92.5,8|2,0:0|0:0,0:0:0:0:
432,192,54991,2,0,L|480:192,1,46.25,2|0,0:0|0:0,0:0:0:0:
432,192,55148,2,0,L|376:192,1,46.25,0|0,0:0|0:0,0:0:0:0:
200,336,55305,6,0,L|352:336,1,138.750005292893,8|0,0:0|0:0,0:0:0:0:
339,336,55540,2,0,L|496:336,1,138.750005292893,8|0,0:0|0:0,0:0:0:0:
478,336,55776,2,0,L|408:336,1,69.3750026464463,8|0,0:0|0:0,0:0:0:0:
216,256,55933,2,0,L|216:144,1,92.5,12|0,0:0|0:0,0:0:0:0:
264,160,56169,1,2,0:0:0:0:
432,104,56247,2,0,L|376:104,1,46.25,2|2,0:0|0:0,0:0:0:0:
240,104,56404,2,0,L|192:104,1,46.25,8|8,0:0|0:0,0:0:0:0:
416,320,56561,5,6,0:0:0:0:
437,312,56600,1,0,0:0:0:0:
453,296,56639,1,0,0:0:0:0:
459,274,56678,1,0,0:0:0:0:
455,251,56718,1,0,0:0:0:0:
441,233,56757,1,0,0:0:0:0:
420,224,56796,1,0,0:0:0:0:
232,248,56876,2,0,L|136:248,1,92.5,8|2,0:0|0:0,0:0:0:0:
368,160,57190,1,8,0:0:0:0:
424,160,57268,1,0,0:0:0:0:
264,160,57347,1,8,0:0:0:0:
208,160,57425,1,0,0:0:0:0:
48,56,57504,1,4,0:0:0:0:
104,56,57582,1,0,0:0:0:0:
264,56,57661,1,8,0:0:0:0:
320,56,57739,1,0,0:0:0:0:
480,336,57818,6,0,L|480:224,2,92.5,2|0|2,0:0|0:0|0:0,0:0:0:0:
32,344,58446,2,0,L|32:160,1,185,8|0,0:0|0:0,0:0:0:0:
120,152,58917,1,0,0:0:0:0:
384,216,59075,5,12,0:0:0:0:
395,196,59114,1,0,0:0:0:0:
399,173,59153,1,0,0:0:0:0:
396,150,59192,1,0,0:0:0:0:
385,130,59232,1,0,0:0:0:0:
368,114,59271,1,0,0:0:0:0:
347,105,59310,1,0,0:0:0:0:
184,72,59389,2,0,L|64:72,1,92.5,8|2,0:0|0:0,0:0:0:0:
360,328,59703,2,0,L|304:328,3,55.4999983062745,2|2|2|2,0:0|0:0|0:0|0:0,0:0:0:0:
144,248,60017,1,2,0:0:0:0:
104,248,60095,1,2,0:0:0:0:
144,248,60174,1,2,0:0:0:0:
184,248,60252,1,2,0:0:0:0:
448,184,60331,5,12,0:0:0:0:
296,184,60488,1,0,0:0:0:0:
56,96,60645,1,2,0:0:0:0:
208,96,60802,1,2,0:0:0:0:
472,312,60959,2,0,L|360:312,1,92.5,8|0,0:0|0:0,0:0:0:0:
152,312,61273,2,0,L|40:312,1,92.5,2|2,0:0|0:0,0:0:0:0:
392,144,61588,5,12,0:0:0:0:
368,144,61627,1,0,0:0:0:0:
345,144,61666,1,0,0:0:0:0:
322,144,61705,1,0,0:0:0:0:
299,144,61745,1,0,0:0:0:0:
276,144,61784,1,0,0:0:0:0:
253,144,61823,1,0,0:0:0:0:
64,64,61902,1,2,0:0:0:0:
88,64,61941,1,0,0:0:0:0:
111,64,61980,1,0,0:0:0:0:
134,64,62019,1,0,0:0:0:0:
157,64,62059,1,2,0:0:0:0:
180,64,62098,1,0,0:0:0:0:
203,64,62137,1,2,0:0:0:0:
456,280,62216,2,0,L|456:176,1,92.5,8|0,0:0|0:0,0:0:0:0:
72,272,62844,5,2,0:0:0:0:
118,272,62922,1,0,0:0:0:0:
164,272,63001,1,0,0:0:0:0:
16,176,63158,1,8,0:0:0:0:
62,176,63236,1,0,0:0:0:0:
108,176,63315,1,0,0:0:0:0:
368,176,63472,1,2,0:0:0:0:
321,176,63550,1,0,0:0:0:0:
275,176,63629,1,0,0:0:0:0:
424,80,63786,1,8,0:0:0:0:
377,80,63864,1,2,0:0:0:0:
331,80,63943,1,2,0:0:0:0:
32,272,64101,6,0,L|32:168,1,92.5,2|0,0:0|0:0,0:0:0:0:
80,184,64336,1,0,0:0:0:0:
272,80,64415,2,0,L|328:80,1,46.25,8|2,0:0|0:0,0:0:0:0:
144,80,64572,2,0,L|80:80,1,46.25,2|2,0:0|0:0,0:0:0:0:
280,240,64729,1,2,0:0:0:0:
233,240,64807,1,2,0:0:0:0:
187,240,64886,1,2,0:0:0:0:
233,240,64964,1,2,0:0:0:0:
424,168,65043,2,0,L|384:168,1,23.125,8|0,0:0|0:0,0:0:0:0:
200,168,65200,2,0,L|168:168,1,23.125,8|0,0:0|0:0,0:0:0:0:
400,72,65357,5,2,0:0:0:0:
176,344,65514,2,0,L|176:240,1,92.5,8|2,0:0|0:0,0:0:0:0:
328,248,65828,1,2,0:0:0:0:
80,344,65986,5,8,0:0:0:0:
58,336,66025,1,0,0:0:0:0:
42,320,66064,1,0,0:0:0:0:
36,298,66103,1,0,0:0:0:0:
40,275,66143,1,2,0:0:0:0:
54,257,66182,1,0,0:0:0:0:
75,248,66221,1,0,0:0:0:0:
304,208,66300,1,8,0:0:0:0:
326,200,66339,1,0,0:0:0:0:
342,184,66378,1,0,0:0:0:0:
348,162,66417,1,0,0:0:0:0:
344,139,66457,1,8,0:0:0:0:
330,121,66496,1,0,0:0:0:0:
309,112,66535,1,2,0:0:0:0:
32,48,66614,6,0,L|184:48,1,138.75,2|2,0:0|0:0,0:0:0:0:
480,336,67085,2,0,L|328:336,1,138.75,2|2,0:0|0:0,0:0:0:0:
32,336,67556,1,8,0:0:0:0:
296,192,67870,6,0,B|392:192|392:192|344:192,1,138.75,12|0,0:0|0:0,0:0:0:0:
184,304,68184,1,2,0:0:0:0:
144,272,68262,1,2,0:0:0:0:
145,227,68341,1,2,0:0:0:0:
185,199,68419,1,2,0:0:0:0:
400,192,68499,2,0,L|400:64,1,92.5,2|0,0:0|0:0,0:0:0:0:
352,96,68734,1,0,0:0:0:0:
184,96,68813,1,2,0:0:0:0:
137,96,68891,1,2,0:0:0:0:
91,96,68970,1,2,0:0:0:0:
137,96,69048,1,2,0:0:0:0:
376,312,69127,5,2,0:0:0:0:
256,192,69284,12,0,70226,0:0:0:0:
320,192,70383,5,2,0:0:0:0:
472,192,70541,1,0,0:0:0:0:
224,80,70698,1,2,0:0:0:0:
72,80,70855,1,0,0:0:0:0:
320,336,71012,2,0,L|440:336,1,92.5,2|0,0:0|0:0,0:0:0:0:
368,272,71247,1,2,0:0:0:0:
152,336,71326,2,0,L|152:224,1,92.5,2|8,0:0|0:0,0:0:0:0:
400,288,71640,5,12,0:0:0:0:
421,278,71679,1,0,0:0:0:0:
440,265,71718,1,0,0:0:0:0:
456,249,71757,1,0,0:0:0:0:
470,230,71797,1,0,0:0:0:0:
480,209,71836,1,0,0:0:0:0:
486,187,71875,1,0,0:0:0:0:
488,164,71914,1,0,0:0:0:0:
485,141,71954,1,2,0:0:0:0:
479,119,71993,1,0,0:0:0:0:
469,98,72032,1,0,0:0:0:0:
456,79,72071,1,0,0:0:0:0:
439,64,72111,1,0,0:0:0:0:
420,51,72150,1,0,0:0:0:0:
398,42,72189,1,0,0:0:0:0:
152,296,72268,6,0,L|200:296,1,46.25,8|8,0:0|0:0,0:0:0:0:
400,296,72425,2,0,L|344:296,1,46.25,8|8,0:0|0:0,0:0:0:0:
152,224,72582,2,0,L|208:224,1,46.25,8|8,0:0|0:0,0:0:0:0:
400,224,72739,2,0,L|336:224,1,46.25,8|8,0:0|0:0,0:0:0:0:
152,224,72897,6,0,L|152:32,1,185,8|2,0:0|0:0,0:0:0:0:
416,48,73525,1,8,0:0:0:0:
120,192,74153,6,0,L|272:192,2,138.75,2|2|2,0:0|0:0|0:0,0:0:0:0:
392,192,74781,2,0,L|240:192,2,138.75,2|2|2,0:0|0:0|0:0,0:0:0:0:
136,352,75410,6,0,L|136:192,1,138.75,2|8,0:0|0:0,0:0:0:0:
256,208,75881,1,0,0:0:0:0:
32,352,76038,2,0,L|32:200,1,138.75,2|8,0:0|0:0,0:0:0:0:
352,104,76509,1,8,0:0:0:0:
128,104,76666,6,0,L|24:104,1,92.5,2|0,0:0|0:0,0:0:0:0:
200,176,76902,2,0,L|304:176,1,92.5,2|0,0:0|0:0,0:0:0:0:
128,344,77137,2,0,L|128:240,1,92.5,8|0,0:0|0:0,0:0:0:0:
296,344,77373,2,0,L|296:240,1,92.5,8|0,0:0|0:0,0:0:0:0:
496,248,77609,1,8,0:0:0:0:
224,120,77923,6,0,L|328:120,1,92.5,2|0,0:0|0:0,0:0:0:0:
480,64,78158,2,0,L|368:64,1,92.5,2|0,0:0|0:0,0:0:0:0:
224,344,78394,2,0,L|224:232,1,92.5,8|0,0:0|0:0,0:0:0:0:
392,344,78630,2,0,L|392:240,1,92.5,8|0,0:0|0:0,0:0:0:0:
192,176,78865,1,8,0:0:0:0:
152,144,78943,1,2,0:0:0:0:
153,99,79022,1,2,0:0:0:0:
193,71,79100,1,2,0:0:0:0:
360,176,79179,6,0,B|456:176|456:176|408:176,1,138.75,12|2,0:0|0:0,0:0:0:0:
360,176,79493,2,0,L|504:176,1,138.75,8|0,0:0|0:0,0:0:0:0:
448,104,79808,1,2,0:0:0:0:
184,112,79965,2,0,L|144:112,2,23.125,2|0|0,0:0|0:0|0:0,0:0:0:0:
344,320,80122,2,0,L|344:224,1,92.5,4|0,0:0|0:0,0:0:0:0:
120,160,80436,6,0,L|0:160,1,92.5,2|0,0:0|0:0,0:0:0:0:
272,80,80750,2,0,L|376:80,1,92.5,2|0,0:0|0:0,0:0:0:0:
120,312,81064,1,8,0:0:0:0:
256,312,81221,1,0,0:0:0:0:
16,216,81378,1,8,0:0:0:0:
152,216,81535,1,2,0:0:0:0:
408,224,81692,5,4,0:0:0:0:
256,192,81849,12,2,86561,0:0:0:0:
368,288,86719,5,8,0:0:0:0:
368,241,86797,1,0,0:0:0:0:
368,195,86876,1,0,0:0:0:0:
272,112,87033,2,0,L|168:112,2,92.5,2|2|8,0:0|0:0|0:0,0:0:0:0:
440,48,87504,2,0,L|328:48,2,92.5,0|8|2,0:0|0:0|0:0,0:0:0:0:
216,280,87975,5,8,0:0:0:0:
169,280,88053,1,8,0:0:0:0:
123,280,88132,1,8,0:0:0:0:
216,200,88289,2,0,L|216:96,1,92.5,2|8,0:0|0:0,0:0:0:0:
120,104,88603,1,2,0:0:0:0:
288,56,88760,2,0,L|392:56,2,92.5,0|8|8,0:0|0:0|0:0,0:0:0:0:
64,320,89232,6,0,L|168:320,1,92.5,2|0,0:0|0:0,0:0:0:0:
250,225,89546,1,8,0:0:0:0:
296,225,89624,1,0,0:0:0:0:
342,225,89703,1,0,0:0:0:0:
248,136,89860,1,2,0:0:0:0:
80,56,90017,2,0,L|192:56,2,92.5,2|8|2,0:0|0:0|0:0,0:0:0:0:
304,288,90488,5,8,0:0:0:0:
350,288,90566,1,0,0:0:0:0:
396,288,90645,1,8,0:0:0:0:
224,152,90802,2,0,L|128:152,2,92.5,2|2|8,0:0|0:0|0:0,0:0:0:0:
448,152,91273,1,2,0:0:0:0:
136,344,91431,2,0,P|120:248|152:240,1,138.75,8|0,0:0|0:0,0:0:0:0:
392,232,91745,6,0,L|336:232,1,46.25,12|0,0:0|0:0,0:0:0:0:
345,232,91902,2,0,L|401:232,1,46.25,2|2,0:0|0:0,0:0:0:0:
216,168,92059,2,0,L|160:168,1,46.25,8|0,0:0|0:0,0:0:0:0:
368,160,92216,2,0,P|392:72|360:56,1,138.75,2|2,0:0|0:0,0:0:0:0:
192,64,92530,2,0,L|136:64,1,46.25,2|0,0:0|0:0,0:0:0:0:
344,280,92687,2,0,L|448:280,1,92.5,8|2,0:0|0:0,0:0:0:0:
176,160,93001,6,0,L|72:160,1,92.5,2|2,0:0|0:0,0:0:0:0:
128,104,93237,1,0,0:0:0:0:
336,48,93315,1,8,0:0:0:0:
248,48,93472,1,2,0:0:0:0:
160,48,93629,1,2,0:0:0:0:
248,112,93787,1,2,0:0:0:0:
24,272,93944,2,0,L|80:272,1,46.25,8|0,0:0|0:0,0:0:0:0:
264,272,94101,2,0,L|320:272,1,46.25,2|2,0:0|0:0,0:0:0:0:
112,168,94258,5,2,0:0:0:0:
72,144,94336,1,0,0:0:0:0:
72,99,94415,1,2,0:0:0:0:
112,65,94493,1,2,0:0:0:0:
280,64,94572,2,0,L|344:64,1,46.25,8|0,0:0|0:0,0:0:0:0:
128,336,94729,2,0,B|32:336|32:336|88:336,1,138.75,2|2,0:0|0:0,0:0:0:0:
248,248,95043,1,2,0:0:0:0:
304,248,95122,1,0,0:0:0:0:
488,152,95200,2,0,L|376:152,1,92.5,8|0,0:0|0:0,0:0:0:0:
152,64,95514,5,2,0:0:0:0:
112,64,95593,1,0,0:0:0:0:
152,64,95671,1,2,0:0:0:0:
192,64,95750,1,2,0:0:0:0:
384,336,95828,2,0,B|480:336|480:336|368:336,1,185,8|2,0:0|0:0,0:0:0:0:
296,200,96300,1,2,0:0:0:0:
72,104,96457,2,0,L|152:104,1,46.25,8|0,0:0|0:0,0:0:0:0:
312,104,96614,2,0,L|376:104,1,46.25,2|2,0:0|0:0,0:0:0:0:
128,232,96771,6,0,L|176:232,1,46.25,2|0,0:0|0:0,0:0:0:0:
174,232,96928,2,0,L|118:232,1,46.25,2|2,0:0|0:0,0:0:0:0:
304,232,97085,2,0,L|360:232,1,46.25,8|0,0:0|0:0,0:0:0:0:
152,160,97242,2,0,P|128:72|160:56,1,138.75,2|2,0:0|0:0,0:0:0:0:
328,64,97556,2,0,L|384:64,1,46.25,2|0,0:0|0:0,0:0:0:0:
176,280,97713,2,0,L|72:280,1,92.5,8|2,0:0|0:0,0:0:0:0:
344,192,98027,6,0,L|448:192,1,92.5,2|2,0:0|0:0,0:0:0:0:
392,136,98263,1,2,0:0:0:0:
184,80,98341,1,8,0:0:0:0:
272,80,98498,1,2,0:0:0:0:
360,80,98655,1,2,0:0:0:0:
272,144,98813,1,2,0:0:0:0:
496,344,98970,1,8,0:0:0:0:
440,344,99048,1,2,0:0:0:0:
288,344,99127,1,2,0:0:0:0:
232,344,99205,1,0,0:0:0:0:
32,192,99284,5,2,0:0:0:0:
72,192,99363,1,0,0:0:0:0:
112,192,99441,1,2,0:0:0:0:
152,192,99520,1,0,0:0:0:0:
320,112,99598,2,0,L|384:112,1,46.25,8|0,0:0|0:0,0:0:0:0:
168,40,99755,2,0,B|120:40|120:40|224:40,1,138.75,2|0,0:0|0:0,0:0:0:0:
384,192,100069,2,0,L|312:192,1,46.25,2|0,0:0|0:0,0:0:0:0:
144,328,100226,2,0,L|40:328,1,92.5,8|2,0:0|0:0,0:0:0:0:
296,192,100541,6,0,L|184:192,1,92.5,2|2,0:0|0:0,0:0:0:0:
368,304,100855,2,0,B|416:304|416:304|352:304,1,92.5,8|2,0:0|0:0,0:0:0:0:
144,304,101169,2,0,P|128:208|152:200,1,138.75,8|0,0:0|0:0,0:0:0:0:
312,176,101483,2,0,B|408:176|408:176|360:176,1,138.75,2|0,0:0|0:0,0:0:0:0:
128,232,101797,6,0,L|176:232,1,46.25,12|0,0:0|0:0,0:0:0:0:
174,232,101954,2,0,L|118:232,1,46.25,2|2,0:0|0:0,0:0:0:0:
304,232,102111,2,0,L|360:232,1,46.25,8|0,0:0|0:0,0:0:0:0:
152,160,102268,2,0,P|128:72|160:56,1,138.75,2|2,0:0|0:0,0:0:0:0:
328,64,102582,2,0,L|384:64,1,46.25,2|0,0:0|0:0,0:0:0:0:
176,272,102739,2,0,L|72:272,1,92.5,8|0,0:0|0:0,0:0:0:0:
344,168,103054,6,0,L|448:168,1,92.5,2|2,0:0|0:0,0:0:0:0:
392,112,103289,1,2,0:0:0:0:
184,56,103368,1,8,0:0:0:0:
96,56,103525,1,0,0:0:0:0:
184,56,103682,1,2,0:0:0:0:
272,56,103840,1,2,0:0:0:0:
48,280,103997,2,0,L|104:280,1,46.25,8|0,0:0|0:0,0:0:0:0:
288,280,104154,2,0,L|344:280,1,46.25,2|0,0:0|0:0,0:0:0:0:
104,192,104310,5,2,0:0:0:0:
144,192,104389,1,0,0:0:0:0:
184,192,104467,1,0,0:0:0:0:
224,192,104546,1,0,0:0:0:0:
56,96,104624,2,0,L|0:96,1,46.25,8|0,0:0|0:0,0:0:0:0:
240,360,104781,2,0,P|256:264|224:256,1,138.75,2|2,0:0|0:0,0:0:0:0:
72,256,105095,2,0,L|136:256,1,46.25,2|0,0:0|0:0,0:0:0:0:
320,104,105253,2,0,L|440:104,1,92.5,8|2,0:0|0:0,0:0:0:0:
168,192,105567,5,2,0:0:0:0:
128,160,105645,1,0,0:0:0:0:
127,115,105724,1,2,0:0:0:0:
166,89,105802,1,2,0:0:0:0:
336,304,105881,2,0,L|440:304,2,92.5,8|2|2,0:0|0:0|0:0,0:0:0:0:
243,304,106352,1,2,0:0:0:0:
472,192,106509,2,0,L|416:192,1,46.25,8|0,0:0|0:0,0:0:0:0:
256,192,106666,2,0,L|184:192,1,46.25,2|0,0:0|0:0,0:0:0:0:
448,368,106823,6,0,L|448:264,1,92.5,2|2,0:0|0:0,0:0:0:0:
208,80,107137,2,0,L|312:80,1,92.5,8|0,0:0|0:0,0:0:0:0:
136,256,107452,2,0,L|136:144,1,92.5,2|2,0:0|0:0,0:0:0:0:
360,352,107766,1,8,0:0:0:0:
408,320,107844,1,0,0:0:0:0:
407,275,107923,1,2,0:0:0:0:
359,249,108001,1,2,0:0:0:0:
88,352,108080,6,0,B|40:352|40:352|104:352,1,92.5,2|2,0:0|0:0,0:0:0:0:
344,160,108394,2,0,L|240:160,1,92.5,8|2,0:0|0:0,0:0:0:0:
416,160,108708,2,0,L|416:56,1,92.5,2|2,0:0|0:0,0:0:0:0:
192,352,109023,1,8,0:0:0:0:
144,320,109101,1,0,0:0:0:0:
145,275,109180,1,2,0:0:0:0:
192,249,109258,1,0,0:0:0:0:
496,200,109336,6,0,L|376:200,1,92.5,12|2,0:0|0:0,0:0:0:0:
176,144,109650,1,8,0:0:0:0:
129,144,109728,1,0,0:0:0:0:
83,144,109807,1,2,0:0:0:0:
129,144,109886,1,2,0:0:0:0:
304,80,109965,1,2,0:0:0:0:
350,80,110043,1,2,0:0:0:0:
396,80,110122,1,0,0:0:0:0:
442,80,110200,1,0,0:0:0:0:
256,288,110279,1,8,0:0:0:0:
209,288,110357,1,0,0:0:0:0:
163,288,110436,1,8,0:0:0:0:
117,288,110514,1,0,0:0:0:0:
304,192,110593,6,0,L|416:192,1,92.5,8|2,0:0|0:0,0:0:0:0:
112,112,110907,2,0,L|224:112,1,92.5,8|2,0:0|0:0,0:0:0:0:
496,304,111221,2,0,L|372:304,1,92.5,8|2,0:0|0:0,0:0:0:0:
120,296,111535,2,0,L|16:296,1,92.5,8|2,0:0|0:0,0:0:0:0:
360,240,111849,5,12,0:0:0:0:
408,208,111927,1,0,0:0:0:0:
407,163,112006,1,0,0:0:0:0:
359,137,112084,1,0,0:0:0:0:
192,64,112164,2,0,L|136:64,1,46.25,8|0,0:0|0:0,0:0:0:0:
360,240,112321,1,0,0:0:0:0:
408,208,112399,1,0,0:0:0:0:
407,163,112478,1,0,0:0:0:0:
359,137,112556,1,0,0:0:0:0:
192,136,112635,2,0,L|128:136,1,46.25,2|0,0:0|0:0,0:0:0:0:
360,328,112792,2,0,L|472:328,1,92.5,8|0,0:0|0:0,0:0:0:0:
176,240,113106,6,0,L|64:240,1,92.5,2|2,0:0|0:0,0:0:0:0:
312,176,113420,2,0,L|408:176,2,92.5,8|0|2,0:0|0:0|0:0,0:0:0:0:
219,176,113891,1,2,0:0:0:0:
448,352,114048,2,0,L|448:248,1,92.5,8|2,0:0|0:0,0:0:0:0:
168,80,114363,5,2,0:0:0:0:
214,80,114441,1,0,0:0:0:0:
260,80,114520,1,2,0:0:0:0:
306,80,114598,1,2,0:0:0:0:
353,80,114677,1,8,0:0:0:0:
399,80,114755,1,0,0:0:0:0:
192,312,114834,1,0,0:0:0:0:
148,299,114912,1,0,0:0:0:0:
120,263,114991,1,2,0:0:0:0:
119,218,115069,1,2,0:0:0:0:
145,181,115148,1,2,0:0:0:0:
188,167,115226,1,0,0:0:0:0:
368,288,115305,2,0,B|416:288|416:288|352:288,1,92.5,8|0,0:0|0:0,0:0:0:0:
120,176,115619,6,0,L|224:176,1,92.5,2|0,0:0|0:0,0:0:0:0:
120,104,115933,2,0,L|24:104,1,92.5,8|2,0:0|0:0,0:0:0:0:
256,320,116247,1,2,0:0:0:0:
112,320,116404,1,2,0:0:0:0:
336,224,116561,1,8,0:0:0:0:
480,224,116719,1,2,0:0:0:0:
176,232,116876,5,2,0:0:0:0:
128,200,116954,1,0,0:0:0:0:
129,155,117033,1,2,0:0:0:0:
177,129,117111,1,2,0:0:0:0:
344,56,117191,2,0,L|400:56,1,46.25,8|0,0:0|0:0,0:0:0:0:
176,232,117348,1,0,0:0:0:0:
128,200,117426,1,0,0:0:0:0:
129,155,117505,1,2,0:0:0:0:
177,129,117583,1,0,0:0:0:0:
344,128,117662,2,0,L|408:128,1,46.25,2|0,0:0|0:0,0:0:0:0:
176,320,117818,2,0,B|128:320|128:320|192:320,1,92.5,8|0,0:0|0:0,0:0:0:0:
448,240,118132,6,0,L|352:240,1,92.5,2|2,0:0|0:0,0:0:0:0:
128,152,118446,1,8,0:0:0:0:
220,152,118603,1,2,0:0:0:0:
313,152,118760,1,2,0:0:0:0:
220,152,118917,1,2,0:0:0:0:
448,72,119075,2,0,L|376:72,1,46.25,8|0,0:0|0:0,0:0:0:0:
256,288,119232,2,0,L|192:288,1,46.25,2|2,0:0|0:0,0:0:0:0:
384,240,119389,5,2,0:0:0:0:
432,208,119467,1,0,0:0:0:0:
431,163,119546,1,2,0:0:0:0:
383,137,119624,1,0,0:0:0:0:
216,64,119704,2,0,L|160:64,1,46.25,8|0,0:0|0:0,0:0:0:0:
384,304,119860,2,0,L|432:304,1,46.25,0|0,0:0|0:0,0:0:0:0:
384,304,120017,2,0,L|312:304,1,46.25,2|2,0:0|0:0,0:0:0:0:
168,216,120174,2,0,L|104:216,1,46.25,2|0,0:0|0:0,0:0:0:0:
344,192,120331,2,0,L|344:80,1,92.5,8|2,0:0|0:0,0:0:0:0:
88,80,120645,6,0,L|208:80,2,92.5,2|2|8,0:0|0:0|0:0,0:0:0:0:
368,312,121116,1,4,0:0:0:0:
120,296,121902,5,2,0:0:0:0:
46,248,122059,1,0,0:0:0:0:
46,159,122216,1,8,0:0:0:0:
121,112,122373,1,2,0:0:0:0:
344,176,122530,2,0,L|344:64,1,92.5,2|2,0:0|0:0,0:0:0:0:
176,176,122844,2,0,L|176:64,1,92.5,8|0,0:0|0:0,0:0:0:0:
400,288,123158,5,2,0:0:0:0:
474,240,123315,1,2,0:0:0:0:
474,151,123472,1,8,0:0:0:0:
399,104,123629,1,2,0:0:0:0:
176,48,123787,2,0,L|280:48,1,92.5,8|2,0:0|0:0,0:0:0:0:
440,48,124101,2,0,L|336:48,1,92.5,8|2,0:0|0:0,0:0:0:0:
120,288,124415,5,2,0:0:0:0:
194,240,124572,1,2,0:0:0:0:
194,151,124729,1,8,0:0:0:0:
119,104,124886,1,2,0:0:0:0:
344,104,125043,2,0,L|448:104,1,92.5,2|2,0:0|0:0,0:0:0:0:
264,48,125357,2,0,L|144:48,1,92.5,8|2,0:0|0:0,0:0:0:0:
400,288,125671,5,2,0:0:0:0:
326,240,125828,1,2,0:0:0:0:
326,151,125985,1,8,0:0:0:0:
401,104,126142,1,2,0:0:0:0:
176,328,126300,1,8,0:0:0:0:
328,328,126457,1,2,0:0:0:0:
176,328,126614,1,8,0:0:0:0:
328,328,126771,1,8,0:0:0:0:
104,192,126928,5,2,0:0:0:0:
16,192,127085,1,2,0:0:0:0:
104,104,127242,1,8,0:0:0:0:
192,104,127399,1,2,0:0:0:0:
416,192,127556,2,0,L|312:192,1,92.5,8|2,0:0|0:0,0:0:0:0:
152,328,127870,2,0,L|56:328,1,92.5,8|2,0:0|0:0,0:0:0:0:
288,160,128184,5,2,0:0:0:0:
376,160,128341,1,2,0:0:0:0:
288,72,128498,1,8,0:0:0:0:
200,72,128655,1,2,0:0:0:0:
424,320,128813,2,0,L|304:320,1,92.5,8|2,0:0|0:0,0:0:0:0:
488,240,129127,2,0,L|376:240,1,92.5,8|2,0:0|0:0,0:0:0:0:
168,128,129441,5,2,0:0:0:0:
256,128,129598,1,2,0:0:0:0:
344,128,129755,1,8,0:0:0:0:
256,128,129912,1,2,0:0:0:0:
32,328,130069,2,0,L|32:216,1,92.5,8|2,0:0|0:0,0:0:0:0:
200,328,130383,2,0,L|200:216,1,92.5,8|2,0:0|0:0,0:0:0:0:
424,128,130698,5,2,0:0:0:0:
336,128,130855,1,2,0:0:0:0:
248,128,131012,1,8,0:0:0:0:
336,128,131169,1,2,0:0:0:0:
112,296,131326,1,8,0:0:0:0:
264,296,131483,1,2,0:0:0:0:
112,200,131640,1,8,0:0:0:0:
264,200,131797,1,2,0:0:0:0:
