osu file format v14

[General]
AudioFilename: audio.mp3
AudioLeadIn: 0
PreviewTime: 91273
Countdown: 0
SampleSet: Soft
StackLeniency: 0.2
Mode: 2
LetterboxInBreaks: 0
WidescreenStoryboard: 1

[Editor]
Bookmarks: 21378,41483,81692,91745,111849,131797
DistanceSpacing: 1
BeatDivisor: 16
GridSize: 4
TimelineZoom: 2.1

[Metadata]
Title:Virtual mode
TitleUnicode:Virtual mode
Artist:CELLON.
ArtistUnicode:CELLON.
Creator:JBHyperion
Version:Rain
Source:
Tags:BMS オオグンタマ Ooguntama DRUM STEP drumstep BOFU 2016 Fighters JBH Sanyi instrumental electronic video rhythm game
BeatmapID:2238805
BeatmapSetID:1069501

[Difficulty]
HPDrainRate:6
CircleSize:3.8
OverallDifficulty:9.2
ApproachRate:9.2
SliderMultiplier:2
SliderTickRate:2

[Events]
//Background and Video events
0,0,"inconsistent_feeling_by_loundraw-d6z0n08.jpg",0,0
//Break Periods
2,11526,15782
2,31631,33374
//Storyboard Layer 0 (Background)
//Storyboard Layer 1 (Fail)
//Storyboard Layer 2 (Pass)
//Storyboard Layer 3 (Foreground)
//Storyboard Layer 4 (Overlay)
//Storyboard Sound Samples

[TimingPoints]
1274,314.13612565445,4,2,7,60,1,0
16352,-100,4,2,0,20,0,0
16666,-100,4,2,0,22,0,0
16980,-100,4,2,0,24,0,0
17294,-100,4,2,0,26,0,0
17609,-100,4,2,0,28,0,0
17923,-100,4,2,0,30,0,0
18237,-100,4,2,0,32,0,0
18551,-100,4,2,0,34,0,0
18865,-100,4,2,0,36,0,0
19180,-100,4,2,0,38,0,0
19493,-100,4,2,0,40,0,0
19807,-100,4,2,0,42,0,0
20121,-100,4,2,0,44,0,0
20435,-100,4,2,0,46,0,0
20593,-100,4,2,0,5,0,0
20750,-100,4,2,1,50,0,0
21064,-100,4,2,1,60,0,0
21378,-100,4,2,9,60,0,0
21535,-100,4,2,1,60,0,0
26404,-100,4,2,1,60,0,0
26561,-100,4,2,1,60,0,0
30174,-100,4,3,2,80,0,0
30802,-100,4,3,0,70,0,0
30881,-100,4,3,2,70,0,0
31431,-100,4,2,1,60,0,0
33944,-100,4,2,9,60,0,0
35200,-100,4,2,1,60,0,0
35514,-100,4,2,1,50,0,0
35828,-100,4,2,1,60,0,0
36143,-100,4,2,1,70,0,0
36457,-100,4,2,1,50,0,0
36771,-100,4,2,1,52,0,0
37085,-100,4,2,1,54,0,0
37399,-100,4,2,1,56,0,0
37714,-100,4,2,1,58,0,0
38027,-100,4,2,1,60,0,0
38341,-100,4,2,0,42,0,0
38655,-100,4,2,0,44,0,0
38969,-100,4,2,1,65,0,0
39284,-100,4,2,1,65,0,0
39598,-100,4,2,1,70,0,0
39912,-100,4,2,1,70,0,0
40226,-100,4,2,1,75,0,0
41483,-100,4,3,2,80,0,0
42739,-100,4,2,7,80,0,0
42975,-100,4,2,7,80,0,0
43211,-100,4,2,7,80,0,0
43368,-100,4,2,8,80,0,0
43682,-100,4,3,2,65,0,0
43996,-100,4,3,2,80,0,0
45253,-100,4,2,7,80,0,0
45488,-100,4,2,7,80,0,0
45725,-100,4,2,7,80,0,0
45881,-100,4,2,8,80,0,0
46038,-100,4,2,8,60,0,0
46077,-100,4,3,2,60,0,0
46196,-100,4,3,2,65,0,0
46509,-100,4,3,2,80,0,0
47137,-100,4,3,2,65,0,0
47766,-100,4,3,2,60,0,0
48080,-100,4,3,2,50,0,0
48394,-100,4,3,2,70,0,0
48708,-100,4,2,8,80,0,0
48865,-100,4,3,2,65,0,0
49022,-100,4,3,2,80,0,0
49650,-100,4,3,2,65,0,0
50593,-100,4,2,8,65,0,0
50750,-100,4,3,2,65,0,0
51535,-100,4,3,2,80,0,0
52792,-100,4,2,7,80,0,0
53027,-100,4,2,7,80,0,0
53263,-100,4,2,7,80,0,0
53420,-100,4,2,8,80,0,0
53734,-100,4,3,2,65,0,0
54048,-100,4,3,2,80,0,0
55305,-100,4,2,7,80,0,0
55541,-100,4,2,7,80,0,0
55776,-100,4,2,7,80,0,0
55933,-100,4,2,8,80,0,0
56090,-100,4,2,8,60,0,0
56130,-100,4,3,2,60,0,0
56247,-100,4,3,2,65,0,0
56561,-100,4,3,2,80,0,0
57268,-100,4,3,7,70,0,0
57818,-100,4,2,8,80,0,0
58132,-100,4,3,2,80,0,0
58760,-100,4,3,2,60,0,0
59075,-100,4,3,2,80,0,0
59781,-100,4,2,1,60,0,0
60331,-100,4,3,2,80,0,0
60488,-100,4,2,1,70,0,0
61588,-66.6666666666667,4,3,2,80,0,0
61902,-100,4,3,2,80,0,0
63865,-100,4,2,1,80,0,0
64101,-100,4,3,2,80,0,0
64493,-100,4,2,1,70,0,0
64729,-100,4,3,2,65,0,0
65043,-100,4,3,2,80,0,0
65986,-100,4,2,7,80,0,0
66025,-100,4,3,2,60,0,0
66143,-100,4,3,2,80,0,0
66182,-100,4,3,2,60,0,0
66300,-100,4,3,2,80,0,0
66339,-100,4,3,2,60,0,0
66457,-100,4,2,7,80,0,0
66496,-100,4,3,2,60,0,0
66614,-100,4,3,2,80,0,0
67870,-100,4,2,8,80,0,0
68106,-100,4,2,1,60,0,0
68499,-100,4,3,2,80,0,0
68813,-100,4,3,2,50,0,0
68970,-100,4,3,2,60,0,0
69127,-100,4,3,2,70,0,0
69755,-100,4,3,7,70,0,0
70383,-100,4,3,2,70,0,0
70698,-100,4,3,2,70,0,0
71012,-100,4,3,2,70,0,0
71247,-100,4,3,2,80,0,0
71640,-80,4,3,2,80,0,0
72268,-100,4,3,2,80,0,0
72425,-100,4,3,2,65,0,0
72582,-100,4,3,2,80,0,0
72739,-100,4,3,2,65,0,0
72897,-100,4,3,2,80,0,0
73211,-100,4,3,2,70,0,0
73996,-100,4,3,2,60,0,0
74153,-100,4,3,2,70,0,0
74389,-100,4,2,1,70,0,0
74781,-100,4,3,2,70,0,0
75017,-100,4,2,1,70,0,0
75410,-100,4,2,1,80,0,0
75567,-100,4,2,1,80,0,0
76038,-100,4,3,2,80,0,0
76509,-100,4,3,2,80,0,0
76666,-133.333333333333,4,3,2,80,0,0
77137,-133.333333333333,4,2,7,80,0,0
77609,-133.333333333333,4,3,2,80,0,0
77687,-133.333333333333,4,2,1,80,0,0
77923,-133.333333333333,4,3,2,80,0,0
78394,-133.333333333333,4,2,7,80,0,0
78865,-133.333333333333,4,3,2,80,0,0
78904,-133.333333333333,4,2,1,80,0,0
79179,-80,4,3,2,80,0,0
79219,-100,4,2,1,80,0,0
79493,-133.333333333333,4,2,1,80,0,0
80122,-100,4,2,9,70,0,0
80436,-80,4,2,1,80,0,0
80750,-133.333333333333,4,2,1,80,0,0
81692,-133.333333333333,4,3,2,80,0,0
81849,-133.333333333333,4,2,1,70,0,0
82478,-133.333333333333,4,2,1,50,0,0
82949,-133.333333333333,4,2,1,70,0,0
83734,-133.333333333333,4,2,1,50,0,0
84205,-133.333333333333,4,2,1,70,0,0
84991,-133.333333333333,4,2,1,50,0,0
85462,-133.333333333333,4,2,1,70,0,0
85776,-133.333333333333,4,2,1,60,0,0
86404,-100,4,2,1,50,0,0
86719,-100,4,2,1,80,0,0
91273,-100,4,3,2,70,0,0
91431,-100,4,3,2,70,0,0
91745,-90.9090909090909,4,3,2,80,0,1
92373,-90.9090909090909,4,2,1,80,0,1
92687,-90.9090909090909,4,3,2,80,0,1
93944,-90.9090909090909,4,3,2,80,0,1
94101,-90.9090909090909,4,2,1,80,0,1
94258,-90.9090909090909,4,3,2,80,0,1
94886,-90.9090909090909,4,2,1,80,0,1
95200,-90.9090909090909,4,3,2,80,0,1
97399,-90.9090909090909,4,2,1,80,0,1
97713,-90.9090909090909,4,3,2,80,0,1
99284,-90.9090909090909,4,3,2,80,0,1
101169,-125,4,2,1,80,0,0
101797,-90.9090909090909,4,3,2,80,0,1
102425,-90.9090909090909,4,2,1,80,0,1
102739,-90.9090909090909,4,3,2,80,0,1
104310,-90.9090909090909,4,3,2,80,0,1
104467,-90.9090909090909,4,3,2,80,0,1
104938,-90.9090909090909,4,2,1,80,0,1
105253,-90.9090909090909,4,3,2,80,0,1
106195,-90.9090909090909,4,2,1,80,0,1
106509,-90.9090909090909,4,3,2,80,0,1
106666,-90.9090909090909,4,2,1,80,0,1
106823,-90.9090909090909,4,3,2,80,0,1
106980,-90.9090909090909,4,2,1,80,0,1
107137,-90.9090909090909,4,3,2,80,0,1
107923,-90.9090909090909,4,2,1,80,0,1
108080,-90.9090909090909,4,3,2,80,0,1
108237,-90.9090909090909,4,3,2,80,0,1
109336,-90.9090909090909,4,2,9,80,0,1
109493,-90.9090909090909,4,3,2,80,0,1
110043,-90.9090909090909,4,2,1,80,0,1
110279,-90.9090909090909,4,3,2,80,0,1
110593,-90.9090909090909,4,2,1,80,0,1
110750,-90.9090909090909,4,2,1,80,0,1
111221,-90.9090909090909,4,2,1,70,0,1
111535,-90.9090909090909,4,2,1,60,0,1
111849,-111.111111111111,4,3,2,90,0,0
112006,-111.111111111111,4,3,2,80,0,0
113263,-111.111111111111,4,2,1,80,0,0
113420,-111.111111111111,4,3,2,80,0,0
114520,-111.111111111111,4,2,1,80,0,0
114677,-111.111111111111,4,3,2,80,0,0
114991,-111.111111111111,4,2,1,80,0,0
115148,-111.111111111111,4,3,2,80,0,0
117033,-111.111111111111,4,2,1,80,0,0
117190,-111.111111111111,4,3,2,80,0,0
118289,-111.111111111111,4,2,1,80,0,0
118446,-111.111111111111,4,3,2,80,0,0
119232,-111.111111111111,4,2,1,80,0,0
119389,-111.111111111111,4,3,2,80,0,0
120017,-111.111111111111,4,2,1,80,0,0
120174,-111.111111111111,4,3,2,80,0,0
120802,-111.111111111111,4,2,1,80,0,0
120959,-111.111111111111,4,3,2,80,0,0
121116,-111.111111111111,4,2,8,80,0,0
121902,-100,4,2,1,70,0,0

[Colours]
Combo1 : 100,255,100
Combo2 : 190,120,120
Combo3 : 255,128,64
Combo4 : 255,255,100

[HitObjects]
256,192,11326,5,4,0:0:0:0:
256,192,16352,12,0,20593,0:0:0:0:
240,244,20750,6,0,L|382:192,1,150,2|0,0:0|0:0,0:0:0:0:
264,192,21064,2,0,L|208:192,1,50,2|2,0:0|0:0,0:0:0:0:
194,239,21221,2,0,L|210:295,1,50,2|2,0:0|0:0,0:0:0:0:
351,287,21378,6,0,L|447:247,2,100,4|0|0,0:0|0:0|0:0,0:0:0:0:
192,288,21849,2,0,P|153:233|225:137,1,200,8|0,0:0|0:0,0:0:0:0:
320,136,22321,2,0,L|416:96,1,100,2|0,0:0|0:0,0:0:0:0:
232,48,22635,6,0,P|168:64|136:108,1,100,8|0,0:0|0:0,0:0:0:0:
220,137,22870,2,0,L|328:136,1,100,0|0,0:0|0:0,0:0:0:0:
256,212,23106,2,0,L|216:244,1,50,0|0,0:0|0:0,0:0:0:0:
288,280,23263,1,2,0:0:0:0:
322,245,23342,1,2,0:0:0:0:
329,196,23420,1,2,0:0:0:0:
304,154,23499,1,0,0:0:0:0:
258,136,23577,1,8,0:0:0:0:
148,136,23734,1,2,0:0:0:0:
376,72,23891,6,0,L|468:28,2,100,8|0|2,0:0|0:0|0:0,0:0:0:0:
260,72,24363,1,8,0:0:0:0:
420,72,24520,1,0,0:0:0:0:
507,166,24677,1,2,0:0:0:0:
487,293,24834,1,8,0:0:0:0:
374,355,24991,1,0,0:0:0:0:
212,356,25148,5,8,0:0:0:0:
344,356,25305,1,8,0:0:0:0:
196,356,25462,1,8,0:0:0:0:
328,356,25619,1,8,0:0:0:0:
156,356,25776,1,8,0:0:0:0:
118,303,25855,1,8,0:0:0:0:
129,239,25933,1,2,0:0:0:0:
182,201,26012,1,2,0:0:0:0:
248,200,26090,1,8,0:0:0:0:
368,200,26247,2,0,L|316:200,1,50,2|2,0:0|0:0,0:0:0:0:
152,200,26404,6,0,L|52:192,1,100,4|0,0:0|0:0,0:0:0:0:
128,116,26719,1,2,0:0:0:0:
408,116,26876,1,4,0:0:0:0:
260,116,27190,1,2,0:0:0:0:
360,116,27347,2,0,L|464:156,1,100,8|0,0:0|0:0,0:0:0:0:
292,192,27661,6,0,L|256:288,1,100,8|0,0:0|0:0,0:0:0:0:
416,285,27975,1,0,0:0:0:0:
268,285,28132,1,2,0:0:0:0:
108,285,28289,1,8,0:0:0:0:
256,285,28446,1,0,0:0:0:0:
156,285,28603,2,0,L|52:245,1,100,2|0,0:0|0:0,0:0:0:0:
280,189,28917,6,0,L|380:153,2,100,8|0|2,0:0|0:0|0:0,0:0:0:0:
180,189,29389,1,2,0:0:0:0:
340,189,29546,1,8,0:0:0:0:
240,189,29703,2,0,L|196:157,1,50,2|2,0:0|0:0,0:0:0:0:
268,117,29860,2,0,L|368:117,1,100,8|0,0:0|0:0,0:0:0:0:
128,77,30174,6,0,L|76:77,2,50,2|2|2,0:0|0:0|0:0,0:0:0:0:
344,40,30488,1,8,0:0:0:0:
244,41,30645,2,0,L|188:41,1,50,2|2,0:0|0:0,0:0:0:0:
240,117,30802,2,0,L|300:117,1,50,4|2,0:0|0:0,0:0:0:0:
148,116,30959,1,8,0:0:0:0:
240,117,31116,2,0,L|252:177,1,50,2|2,0:0|0:0,0:0:0:0:
172,168,31273,2,0,L|184:228,1,50,2|2,0:0|0:0,0:0:0:0:
24,216,31431,5,4,0:0:0:0:
392,300,33944,6,0,B|396:291|396:291|392:284|392:284|400:280|400:280|396:272|396:272|404:268|404:268|400:260|400:260|408:256|408:256|404:248|404:248|412:244|412:244|408:236|408:236|416:232|416:232|412:224|412:224|420:220|420:220|416:212|416:212|424:208|424:208|420:200|420:200|428:196|428:196|424:188|424:188|432:184|432:184|428:176|428:176|436:172|436:172|436:164|436:164|428:160|428:160|432:152|432:152|424:148|424:148|428:140|428:140|420:136|420:136|424:128|424:128|416:124|416:124|420:116|420:116|412:112|412:112|416:104|416:104|408:100|408:100|412:92|412:92|404:88|404:88|408:80|408:80|400:76|400:76|404:68|404:68|396:64|396:64|400:56|400:56|392:52|392:52|396:44|396:44|388:40|388:40|392:32|392:32|380:32|380:32|376:40|376:40|372:32|372:32|368:40|368:40|364:32|364:32|360:40|360:40|356:32|356:32|352:40|352:40|348:32|348:32|344:40|344:40|340:32|340:32|336:40|336:40|332:32|332:32|328:40|328:40|324:32|324:32|320:40|320:40|315:31|315:31|312:40|312:40|308:32|308:32|304:40|304:40|300:32|300:32|296:40|296:40|292:32|292:32|396:32,1,700,4|0,0:0|0:0,0:0:0:0:
148,32,35200,6,0,P|76:60|48:128,1,150,2|0,0:0|0:0,0:0:0:0:
204,124,35514,2,0,L|208:184,1,50,2|2,0:0|0:0,0:0:0:0:
160,124,35671,2,0,L|156:184,1,50,2|2,0:0|0:0,0:0:0:0:
212,124,35828,2,0,L|231:180,1,50,2|2,0:0|0:0,0:0:0:0:
152,124,35986,2,0,L|132:180,1,50,2|0,0:0|0:0,0:0:0:0:
216,264,36143,2,0,L|268:264,1,50,2|2,0:0|0:0,0:0:0:0:
328,336,36300,2,0,L|252:336,1,50,2|0,0:0|0:0,0:0:0:0:
120,336,36457,5,8,0:0:0:0:
256,192,36771,12,2,40226,0:0:0:0:
180,216,41483,6,0,P|128:176|212:120,1,200,12|8,0:0|0:0,0:0:0:0:
280,116,41954,1,2,0:0:0:0:
108,116,42111,2,0,L|64:92,2,50,8|0|0,0:0|0:0|0:0,0:0:0:0:
268,116,42425,2,0,L|372:116,1,100,2|0,0:0|0:0,0:0:0:0:
128,192,42739,5,8,0:0:0:0:
308,192,42975,1,8,0:0:0:0:
104,192,43211,1,8,0:0:0:0:
384,192,43368,2,0,P|424:236|412:344,1,150,12|0,0:0|0:0,0:0:0:0:
396,356,43682,1,2,0:0:0:0:
348,368,43760,1,2,0:0:0:0:
299,358,43839,1,2,0:0:0:0:
262,325,43917,1,2,0:0:0:0:
424,192,43996,6,0,P|480:168|424:72,1,200,12|2,0:0|0:0,0:0:0:0:
328,72,44467,1,0,0:0:0:0:
156,72,44624,1,8,0:0:0:0:
256,72,44781,1,2,0:0:0:0:
96,68,44938,2,0,L|180:128,1,100,2|0,0:0|0:0,0:0:0:0:
420,192,45253,5,8,0:0:0:0:
240,192,45488,1,8,0:0:0:0:
464,192,45724,1,8,0:0:0:0:
216,192,45881,1,12,0:0:0:0:
276,192,46038,2,0,L|276:216,2,25,0|2|2,0:0|0:0|0:0,0:0:0:0:
132,192,46195,2,0,L|84:176,1,50,2|2,0:0|0:0,0:0:0:0:
56,136,46352,2,0,L|76:80,1,50,8|8,0:0|0:0,0:0:0:0:
232,88,46509,6,0,P|304:111|288:216,1,200,12|8,0:0|0:0,0:0:0:0:
188,216,46980,1,2,0:0:0:0:
360,216,47137,1,8,0:0:0:0:
128,216,47766,6,0,L|120:268,2,50,2|2|2,0:0|0:0|0:0,0:0:0:0:
268,216,48080,1,2,0:0:0:0:
222,216,48158,1,2,0:0:0:0:
176,216,48237,1,2,0:0:0:0:
128,216,48315,1,0,0:0:0:0:
312,216,48394,5,8,0:0:0:0:
354,175,48472,1,0,0:0:0:0:
346,120,48551,1,0,0:0:0:0:
300,88,48630,1,0,0:0:0:0:
144,88,48708,2,0,L|36:88,1,100,4|0,0:0|0:0,0:0:0:0:
300,88,49022,6,0,P|339:154|256:235,1,200,12|8,0:0|0:0,0:0:0:0:
176,236,49493,1,2,0:0:0:0:
348,236,49650,2,0,L|376:192,3,50,8|2|2|0,0:0|0:0|0:0|0:0,0:0:0:0:
304,192,49965,1,8,0:0:0:0:
444,192,50122,1,2,0:0:0:0:
284,192,50279,6,0,L|184:164,1,100,2|0,0:0|0:0,0:0:0:0:
368,84,50593,1,12,0:0:0:0:
428,192,50750,1,0,0:0:0:0:
320,328,50907,1,0,0:0:0:0:
472,328,51064,1,8,0:0:0:0:
330,327,51221,1,8,0:0:0:0:
484,328,51378,1,8,0:0:0:0:
200,328,51535,6,0,P|110:295|112:192,1,200,12|8,0:0|0:0,0:0:0:0:
206,191,52006,1,2,0:0:0:0:
392,192,52164,2,0,L|436:168,2,50,8|0|0,0:0|0:0|0:0,0:0:0:0:
228,192,52478,2,0,L|124:192,1,100,2|2,0:0|0:0,0:0:0:0:
368,192,52792,5,8,0:0:0:0:
180,192,53027,1,8,0:0:0:0:
380,192,53263,1,8,0:0:0:0:
120,192,53420,2,0,P|104:248|176:300,1,150,12|0,0:0|0:0,0:0:0:0:
212,300,53734,1,2,0:0:0:0:
204,356,53813,1,2,0:0:0:0:
160,372,53891,1,2,0:0:0:0:
112,356,53970,1,2,0:0:0:0:
272,300,54048,6,0,P|328:276|272:180,1,200,12|2,0:0|0:0,0:0:0:0:
176,180,54520,1,2,0:0:0:0:
348,180,54677,1,8,0:0:0:0:
248,180,54834,1,2,0:0:0:0:
88,184,54991,2,0,L|172:124,1,100,2|0,0:0|0:0,0:0:0:0:
412,60,55305,5,8,0:0:0:0:
248,60,55541,1,8,0:0:0:0:
456,60,55776,1,8,0:0:0:0:
208,60,55933,1,12,0:0:0:0:
268,60,56090,1,0,0:0:0:0:
288,60,56130,1,2,0:0:0:0:
308,60,56169,1,2,0:0:0:0:
396,116,56247,2,0,L|444:132,1,50,2|2,0:0|0:0,0:0:0:0:
384,192,56404,2,0,L|367:239,1,50,8|8,0:0|0:0,0:0:0:0:
200,240,56561,6,0,P|116:200|100:100,1,200,6|8,0:0|0:0,0:0:0:0:
200,104,57033,1,2,0:0:0:0:
388,104,57190,1,8,0:0:0:0:
410,166,57268,1,0,0:0:0:0:
403,231,57347,1,8,0:0:0:0:
368,288,57425,1,0,0:0:0:0:
268,288,57504,2,0,L|284:240,1,50,4|0,0:0|0:0,0:0:0:0:
364,168,57661,2,0,L|304:168,1,50,8|0,0:0|0:0,0:0:0:0:
156,168,57818,5,2,0:0:0:0:
314,168,58132,1,2,0:0:0:0:
12,168,58446,1,8,0:0:0:0:
156,168,58682,1,0,0:0:0:0:
208,168,58760,2,0,L|100:168,1,100,0|0,0:0|0:0,0:0:0:0:
424,168,59075,6,0,P|456:240|376:316,1,200,12|8,0:0|0:0,0:0:0:0:
284,316,59546,1,2,0:0:0:0:
124,316,59703,2,0,L|100:272,7,50,2|2|2|2|2|2|2|2,0:0|0:0|0:0|0:0|0:0|0:0|0:0|0:0,0:0:0:0:
260,272,60331,6,0,L|360:244,2,100,12|0|2,0:0|0:0|0:0,0:0:0:0:
140,272,60802,1,2,0:0:0:0:
320,172,60959,2,0,L|252:96,1,100,8|0,0:0|0:0,0:0:0:0:
104,188,61273,2,0,L|148:88,1,100,2|2,0:0|0:0,0:0:0:0:
428,96,61588,6,0,P|496:184|396:320,1,300.000011444092,12|2,0:0|0:0,0:0:0:0:
500,316,62059,1,2,0:0:0:0:
260,316,62216,1,8,0:0:0:0:
420,192,62844,6,0,L|428:80,1,100,2|0,0:0|0:0,0:0:0:0:
208,192,63158,2,0,L|162:89,1,100,8|0,0:0|0:0,0:0:0:0:
428,192,63472,2,0,L|506:111,1,100,2|0,0:0|0:0,0:0:0:0:
196,192,63787,2,0,L|95:142,1,100,8|2,0:0|0:0,0:0:0:0:
288,192,64101,6,0,L|316:92,1,100,2|0,0:0|0:0,0:0:0:0:
64,92,64415,1,8,0:0:0:0:
36,144,64493,1,2,0:0:0:0:
64,200,64572,1,2,0:0:0:0:
125,201,64650,1,2,0:0:0:0:
192,200,64729,2,0,L|248:200,3,50,2|2|2|2,0:0|0:0|0:0|0:0,0:0:0:0:
384,200,65043,2,0,L|484:248,1,100,8|8,0:0|0:0,0:0:0:0:
308,300,65357,5,2,0:0:0:0:
476,296,65514,2,0,L|388:248,2,100,8|2|2,0:0|0:0|0:0,0:0:0:0:
256,300,65986,2,0,L|248:248,1,50,8|0,0:0|0:0,0:0:0:0:
312,300,66143,2,0,L|320:248,1,50,2|0,0:0|0:0,0:0:0:0:
256,300,66300,2,0,L|248:248,1,50,8|0,0:0|0:0,0:0:0:0:
312,300,66457,2,0,L|320:248,1,50,8|2,0:0|0:0,0:0:0:0:
168,248,66614,6,0,L|28:192,1,150,2|2,0:0|0:0,0:0:0:0:
280,192,67085,2,0,L|280:36,1,150,2|2,0:0|0:0,0:0:0:0:
24,40,67556,1,8,0:0:0:0:
420,40,67870,6,0,P|460:100|440:172,1,150,12|0,0:0|0:0,0:0:0:0:
400,198,68184,1,2,0:0:0:0:
353,215,68263,1,2,0:0:0:0:
323,254,68342,1,2,0:0:0:0:
318,303,68420,1,2,0:0:0:0:
478,303,68499,2,0,P|502:247|444:188,1,150,2|0,0:0|0:0,0:0:0:0:
400,198,68813,1,2,0:0:0:0:
353,215,68891,1,2,0:0:0:0:
310,212,68970,1,2,0:0:0:0:
268,182,69048,1,2,0:0:0:0:
440,136,69127,5,2,0:0:0:0:
440,136,69441,1,0,0:0:0:0:
280,136,69755,1,8,0:0:0:0:
420,136,70069,1,0,0:0:0:0:
140,136,70383,6,0,L|40:164,2,100,2|0|2,0:0|0:0|0:0,0:0:0:0:
260,136,70855,1,0,0:0:0:0:
440,136,71012,2,0,L|356:192,1,100,2|0,0:0|0:0,0:0:0:0:
308,192,71247,1,2,0:0:0:0:
208,192,71326,2,0,L|312:192,1,100,2|8,0:0|0:0,0:0:0:0:
60,192,71640,6,0,P|148:348|244:192,1,437.5,12|0,0:0|0:0,0:0:0:0:
104,192,72268,2,0,L|92:140,1,50,8|8,0:0|0:0,0:0:0:0:
160,192,72425,2,0,L|148:140,1,50,8|8,0:0|0:0,0:0:0:0:
216,192,72582,2,0,L|204:140,1,50,8|8,0:0|0:0,0:0:0:0:
272,192,72739,2,0,L|260:140,1,50,8|8,0:0|0:0,0:0:0:0:
328,192,72897,1,8,0:0:0:0:
48,144,73211,5,2,0:0:0:0:
348,144,73525,1,8,0:0:0:0:
168,144,73996,2,0,L|156:96,1,50,0|0,0:0|0:0,0:0:0:0:
320,56,74153,6,0,L|468:108,2,150,2|2|2,0:0|0:0|0:0,0:0:0:0:
155,95,74781,2,0,L|7:147,2,150,2|2|2,0:0|0:0|0:0,0:0:0:0:
376,96,75410,5,2,0:0:0:0:
228,96,75645,2,0,L|344:192,1,150,8|0,0:0|0:0,0:0:0:0:
120,192,76038,1,2,0:0:0:0:
272,192,76273,2,0,L|156:96,1,150,8|8,0:0|0:0,0:0:0:0:
416,100,76666,5,2,0:0:0:0:
280,100,76902,1,2,0:0:0:0:
436,100,77137,1,8,0:0:0:0:
232,100,77373,1,8,0:0:0:0:
468,100,77609,2,0,L|480:176,1,75.0000028610231,8|2,0:0|0:0,0:0:0:0:
456,212,77844,1,2,0:0:0:0:
308,212,77923,5,2,0:0:0:0:
432,212,78158,1,2,0:0:0:0:
252,212,78394,1,8,0:0:0:0:
456,212,78630,1,8,0:0:0:0:
144,212,78865,2,0,L|104:192,1,37.5000014305115,8|2,0:0|0:0,0:0:0:0:
188,196,79022,2,0,L|228:176,1,37.5000014305115,2|2,0:0|0:0,0:0:0:0:
68,192,79179,6,0,P|36:152|156:52,1,250,12|8,0:0|0:0,0:0:0:0:
240,48,79650,1,0,0:0:0:0:
392,192,79808,2,0,L|316:192,1,75.0000028610231,2|2,0:0|0:0,0:0:0:0:
452,192,80122,1,4,0:0:0:0:
76,192,80436,6,0,P|36:248|140:364,1,250,2|2,0:0|0:0,0:0:0:0:
224,364,80907,1,0,0:0:0:0:
61,265,81064,2,0,L|77:185,1,75.0000028610231,8|0,0:0|0:0,0:0:0:0:
224,192,81378,2,0,L|144:192,1,75.0000028610231,8|2,0:0|0:0,0:0:0:0:
376,192,81692,6,0,L|436:148,2,75.0000028610231,4|0|2,0:0|0:0|0:0,0:0:0:0:
292,192,82164,1,0,0:0:0:0:
140,192,82321,2,0,L|120:116,1,75.0000028610231,2|8,0:0|0:0,0:0:0:0:
224,120,82635,2,0,L|244:44,1,75.0000028610231,8|8,0:0|0:0,0:0:0:0:
92,48,82949,5,2,0:0:0:0:
46,105,83106,1,0,0:0:0:0:
68,174,83263,1,2,0:0:0:0:
140,192,83420,1,0,0:0:0:0:
292,192,83577,1,2,0:0:0:0:
204,192,83734,2,0,L|140:240,2,75.0000028610231,8|8|8,0:0|0:0|0:0,0:0:0:0:
356,192,84205,6,0,L|436:176,1,75.0000028610231,2|0,0:0|0:0,0:0:0:0:
336,120,84520,2,0,L|416:104,1,75.0000028610231,2|0,0:0|0:0,0:0:0:0:
260,120,84834,1,2,0:0:0:0:
172,120,84991,1,8,0:0:0:0:
292,120,85148,1,8,0:0:0:0:
380,120,85305,1,8,0:0:0:0:
164,120,85462,6,0,L|156:44,1,75.0000028610231,2|2,0:0|0:0,0:0:0:0:
248,44,85776,2,0,L|324:28,2,75.0000028610231,0|0|8,0:0|0:0|0:0,0:0:0:0:
400,28,86247,1,8,0:0:0:0:
304,28,86404,1,2,0:0:0:0:
208,28,86561,1,2,0:0:0:0:
460,28,86719,6,0,P|496:72|432:196,1,200,8|2,0:0|0:0,0:0:0:0:
328,192,87190,1,2,0:0:0:0:
280,192,87268,1,2,0:0:0:0:
228,192,87347,2,0,L|148:252,1,100,8|0,0:0|0:0,0:0:0:0:
288,268,87661,1,8,0:0:0:0:
168,268,87818,1,2,0:0:0:0:
328,268,87975,6,0,P|352:216|260:124,1,200,8|2,0:0|0:0,0:0:0:0:
164,124,88446,1,8,0:0:0:0:
284,124,88603,1,2,0:0:0:0:
132,124,88760,1,0,0:0:0:0:
284,124,88917,1,8,0:0:0:0:
436,124,89075,1,2,0:0:0:0:
324,124,89232,6,0,L|312:228,1,100,2|0,0:0|0:0,0:0:0:0:
472,224,89546,1,8,0:0:0:0:
357,244,89703,2,0,L|305:220,1,50,2|0,0:0|0:0,0:0:0:0:
357,244,89860,2,0,L|404:224,2,50,2|2|2,0:0|0:0|0:0,0:0:0:0:
196,320,90174,1,8,0:0:0:0:
320,320,90331,1,2,0:0:0:0:
160,320,90488,6,0,L|152:220,1,100,2|2,0:0|0:0,0:0:0:0:
332,220,90802,1,8,0:0:0:0:
212,220,90959,1,2,0:0:0:0:
372,220,91273,1,2,0:0:0:0:
96,220,91431,2,0,P|72:172|80:124,1,100,8|0,0:0|0:0,0:0:0:0:
344,136,91745,6,0,L|456:136,1,110.000003356934,12|2,0:0|0:0,0:0:0:0:
403,152,91980,1,2,0:0:0:0:
381,201,92059,1,8,0:0:0:0:
404,249,92137,1,0,0:0:0:0:
455,264,92216,1,2,0:0:0:0:
312,264,92373,2,0,L|228:192,1,110.000003356934,2|2,0:0|0:0,0:0:0:0:
408,152,92687,2,0,L|420:40,1,110.000003356934,8|2,0:0|0:0,0:0:0:0:
248,40,93001,5,2,0:0:0:0:
136,40,93158,1,2,0:0:0:0:
192,40,93237,1,0,0:0:0:0:
248,40,93315,2,0,L|348:104,1,110.000003356934,8|2,0:0|0:0,0:0:0:0:
176,108,93630,2,0,P|144:144|156:208,1,110.000003356934,2|2,0:0|0:0,0:0:0:0:
328,200,93944,1,8,0:0:0:0:
151,201,94101,1,2,0:0:0:0:
402,201,94258,6,0,P|437:243|451:295,1,110.000003356934,2|2,0:0|0:0,0:0:0:0:
396,296,94493,1,2,0:0:0:0:
451,295,94572,2,0,L|516:296,1,55.0000016784668,8|0,0:0|0:0,0:0:0:0:
328,296,94729,1,2,0:0:0:0:
224,296,94886,2,0,L|156:208,1,110.000003356934,2|2,0:0|0:0,0:0:0:0:
308,208,95200,1,8,0:0:0:0:
212,208,95357,1,0,0:0:0:0:
376,228,95514,6,0,L|480:192,1,110.000003356934,2|2,0:0|0:0,0:0:0:0:
424,192,95750,1,2,0:0:0:0:
260,192,95828,1,8,0:0:0:0:
216,160,95907,1,0,0:0:0:0:
210,107,95986,1,2,0:0:0:0:
245,67,96064,1,0,0:0:0:0:
312,68,96143,2,0,L|400:140,1,110.000003356934,2|2,0:0|0:0,0:0:0:0:
216,160,96457,1,8,0:0:0:0:
324,160,96614,1,2,0:0:0:0:
83,160,96771,6,0,P|44:193|66:239,1,110.000003356934,2|2,0:0|0:0,0:0:0:0:
119,227,97006,1,2,0:0:0:0:
173,238,97085,1,8,0:0:0:0:
216,271,97164,1,0,0:0:0:0:
241,320,97242,1,2,0:0:0:0:
244,374,97321,1,0,0:0:0:0:
164,376,97399,2,0,L|68:320,1,110.000003356934,2|2,0:0|0:0,0:0:0:0:
268,320,97713,2,0,L|360:252,1,110.000003356934,8|2,0:0|0:0,0:0:0:0:
212,320,98027,6,0,P|164:292|148:240,1,110.000003356934,2|2,0:0|0:0,0:0:0:0:
204,244,98263,1,2,0:0:0:0:
368,244,98342,1,8,0:0:0:0:
418,224,98420,1,0,0:0:0:0:
450,181,98499,1,2,0:0:0:0:
453,127,98577,1,0,0:0:0:0:
376,128,98656,2,0,L|320:128,2,55.0000016784668,2|0|2,0:0|0:0|0:0,0:0:0:0:
432,128,98891,1,2,0:0:0:0:
504,52,98970,2,0,L|400:8,1,110.000003356934,8|2,0:0|0:0,0:0:0:0:
156,8,99284,6,0,L|32:8,2,110.000003356934,2|2|8,0:0|0:0|0:0,0:0:0:0:
384,8,99755,1,2,0:0:0:0:
276,8,99912,2,0,L|160:8,1,110.000003356934,2|2,0:0|0:0,0:0:0:0:
344,116,100226,2,0,L|424:192,1,110.000003356934,8|2,0:0|0:0,0:0:0:0:
268,192,100541,6,0,P|216:212|196:264,1,110.000003356934,2|2,0:0|0:0,0:0:0:0:
252,256,100776,1,2,0:0:0:0:
332,256,100855,2,0,L|388:256,2,55.0000016784668,8|0|2,0:0|0:0|0:0,0:0:0:0:
468,256,101169,2,0,L|472:352,1,80,8|0,0:0|0:0,0:0:0:0:
344,336,101483,1,2,0:0:0:0:
484,336,101640,1,8,0:0:0:0:
208,336,101797,6,0,L|88:336,2,110.000003356934,12|2|8,0:0|0:0|0:0,0:0:0:0:
364,336,102268,1,2,0:0:0:0:
402,276,102347,1,0,0:0:0:0:
383,207,102425,1,2,0:0:0:0:
319,176,102504,1,2,0:0:0:0:
248,176,102582,1,2,0:0:0:0:
492,208,102739,2,0,L|496:96,1,110.000003356934,8|0,0:0|0:0,0:0:0:0:
341,219,103054,6,0,L|237:183,1,110.000003356934,2|2,0:0|0:0,0:0:0:0:
293,183,103289,1,2,0:0:0:0:
440,98,103368,2,0,L|504:98,2,55.0000016784668,8|0|0,0:0|0:0|0:0,0:0:0:0:
276,100,103682,2,0,L|152:100,1,110.000003356934,2|2,0:0|0:0,0:0:0:0:
320,28,103996,1,8,0:0:0:0:
176,28,104153,1,2,0:0:0:0:
416,32,104310,6,0,P|476:60|492:100,1,110.000003356934,2|0,0:0|0:0,0:0:0:0:
248,96,104624,1,8,0:0:0:0:
140,96,104781,1,0,0:0:0:0:
284,96,104938,1,2,0:0:0:0:
324,120,105017,1,2,0:0:0:0:
364,140,105095,1,2,0:0:0:0:
120,192,105253,2,0,L|208:276,1,110.000003356934,8|2,0:0|0:0,0:0:0:0:
368,264,105567,5,2,0:0:0:0:
433,235,105645,1,0,0:0:0:0:
460,169,105724,1,2,0:0:0:0:
434,102,105802,1,2,0:0:0:0:
268,96,105881,1,8,0:0:0:0:
376,96,106038,2,0,L|320:96,1,55.0000016784668,2|0,0:0|0:0,0:0:0:0:
268,96,106195,2,0,L|180:168,1,110.000003356934,2|2,0:0|0:0,0:0:0:0:
356,168,106509,1,8,0:0:0:0:
182,165,106666,1,2,0:0:0:0:
428,168,106823,6,0,L|504:248,1,110.000003356934,2|2,0:0|0:0,0:0:0:0:
260,248,107137,1,8,0:0:0:0:
233,200,107216,1,0,0:0:0:0:
235,146,107294,1,0,0:0:0:0:
267,102,107373,1,0,0:0:0:0:
328,100,107452,1,2,0:0:0:0:
338,171,107530,1,2,0:0:0:0:
298,230,107609,1,2,0:0:0:0:
228,248,107687,1,0,0:0:0:0:
72,248,107766,2,0,L|168:192,1,110.000003356934,8|2,0:0|0:0,0:0:0:0:
408,192,108080,6,0,L|512:236,1,110.000003356934,2|2,0:0|0:0,0:0:0:0:
268,248,108394,1,8,0:0:0:0:
167,192,108551,1,2,0:0:0:0:
336,192,108708,2,0,L|396:192,2,55.0000016784668,2|0|2,0:0|0:0|0:0,0:0:0:0:
95,192,109022,2,0,L|3:124,1,110.000003356934,8|2,0:0|0:0,0:0:0:0:
247,128,109336,6,0,L|359:128,1,110.000003356934,12|2,0:0|0:0,0:0:0:0:
191,128,109650,1,8,0:0:0:0:
168,177,109729,1,0,0:0:0:0:
168,232,109808,1,2,0:0:0:0:
191,281,109886,1,2,0:0:0:0:
232,316,109965,1,2,0:0:0:0:
179,303,110043,1,2,0:0:0:0:
126,289,110122,1,0,0:0:0:0:
280,280,110279,1,8,0:0:0:0:
126,289,110436,1,8,0:0:0:0:
367,280,110593,6,0,L|487:224,2,110.000003356934,8|2|8,0:0|0:0|0:0,0:0:0:0:
259,280,111064,1,2,0:0:0:0:
83,280,111221,2,0,L|183:236,1,110.000003356934,8|2,0:0|0:0,0:0:0:0:
359,236,111535,1,8,0:0:0:0:
207,236,111692,1,2,0:0:0:0:
459,236,111849,6,0,P|475:184|395:96,1,179.999994506836,12|8,0:0|0:0,0:0:0:0:
219,96,112321,2,0,P|135:128|107:208,1,179.999994506836,0|2,0:0|0:0,0:0:0:0:
271,208,112792,2,0,L|179:208,1,89.9999972534181,8|0,0:0|0:0,0:0:0:0:
307,208,113106,6,0,L|399:192,1,89.9999972534181,2|2,0:0|0:0,0:0:0:0:
331,196,113342,1,2,0:0:0:0:
183,208,113420,2,0,L|95:192,1,89.9999972534181,8|0,0:0|0:0,0:0:0:0:
247,292,113734,1,2,0:0:0:0:
103,292,113891,1,2,0:0:0:0:
227,292,114048,1,8,0:0:0:0:
119,292,114205,1,2,0:0:0:0:
299,292,114363,6,0,L|395:292,1,89.9999972534181,2|2,0:0|0:0,0:0:0:0:
344,268,114598,1,2,0:0:0:0:
324,220,114677,1,8,0:0:0:0:
344,180,114755,1,0,0:0:0:0:
386,153,114834,2,0,L|215:84,1,179.999994506836,0|2,0:0|0:0,0:0:0:0:
399,92,115305,2,0,L|467:156,1,89.9999972534181,8|0,0:0|0:0,0:0:0:0:
319,152,115619,6,0,L|235:192,1,89.9999972534181,2|0,0:0|0:0,0:0:0:0:
291,192,115855,1,0,0:0:0:0:
237,190,115933,1,8,0:0:0:0:
198,233,116012,1,2,0:0:0:0:
200,292,116090,1,2,0:0:0:0:
242,332,116169,1,0,0:0:0:0:
387,332,116247,1,2,0:0:0:0:
398,274,116326,1,2,0:0:0:0:
373,220,116404,1,2,0:0:0:0:
322,191,116483,1,0,0:0:0:0:
267,192,116561,1,8,0:0:0:0:
375,192,116719,1,2,0:0:0:0:
159,192,116876,6,0,P|79:136|79:48,1,179.999994506836,2|8,0:0|0:0,0:0:0:0:
255,60,117347,2,0,P|336:89|367:171,1,179.999994506836,0|2,0:0|0:0,0:0:0:0:
203,172,117818,2,0,L|115:192,1,89.9999972534181,8|0,0:0|0:0,0:0:0:0:
279,244,118132,6,0,L|367:259,1,89.9999972534181,2|2,0:0|0:0,0:0:0:0:
303,256,118368,1,2,0:0:0:0:
159,244,118446,2,0,L|151:340,1,89.9999972534181,8|2,0:0|0:0,0:0:0:0:
331,332,118760,1,2,0:0:0:0:
439,332,118917,1,2,0:0:0:0:
259,332,119075,1,8,0:0:0:0:
367,332,119232,1,2,0:0:0:0:
151,332,119389,6,0,L|67:292,2,89.9999972534181,2|2|8,0:0|0:0|0:0,0:0:0:0:
315,332,119860,2,0,P|339:288|271:192,1,179.999994506836,2|2,0:0|0:0,0:0:0:0:
111,192,120331,2,0,L|199:140,1,89.9999972534181,8|2,0:0|0:0,0:0:0:0:
367,148,120645,6,0,L|279:104,2,89.9999972534181,2|2|8,0:0|0:0|0:0,0:0:0:0:
131,148,121116,1,4,0:0:0:0:
388,192,121902,6,0,L|312:128,2,100,2|0|8,0:0|0:0|0:0,0:0:0:0:
288,192,122373,1,2,0:0:0:0:
120,192,122530,1,2,0:0:0:0:
260,192,122687,1,2,0:0:0:0:
140,192,122844,2,0,L|132:92,1,100,8|0,0:0|0:0,0:0:0:0:
292,92,123158,6,0,L|384:48,1,100,2|2,0:0|0:0,0:0:0:0:
260,92,123472,1,8,0:0:0:0:
360,92,123630,1,2,0:0:0:0:
180,92,123787,1,8,0:0:0:0:
80,92,123944,1,2,0:0:0:0:
200,92,124101,2,0,L|280:156,1,100,8|2,0:0|0:0,0:0:0:0:
108,152,124415,5,2,0:0:0:0:
39,218,124572,1,2,0:0:0:0:
57,312,124729,1,8,0:0:0:0:
146,348,124886,1,2,0:0:0:0:
316,348,125043,1,2,0:0:0:0:
168,348,125200,1,2,0:0:0:0:
288,348,125357,2,0,L|204:280,1,100,8|2,0:0|0:0,0:0:0:0:
372,280,125671,6,0,L|452:220,2,100,2|2|8,0:0|0:0|0:0,0:0:0:0:
272,280,126143,1,2,0:0:0:0:
92,280,126300,1,8,0:0:0:0:
212,280,126457,1,2,0:0:0:0:
44,280,126614,1,8,0:0:0:0:
144,280,126771,1,8,0:0:0:0:
324,284,126928,6,0,L|400:220,2,100,2|2|8,0:0|0:0|0:0,0:0:0:0:
224,284,127399,1,2,0:0:0:0:
392,284,127556,1,8,0:0:0:0:
260,284,127713,1,2,0:0:0:0:
128,284,127870,2,0,L|120:184,1,100,8|2,0:0|0:0,0:0:0:0:
280,184,128184,6,0,L|372:140,1,100,2|2,0:0|0:0,0:0:0:0:
252,184,128499,1,8,0:0:0:0:
152,184,128656,1,2,0:0:0:0:
324,184,128813,1,8,0:0:0:0:
172,184,128970,1,2,0:0:0:0:
344,264,129127,2,0,L|268:328,1,100,8|2,0:0|0:0,0:0:0:0:
428,264,129441,5,2,0:0:0:0:
496,197,129598,1,2,0:0:0:0:
478,103,129755,1,8,0:0:0:0:
389,67,129912,1,2,0:0:0:0:
224,68,130069,1,8,0:0:0:0:
372,68,130226,1,2,0:0:0:0:
252,68,130383,2,0,L|160:120,1,100,8|2,0:0|0:0,0:0:0:0:
328,192,130698,6,0,L|248:252,2,100,2|2|8,0:0|0:0|0:0,0:0:0:0:
188,192,131169,1,2,0:0:0:0:
348,192,131326,1,8,0:0:0:0:
248,192,131483,1,2,0:0:0:0:
408,192,131640,1,8,0:0:0:0:
148,192,131797,1,2,0:0:0:0:
