osu file format v14

[General]
AudioFilename: audio.mp3
AudioLeadIn: 0
PreviewTime: 91273
Countdown: 0
SampleSet: Drum
StackLeniency: 0.7
Mode: 2
LetterboxInBreaks: 0
WidescreenStoryboard: 0

[Editor]
Bookmarks: 21378,41483,61588,81692,91745,111849,131797
DistanceSpacing: 1
BeatDivisor: 4
GridSize: 4
TimelineZoom: 1.5

[Metadata]
Title:Virtual mode
TitleUnicode:Virtual mode
Artist:CELLON.
ArtistUnicode:CELLON.
Creator:JBHyperion
Version:Platter
Source:
Tags:BMS オオグンタマ Ooguntama DRUM STEP drumstep BOFU 2016 Fighters JBH Sanyi instrumental electronic video rhythm game
BeatmapID:2238804
BeatmapSetID:1069501

[Difficulty]
HPDrainRate:5
CircleSize:3.5
OverallDifficulty:8.2
ApproachRate:8.2
SliderMultiplier:1.8
SliderTickRate:2

[Events]
//Background and Video events
0,0,"inconsistent_feeling_by_loundraw-d6z0n08.jpg",0,0
//Break Periods
2,11526,15632
2,31631,33224
//Storyboard Layer 0 (Background)
//Storyboard Layer 1 (Fail)
//Storyboard Layer 2 (Pass)
//Storyboard Layer 3 (Foreground)
//Storyboard Layer 4 (Overlay)
//Storyboard Sound Samples

[TimingPoints]
1274,314.13612565445,4,2,7,60,1,0
16352,-100,4,2,0,20,0,0
16666,-100,4,2,0,22,0,0
16980,-100,4,2,0,24,0,0
17294,-100,4,2,0,26,0,0
17609,-100,4,2,0,28,0,0
17923,-100,4,2,0,30,0,0
18237,-100,4,2,0,32,0,0
18551,-100,4,2,0,34,0,0
18865,-100,4,2,0,36,0,0
19180,-100,4,2,0,38,0,0
19493,-100,4,2,0,40,0,0
19807,-100,4,2,0,42,0,0
20121,-100,4,2,0,44,0,0
20435,-100,4,2,0,46,0,0
20593,-100,4,2,0,5,0,0
20750,-100,4,2,1,50,0,0
21064,-100,4,2,1,60,0,0
21378,-100,4,2,9,60,0,0
21535,-100,4,2,1,60,0,0
26404,-100,4,2,1,60,0,0
26561,-100,4,2,1,60,0,0
30174,-100,4,3,2,80,0,0
30802,-100,4,3,0,70,0,0
30881,-100,4,3,2,70,0,0
31431,-100,4,2,1,60,0,0
33944,-100,4,2,9,60,0,0
35200,-100,4,2,1,60,0,0
35514,-100,4,2,1,50,0,0
35828,-100,4,2,1,60,0,0
36143,-100,4,2,1,70,0,0
36457,-100,4,2,1,50,0,0
36771,-100,4,2,1,52,0,0
37085,-100,4,2,1,54,0,0
37399,-100,4,2,1,56,0,0
37714,-100,4,2,1,58,0,0
38027,-100,4,2,1,60,0,0
38341,-100,4,2,0,42,0,0
38655,-100,4,2,0,44,0,0
38969,-100,4,2,1,65,0,0
39284,-100,4,2,1,65,0,0
39598,-100,4,2,1,70,0,0
39912,-100,4,2,1,70,0,0
40226,-100,4,2,1,75,0,0
41483,-100,4,3,2,80,0,0
42739,-100,4,2,7,80,0,0
42975,-100,4,2,7,80,0,0
43211,-100,4,2,7,80,0,0
43368,-100,4,2,8,80,0,0
43682,-100,4,3,2,65,0,0
43996,-100,4,3,2,80,0,0
45253,-100,4,2,7,80,0,0
45488,-100,4,2,7,80,0,0
45725,-100,4,2,7,80,0,0
45881,-100,4,2,8,80,0,0
46077,-100,4,3,2,80,0,0
46196,-100,4,3,2,65,0,0
46509,-100,4,3,2,80,0,0
47137,-100,4,3,2,65,0,0
47766,-100,4,3,2,60,0,0
48080,-100,4,3,2,50,0,0
48394,-100,4,3,2,70,0,0
48708,-100,4,2,8,80,0,0
48865,-100,4,3,2,65,0,0
49022,-100,4,3,2,80,0,0
49650,-100,4,3,2,65,0,0
50593,-100,4,2,8,65,0,0
50750,-100,4,3,2,65,0,0
51535,-100,4,3,2,80,0,0
52792,-100,4,2,7,80,0,0
53027,-100,4,2,7,80,0,0
53263,-100,4,2,7,80,0,0
53420,-100,4,2,8,80,0,0
53734,-100,4,3,2,65,0,0
54048,-100,4,3,2,80,0,0
55305,-100,4,2,7,80,0,0
55541,-100,4,2,7,80,0,0
55776,-100,4,2,7,80,0,0
55933,-100,4,2,8,80,0,0
56130,-100,4,3,2,80,0,0
56247,-100,4,3,2,65,0,0
56561,-100,4,3,2,80,0,0
57268,-100,4,3,7,70,0,0
57818,-100,4,2,8,80,0,0
58132,-100,4,3,2,80,0,0
58760,-100,4,3,2,60,0,0
59075,-100,4,3,2,80,0,0
59781,-100,4,2,1,60,0,0
60331,-100,4,3,2,80,0,0
60488,-100,4,2,1,70,0,0
61588,-100,4,3,2,80,0,0
61902,-100,4,3,2,80,0,0
63865,-100,4,2,1,80,0,0
64101,-100,4,3,2,80,0,0
64493,-100,4,2,1,70,0,0
64729,-100,4,3,2,65,0,0
65043,-100,4,3,2,80,0,0
65986,-100,4,2,7,80,0,0
66025,-100,4,3,2,60,0,0
66143,-100,4,3,2,80,0,0
66182,-100,4,3,2,60,0,0
66300,-100,4,3,2,80,0,0
66339,-100,4,3,2,60,0,0
66457,-100,4,2,7,80,0,0
66496,-100,4,3,2,60,0,0
66614,-100,4,3,2,80,0,0
67870,-100,4,2,8,80,0,0
68106,-100,4,2,1,60,0,0
68499,-100,4,3,2,80,0,0
68813,-100,4,3,2,50,0,0
68970,-100,4,3,2,60,0,0
69127,-100,4,3,2,70,0,0
69755,-100,4,3,7,70,0,0
70383,-100,4,3,2,70,0,0
70698,-100,4,3,2,70,0,0
71012,-100,4,3,2,70,0,0
71247,-100,4,3,2,80,0,0
71640,-86.9565217391304,4,3,2,80,0,0
72268,-100,4,3,2,50,0,0
72425,-100,4,3,2,65,0,0
72582,-100,4,3,2,80,0,0
72739,-100,4,3,2,65,0,0
72897,-100,4,3,2,80,0,0
73211,-100,4,3,2,70,0,0
74389,-100,4,2,1,70,0,0
74781,-100,4,3,2,70,0,0
75017,-100,4,2,1,70,0,0
75410,-100,4,2,1,80,0,0
75567,-100,4,2,1,80,0,0
76038,-100,4,3,2,80,0,0
76509,-100,4,3,2,80,0,0
76666,-100,4,3,2,80,0,0
77137,-100,4,2,7,80,0,0
77609,-100,4,3,2,80,0,0
77687,-100,4,2,1,80,0,0
77923,-100,4,3,2,80,0,0
78394,-100,4,2,7,80,0,0
78865,-100,4,3,2,80,0,0
78904,-100,4,2,1,80,0,0
79179,-100,4,3,2,80,0,0
79219,-100,4,2,1,80,0,0
79493,-100,4,2,1,80,0,0
80122,-100,4,2,9,70,0,0
80436,-100,4,2,1,80,0,0
80750,-100,4,2,1,80,0,0
81692,-100,4,3,2,80,0,0
81849,-100,4,2,1,70,0,0
82478,-100,4,2,1,50,0,0
82949,-100,4,2,1,70,0,0
83734,-100,4,2,1,50,0,0
84205,-100,4,2,1,70,0,0
84991,-100,4,2,1,50,0,0
85462,-100,4,2,1,70,0,0
85776,-100,4,2,1,60,0,0
86404,-100,4,2,1,50,0,0
86719,-100,4,2,1,80,0,0
89232,-100,4,2,1,40,0,0
89860,-100,4,2,1,45,0,0
90488,-100,4,2,1,50,0,0
90802,-100,4,2,1,60,0,0
91273,-100,4,3,2,70,0,0
91431,-100,4,3,2,70,0,0
91745,-100,4,3,2,80,0,1
92373,-100,4,2,1,80,0,1
92687,-100,4,3,2,80,0,1
93944,-100,4,3,2,80,0,1
94101,-100,4,2,1,80,0,1
94258,-100,4,3,2,80,0,1
94886,-100,4,2,1,80,0,1
95200,-100,4,3,2,80,0,1
97399,-100,4,2,1,80,0,1
97713,-100,4,3,2,80,0,1
99284,-100,4,3,2,80,0,1
101169,-125,4,2,1,80,0,0
101797,-100,4,3,2,80,0,1
102425,-100,4,2,1,80,0,1
102739,-100,4,3,2,80,0,1
104310,-100,4,3,2,80,0,1
104467,-100,4,3,2,80,0,1
104938,-100,4,2,1,80,0,1
105253,-100,4,3,2,80,0,1
106195,-100,4,2,1,80,0,1
106509,-100,4,3,2,80,0,1
106666,-100,4,2,1,80,0,1
106823,-100,4,3,2,80,0,1
106980,-100,4,2,1,80,0,1
107137,-100,4,3,2,80,0,1
107923,-100,4,2,1,80,0,1
108080,-100,4,3,2,80,0,1
108237,-100,4,3,2,80,0,1
109336,-100,4,2,9,80,0,1
109493,-100,4,3,2,80,0,1
110043,-100,4,2,1,80,0,1
110279,-100,4,3,2,80,0,1
110593,-100,4,2,1,80,0,1
110750,-100,4,2,1,80,0,1
111221,-100,4,2,1,70,0,1
111535,-100,4,2,1,60,0,1
111849,-100,4,3,2,90,0,0
112006,-100,4,3,2,80,0,0
113263,-100,4,2,1,80,0,0
113420,-100,4,3,2,80,0,0
114520,-100,4,2,1,80,0,0
114677,-100,4,3,2,80,0,0
114991,-100,4,2,1,80,0,0
115148,-100,4,3,2,80,0,0
117033,-100,4,2,1,80,0,0
117190,-100,4,3,2,80,0,0
118289,-100,4,2,1,80,0,0
118446,-100,4,3,2,80,0,0
119232,-100,4,2,1,80,0,0
119389,-100,4,3,2,80,0,0
120017,-100,4,2,1,80,0,0
120174,-100,4,3,2,80,0,0
120802,-100,4,2,1,80,0,0
120959,-100,4,3,2,80,0,0
121116,-100,4,2,8,80,0,0
121902,-100,4,2,1,70,0,0

[Colours]
Combo1 : 100,255,100
Combo2 : 190,120,120
Combo3 : 255,128,64
Combo4 : 255,255,100

[HitObjects]
256,192,11326,5,4,0:0:0:0:
256,192,16352,12,2,20750,0:0:0:0:
384,192,21064,6,0,L|400:128,2,45,2|2|2,0:0|0:0|0:0,0:0:0:0:
166,192,21378,6,0,L|70:192,2,90,4|0|0,0:0|0:0|0:0,0:0:0:0:
328,192,21849,2,0,P|384:132|328:72,1,180,8|0,0:0|0:0,0:0:0:0:
236,72,22321,2,0,L|232:172,1,90,2|0,0:0|0:0,0:0:0:0:
340,164,22635,5,8,0:0:0:0:
428,164,22792,1,0,0:0:0:0:
428,252,22949,1,0,0:0:0:0:
340,256,23106,1,0,0:0:0:0:
178,256,23263,2,0,L|242:192,1,90,2|2,0:0|0:0,0:0:0:0:
350,320,23577,2,0,L|286:256,1,90,8|2,0:0|0:0,0:0:0:0:
386,256,23891,5,8,0:0:0:0:
298,256,24048,1,0,0:0:0:0:
210,256,24205,1,2,0:0:0:0:
373,256,24363,2,0,P|357:180|273:132,1,180,8|2,0:0|0:0,0:0:0:0:
184,132,24834,2,0,L|180:36,1,90,8|0,0:0|0:0,0:0:0:0:
344,43,25148,6,0,L|436:43,1,90,8|8,0:0|0:0,0:0:0:0:
273,132,25462,2,0,L|365:132,1,90,8|8,0:0|0:0,0:0:0:0:
204,132,25776,1,8,0:0:0:0:
200,176,25854,1,8,0:0:0:0:
220,216,25933,1,2,0:0:0:0:
256,240,26011,1,2,0:0:0:0:
300,240,26090,1,8,0:0:0:0:
400,240,26247,1,2,0:0:0:0:
164,240,26404,6,0,L|160:344,1,90,4|0,0:0|0:0,0:0:0:0:
256,332,26719,1,2,0:0:0:0:
420,332,26876,2,0,L|499:286,2,90,4|0|2,0:0|0:0|0:0,0:0:0:0:
320,332,27347,1,8,0:0:0:0:
412,332,27504,1,0,0:0:0:0:
248,332,27661,5,8,0:0:0:0:
168,288,27818,1,0,0:0:0:0:
168,200,27975,1,0,0:0:0:0:
248,160,28132,1,2,0:0:0:0:
412,160,28289,2,0,L|416:56,1,90,8|0,0:0|0:0,0:0:0:0:
324,72,28603,2,0,L|232:72,1,90,2|0,0:0|0:0,0:0:0:0:
324,72,28917,5,8,0:0:0:0:
224,72,29075,1,0,0:0:0:0:
124,72,29232,1,2,0:0:0:0:
224,72,29389,1,2,0:0:0:0:
60,72,29546,1,8,0:0:0:0:
144,156,29703,1,2,0:0:0:0:
184,156,29781,1,2,0:0:0:0:
224,156,29860,2,0,L|320:156,1,90,8|0,0:0|0:0,0:0:0:0:
144,156,30174,6,0,L|116:192,2,45,2|2|2,0:0|0:0|0:0,0:0:0:0:
324,156,30488,1,8,0:0:0:0:
252,156,30645,2,0,L|248:212,1,45,2|2,0:0|0:0,0:0:0:0:
320,236,30802,2,0,L|368:236,2,45,4|2|8,0:0|0:0|0:0,0:0:0:0:
158,200,31116,1,2,0:0:0:0:
114,200,31195,1,2,0:0:0:0:
70,200,31273,1,2,0:0:0:0:
314,200,31431,5,4,0:0:0:0:
356,192,33944,6,0,B|240:192|240:96|240:0|356:0|472:0|472:96|472:192|360:192|360:192|260:192,1,630,4|0,0:0|0:0,0:0:0:0:
92,192,35200,5,2,0:0:0:0:
220,192,35514,2,0,L|224:144,2,45,2|2|2,0:0|0:0|0:0,0:0:0:0:
108,192,35828,2,0,L|76:160,2,45,2|2|2,0:0|0:0|0:0,0:0:0:0:
236,192,36143,1,2,0:0:0:0:
270,219,36221,1,2,0:0:0:0:
284,261,36300,1,2,0:0:0:0:
270,304,36378,1,0,0:0:0:0:
236,331,36457,5,8,0:0:0:0:
256,192,36771,12,2,40226,0:0:0:0:
192,192,41483,6,0,P|252:136|192:84,1,180,12|8,0:0|0:0,0:0:0:0:
104,84,41954,1,2,0:0:0:0:
268,84,42111,2,0,L|272:176,1,90,8|0,0:0|0:0,0:0:0:0:
180,176,42425,2,0,L|80:176,1,90,2|0,0:0|0:0,0:0:0:0:
336,176,42739,6,0,L|472:192,2,135,8|8|8,0:0|0:0|0:0,0:0:0:0:
172,176,43368,1,12,0:0:0:0:
316,176,43682,2,0,L|324:120,2,45,2|2|2,0:0|0:0|0:0,0:0:0:0:
152,176,43996,6,0,P|88:132|152:88,1,180,12|2,0:0|0:0,0:0:0:0:
248,88,44467,1,0,0:0:0:0:
412,88,44624,2,0,L|408:184,1,90,8|2,0:0|0:0,0:0:0:0:
308,176,44938,2,0,L|400:176,1,90,2|0,0:0|0:0,0:0:0:0:
160,176,45253,6,0,L|24:192,2,135,8|8|8,0:0|0:0|0:0,0:0:0:0:
324,176,45881,2,0,L|328:80,1,90,12|0,0:0|0:0,0:0:0:0:
172,176,46196,2,0,L|164:120,2,45,2|2|8,0:0|0:0|0:0,0:0:0:0:
408,176,46509,6,0,P|444:120|372:56,1,180,12|8,0:0|0:0,0:0:0:0:
280,56,46980,1,2,0:0:0:0:
444,56,47137,1,8,0:0:0:0:
316,56,47766,6,0,L|308:108,2,45,2|2|2,0:0|0:0|0:0,0:0:0:0:
224,56,48080,2,0,L|216:108,2,45,2|2|2,0:0|0:0|0:0,0:0:0:0:
376,100,48394,2,0,L|416:72,2,45,8|0|0,0:0|0:0|0:0,0:0:0:0:
217,100,48708,2,0,L|125:100,1,90,4|0,0:0|0:0,0:0:0:0:
208,100,48944,1,0,0:0:0:0:
288,100,49022,6,0,B|380:100|380:100|380:192,1,180,12|8,0:0|0:0,0:0:0:0:
280,188,49493,1,2,0:0:0:0:
116,188,49650,2,0,L|100:232,3,45,8|2|2|0,0:0|0:0|0:0|0:0,0:0:0:0:
168,188,49965,2,0,L|72:188,1,90,8|2,0:0|0:0,0:0:0:0:
176,188,50279,6,0,L|269:153,1,90,2|0,0:0|0:0,0:0:0:0:
100,188,50593,2,0,B|100:96|100:96|196:96,1,180,12|0,0:0|0:0,0:0:0:0:
276,96,51064,1,8,0:0:0:0:
112,96,51221,1,8,0:0:0:0:
208,96,51378,1,8,0:0:0:0:
448,96,51535,6,0,B|448:188|448:188|360:192,1,180,12|8,0:0|0:0,0:0:0:0:
272,192,52006,1,2,0:0:0:0:
108,192,52164,2,0,L|104:304,1,90,8|0,0:0|0:0,0:0:0:0:
200,280,52478,2,0,L|292:280,1,90,2|2,0:0|0:0,0:0:0:0:
68,280,52792,6,0,L|185:212,2,135,8|8|8,0:0|0:0|0:0,0:0:0:0:
232,280,53420,1,12,0:0:0:0:
376,280,53734,1,2,0:0:0:0:
336,280,53813,1,2,0:0:0:0:
296,280,53891,1,2,0:0:0:0:
132,280,54048,6,0,P|72:240|132:180,1,180,12|2,0:0|0:0,0:0:0:0:
224,180,54520,1,2,0:0:0:0:
388,180,54677,2,0,L|392:84,1,90,8|2,0:0|0:0,0:0:0:0:
300,88,54991,2,0,L|200:88,1,90,2|0,0:0|0:0,0:0:0:0:
432,88,55305,6,0,L|315:156,2,135,8|8|8,0:0|0:0|0:0,0:0:0:0:
268,88,55933,2,0,L|264:192,1,90,12|0,0:0|0:0,0:0:0:0:
420,176,56247,1,2,0:0:0:0:
384,176,56326,1,2,0:0:0:0:
348,176,56404,1,8,0:0:0:0:
108,176,56561,6,0,P|72:232|144:296,1,180,6|8,0:0|0:0,0:0:0:0:
236,296,57032,1,2,0:0:0:0:
408,296,57190,1,8,0:0:0:0:
432,256,57268,1,0,0:0:0:0:
408,216,57347,1,8,0:0:0:0:
364,216,57425,1,0,0:0:0:0:
336,180,57504,1,4,0:0:0:0:
364,144,57582,1,0,0:0:0:0:
408,144,57661,1,8,0:0:0:0:
236,144,57818,6,0,L|76:232,1,180,2|2,0:0|0:0,0:0:0:0:
392,216,58446,1,8,0:0:0:0:
176,220,59075,6,0,B|176:312|176:312|272:312,1,180,12|8,0:0|0:0,0:0:0:0:
352,312,59546,1,2,0:0:0:0:
184,312,59703,2,0,L|168:264,6,45,2|2|2|2|2|2|2,0:0|0:0|0:0|0:0|0:0|0:0|0:0,0:0:0:0:
416,316,60331,5,12,0:0:0:0:
491,250,60488,1,0,0:0:0:0:
472,151,60645,1,2,0:0:0:0:
377,119,60802,1,2,0:0:0:0:
216,120,60959,2,0,L|224:24,1,90,8|0,0:0|0:0,0:0:0:0:
316,192,61273,2,0,L|308:96,1,90,2|2,0:0|0:0,0:0:0:0:
72,100,61588,6,0,B|72:192|72:192|160:192,1,180,12|2,0:0|0:0,0:0:0:0:
248,192,62059,1,2,0:0:0:0:
420,192,62216,1,8,0:0:0:0:
208,192,62844,6,0,L|304:192,1,90,2|0,0:0|0:0,0:0:0:0:
128,192,63158,2,0,L|120:84,1,90,8|0,0:0|0:0,0:0:0:0:
220,104,63472,2,0,L|128:104,1,90,2|0,0:0|0:0,0:0:0:0:
304,104,63787,2,0,L|348:104,2,45,8|0|2,0:0|0:0|0:0,0:0:0:0:
204,104,64101,6,0,L|200:4,1,90,2|0,0:0|0:0,0:0:0:0:
372,12,64415,1,8,0:0:0:0:
420,42,64493,1,2,0:0:0:0:
420,100,64572,1,2,0:0:0:0:
372,131,64650,1,2,0:0:0:0:
320,132,64729,2,0,L|420:132,1,90,2|2,0:0|0:0,0:0:0:0:
248,132,65043,2,0,L|344:132,1,90,8|8,0:0|0:0,0:0:0:0:
428,132,65357,5,2,0:0:0:0:
264,220,65514,2,0,L|176:192,2,90,8|2|2,0:0|0:0|0:0,0:0:0:0:
100,220,65986,1,8,0:0:0:0:
98,264,66064,1,0,0:0:0:0:
96,309,66143,1,2,0:0:0:0:
192,312,66300,1,8,0:0:0:0:
144,312,66378,1,0,0:0:0:0:
96,309,66457,1,8,0:0:0:0:
272,312,66614,6,0,L|389:244,1,135,2|2,0:0|0:0,0:0:0:0:
272,192,67085,2,0,L|154:124,1,135,2|2,0:0|0:0,0:0:0:0:
400,192,67556,1,8,0:0:0:0:
112,192,67870,6,0,P|52:144|112:80,1,180,12|2,0:0|0:0,0:0:0:0:
152,80,68263,1,2,0:0:0:0:
196,80,68342,1,2,0:0:0:0:
359,80,68499,2,0,P|339:144|243:192,1,180,2|2,0:0|0:0,0:0:0:0:
200,192,68891,1,2,0:0:0:0:
242,192,68970,1,2,0:0:0:0:
476,192,69127,5,2,0:0:0:0:
332,192,70383,6,0,L|336:96,1,90,2|0,0:0|0:0,0:0:0:0:
236,104,70698,2,0,L|328:104,1,90,2|0,0:0|0:0,0:0:0:0:
156,104,71012,2,0,L|252:104,1,90,2|0,0:0|0:0,0:0:0:0:
296,104,71247,1,2,0:0:0:0:
246,104,71326,2,0,L|156:104,1,90,2|8,0:0|0:0,0:0:0:0:
408,104,71640,6,0,P|372:228|216:304,1,310.500005922318,12|0,0:0|0:0,0:0:0:0:
400,304,72268,2,0,L|404:252,2,45,8|8|8,0:0|0:0|0:0,0:0:0:0:
308,240,72582,2,0,L|312:188,2,45,8|8|8,0:0|0:0|0:0,0:0:0:0:
216,192,72897,1,8,0:0:0:0:
144,192,73211,5,2,0:0:0:0:
452,192,73525,1,8,0:0:0:0:
308,192,74153,6,0,L|188:120,2,135,2|2|2,0:0|0:0|0:0,0:0:0:0:
220,192,74781,2,0,L|100:120,2,135,2|2|2,0:0|0:0|0:0,0:0:0:0:
384,192,75410,6,0,P|428:152|384:108,1,135,2|8,0:0|0:0,0:0:0:0:
256,108,75881,1,0,0:0:0:0:
420,108,76038,2,0,L|296:48,1,135,2|8,0:0|0:0,0:0:0:0:
436,108,76509,1,8,0:0:0:0:
204,108,76666,6,0,L|68:108,1,135,2|2,0:0|0:0,0:0:0:0:
304,108,77137,1,8,0:0:0:0:
168,108,77373,1,8,0:0:0:0:
404,108,77609,1,8,0:0:0:0:
116,108,77923,6,0,L|112:260,1,135,2|2,0:0|0:0,0:0:0:0:
248,244,78394,1,8,0:0:0:0:
100,244,78630,1,8,0:0:0:0:
328,244,78865,1,8,0:0:0:0:
365,218,78943,1,2,0:0:0:0:
402,193,79022,1,2,0:0:0:0:
156,244,79179,6,0,P|100:188|160:132,1,180,12|8,0:0|0:0,0:0:0:0:
252,132,79650,1,0,0:0:0:0:
152,132,79808,2,0,L|148:36,1,90,2|2,0:0|0:0,0:0:0:0:
320,40,80122,1,4,0:0:0:0:
212,40,80436,6,0,L|208:136,1,90,2|0,0:0|0:0,0:0:0:0:
300,132,80750,2,0,L|396:132,1,90,2|0,0:0|0:0,0:0:0:0:
220,132,81064,1,8,0:0:0:0:
136,172,81221,1,0,0:0:0:0:
132,264,81378,1,8,0:0:0:0:
212,308,81535,1,2,0:0:0:0:
456,308,81692,5,4,0:0:0:0:
292,308,82321,1,2,0:0:0:0:
212,308,82478,1,8,0:0:0:0:
132,308,82635,1,8,0:0:0:0:
52,308,82792,1,8,0:0:0:0:
288,192,83577,6,0,L|192:192,3,90,2|8|8|8,0:0|0:0|0:0|0:0,0:0:0:0:
108,192,84834,5,2,0:0:0:0:
208,192,84991,2,0,L|291:144,2,90,8|8|8,0:0|0:0|0:0,0:0:0:0:
308,192,85462,6,0,L|312:100,1,90,2|2,0:0|0:0,0:0:0:0:
136,192,86090,1,8,0:0:0:0:
216,192,86247,1,8,0:0:0:0:
296,192,86404,1,2,0:0:0:0:
216,192,86561,1,2,0:0:0:0:
380,192,86719,6,0,P|440:140|376:88,1,180,8|2,0:0|0:0,0:0:0:0:
236,88,87347,2,0,L|232:184,1,90,8|0,0:0|0:0,0:0:0:0:
324,180,87661,2,0,L|328:288,1,90,8|2,0:0|0:0,0:0:0:0:
236,272,87975,6,0,L|72:192,1,180,8|2,0:0|0:0,0:0:0:0:
220,192,88603,1,2,0:0:0:0:
140,192,88760,1,0,0:0:0:0:
228,192,88917,1,8,0:0:0:0:
148,192,89075,1,2,0:0:0:0:
256,192,89232,12,2,90959,0:0:0:0:
256,192,91273,5,2,0:0:0:0:
84,192,91431,2,0,L|80:92,1,90,8|0,0:0|0:0,0:0:0:0:
320,100,91745,6,0,L|412:100,2,90,12|2|8,0:0|0:0|0:0,0:0:0:0:
232,100,92216,2,0,P|172:152|232:204,1,180,2|2,0:0|0:0,0:0:0:0:
402,189,92687,2,0,L|409:99,1,90,8|2,0:0|0:0,0:0:0:0:
312,100,93001,6,0,L|208:100,1,90,2|2,0:0|0:0,0:0:0:0:
392,188,93315,2,0,L|384:92,1,90,8|2,0:0|0:0,0:0:0:0:
292,100,93630,1,2,0:0:0:0:
264,100,93708,1,0,0:0:0:0:
236,99,93787,1,2,0:0:0:0:
408,99,93944,2,0,L|308:99,1,90,8|2,0:0|0:0,0:0:0:0:
84,100,94258,6,0,L|80:216,1,90,2|2,0:0|0:0,0:0:0:0:
180,192,94572,1,8,0:0:0:0:
352,192,94729,2,0,L|196:100,1,180,2|2,0:0|0:0,0:0:0:0:
368,100,95200,2,0,L|447:146,2,90,8|0|2,0:0|0:0|0:0,0:0:0:0:
268,100,95671,5,2,0:0:0:0:
318,100,95750,1,2,0:0:0:0:
368,100,95828,2,0,L|372:192,1,90,8|2,0:0|0:0,0:0:0:0:
200,192,96143,2,0,L|108:192,1,90,2|2,0:0|0:0,0:0:0:0:
280,192,96457,2,0,L|284:96,1,90,8|2,0:0|0:0,0:0:0:0:
48,104,96771,6,0,L|44:8,1,90,2|2,0:0|0:0,0:0:0:0:
136,12,97085,1,8,0:0:0:0:
36,16,97242,2,0,L|192:104,1,180,2|2,0:0|0:0,0:0:0:0:
364,104,97713,2,0,L|368:8,1,90,8|2,0:0|0:0,0:0:0:0:
268,12,98027,6,0,L|176:12,1,90,2|2,0:0|0:0,0:0:0:0:
352,104,98342,2,0,L|448:104,1,90,8|2,0:0|0:0,0:0:0:0:
344,104,98656,1,2,0:0:0:0:
304,136,98734,1,0,0:0:0:0:
304,196,98813,1,2,0:0:0:0:
341,235,98891,1,2,0:0:0:0:
396,236,98970,2,0,L|296:236,1,90,8|2,0:0|0:0,0:0:0:0:
476,236,99284,6,0,L|480:328,1,90,2|2,0:0|0:0,0:0:0:0:
392,328,99598,1,8,0:0:0:0:
156,328,99755,2,0,P|104:260|156:192,1,180,2|2,0:0|0:0,0:0:0:0:
320,192,100226,2,0,L|416:192,1,90,8|2,0:0|0:0,0:0:0:0:
240,192,100541,5,2,0:0:0:0:
152,192,100698,1,2,0:0:0:0:
200,192,100776,1,2,0:0:0:0:
248,192,100855,2,0,L|344:192,1,90,8|2,0:0|0:0,0:0:0:0:
248,192,101169,2,0,L|244:96,1,72,8|0,0:0|0:0,0:0:0:0:
338,104,101483,1,2,0:0:0:0:
432,104,101640,1,8,0:0:0:0:
212,104,101797,6,0,L|132:58,2,90,12|2|8,0:0|0:0|0:0,0:0:0:0:
384,104,102268,1,2,0:0:0:0:
296,104,102425,1,2,0:0:0:0:
248,104,102504,1,2,0:0:0:0:
200,104,102582,1,2,0:0:0:0:
372,104,102739,2,0,L|376:204,1,90,8|0,0:0|0:0,0:0:0:0:
276,192,103054,6,0,L|368:192,1,90,2|2,0:0|0:0,0:0:0:0:
196,192,103368,2,0,L|192:308,1,90,8|0,0:0|0:0,0:0:0:0:
104,280,103682,1,2,0:0:0:0:
204,284,103839,1,2,0:0:0:0:
32,192,103996,2,0,L|128:192,1,90,8|2,0:0|0:0,0:0:0:0:
360,192,104310,6,0,P|416:140|360:72,1,180,2|8,0:0|0:0,0:0:0:0:
192,72,104781,2,0,L|96:72,1,90,0|2,0:0|0:0,0:0:0:0:
12,72,105095,1,2,0:0:0:0:
184,72,105253,2,0,L|188:168,1,90,8|2,0:0|0:0,0:0:0:0:
96,164,105567,5,2,0:0:0:0:
196,164,105724,1,2,0:0:0:0:
368,164,105881,1,8,0:0:0:0:
413,164,105959,1,0,0:0:0:0:
458,164,106038,2,0,L|460:68,1,90,2|2,0:0|0:0,0:0:0:0:
360,76,106352,1,2,0:0:0:0:
188,76,106509,2,0,L|84:76,1,90,8|2,0:0|0:0,0:0:0:0:
340,76,106823,6,0,L|436:76,1,90,2|2,0:0|0:0,0:0:0:0:
260,76,107137,2,0,L|256:180,1,90,8|0,0:0|0:0,0:0:0:0:
312,168,107373,1,0,0:0:0:0:
256,165,107452,2,0,L|192:165,2,45,2|2|2,0:0|0:0|0:0,0:0:0:0:
428,168,107766,2,0,L|332:168,1,90,8|2,0:0|0:0,0:0:0:0:
100,168,108080,6,0,P|44:120|96:44,1,180,2|8,0:0|0:0,0:0:0:0:
192,44,108551,1,2,0:0:0:0:
93,44,108708,2,0,L|189:44,1,90,2|2,0:0|0:0,0:0:0:0:
348,44,109022,2,0,L|248:44,1,90,8|2,0:0|0:0,0:0:0:0:
492,44,109336,6,0,B|492:136|492:136|396:136,1,180,12|8,0:0|0:0,0:0:0:0:
312,136,109808,1,2,0:0:0:0:
222,136,109965,2,0,L|318:136,1,90,2|0,0:0|0:0,0:0:0:0:
212,136,110279,2,0,L|120:136,1,90,8|8,0:0|0:0,0:0:0:0:
292,136,110593,5,8,0:0:0:0:
367,175,110750,1,2,0:0:0:0:
369,261,110907,1,8,0:0:0:0:
294,304,111064,1,2,0:0:0:0:
196,304,111221,2,0,L|288:304,1,90,8|2,0:0|0:0,0:0:0:0:
188,304,111535,2,0,L|184:196,1,90,8|2,0:0|0:0,0:0:0:0:
416,192,111849,6,0,L|508:192,2,90,12|0|8,0:0|0:0|0:0,0:0:0:0:
244,192,112321,1,0,0:0:0:0:
164,192,112478,1,0,0:0:0:0:
160,112,112635,1,2,0:0:0:0:
332,112,112792,2,0,L|336:12,1,90,8|0,0:0|0:0,0:0:0:0:
236,24,113106,6,0,L|328:24,1,90,2|2,0:0|0:0,0:0:0:0:
496,28,113420,1,8,0:0:0:0:
408,32,113577,2,0,L|328:80,2,90,0|2|2,0:0|0:0|0:0,0:0:0:0:
244,32,114048,2,0,L|152:32,1,90,8|2,0:0|0:0,0:0:0:0:
64,32,114363,6,0,L|156:32,1,90,2|2,0:0|0:0,0:0:0:0:
244,32,114677,1,8,0:0:0:0:
72,32,114834,2,0,P|12:96|68:140,1,180,0|2,0:0|0:0,0:0:0:0:
240,140,115305,2,0,L|244:236,1,90,8|0,0:0|0:0,0:0:0:0:
72,232,115619,6,0,L|164:232,1,90,2|0,0:0|0:0,0:0:0:0:
252,232,115933,1,8,0:0:0:0:
253,276,116011,1,2,0:0:0:0:
255,321,116090,1,2,0:0:0:0:
165,321,116247,1,2,0:0:0:0:
210,321,116325,1,2,0:0:0:0:
255,321,116404,1,2,0:0:0:0:
156,320,116561,1,8,0:0:0:0:
210,321,116640,1,0,0:0:0:0:
264,321,116719,1,2,0:0:0:0:
32,320,116876,6,0,L|28:200,1,90,2|0,0:0|0:0,0:0:0:0:
120,192,117190,1,8,0:0:0:0:
292,192,117347,1,0,0:0:0:0:
292,104,117504,1,0,0:0:0:0:
204,104,117661,1,2,0:0:0:0:
32,104,117818,2,0,L|36:8,1,90,8|0,0:0|0:0,0:0:0:0:
136,12,118132,6,0,L|292:104,1,180,2|8,0:0|0:0,0:0:0:0:
192,104,118603,1,2,0:0:0:0:
292,104,118760,2,0,L|384:104,1,90,2|2,0:0|0:0,0:0:0:0:
212,104,119075,1,8,0:0:0:0:
312,104,119232,1,2,0:0:0:0:
140,104,119389,6,0,L|52:136,2,90,2|2|8,0:0|0:0|0:0,0:0:0:0:
304,104,119860,2,0,P|360:164|304:228,1,180,2|2,0:0|0:0,0:0:0:0:
136,228,120331,2,0,L|220:192,1,90,8|2,0:0|0:0,0:0:0:0:
308,192,120645,6,0,L|400:192,2,90,2|2|8,0:0|0:0|0:0,0:0:0:0:
88,192,121116,1,4,0:0:0:0:
308,192,121902,6,0,L|376:120,2,90,2|0|8,0:0|0:0|0:0,0:0:0:0:
220,192,122373,1,2,0:0:0:0:
320,192,122530,1,2,0:0:0:0:
408,192,122687,1,2,0:0:0:0:
408,280,122844,1,8,0:0:0:0:
320,280,123001,1,0,0:0:0:0:
220,280,123158,6,0,L|140:326,2,90,2|2|8,0:0|0:0|0:0,0:0:0:0:
312,280,123630,1,2,0:0:0:0:
140,280,123787,2,0,L|136:184,1,90,8|2,0:0|0:0,0:0:0:0:
228,192,124101,2,0,L|320:192,1,90,8|2,0:0|0:0,0:0:0:0:
148,192,124415,5,2,0:0:0:0:
72,150,124572,1,2,0:0:0:0:
70,64,124729,1,8,0:0:0:0:
143,20,124886,1,2,0:0:0:0:
228,20,125043,1,2,0:0:0:0:
316,20,125200,1,2,0:0:0:0:
228,20,125357,1,8,0:0:0:0:
136,20,125514,1,2,0:0:0:0:
236,20,125671,6,0,L|240:128,1,90,2|2,0:0|0:0,0:0:0:0:
140,112,125986,2,0,L|248:112,1,90,8|2,0:0|0:0,0:0:0:0:
400,112,126300,1,8,0:0:0:0:
416,212,126457,1,2,0:0:0:0:
352,288,126614,1,8,0:0:0:0:
244,288,126771,1,8,0:0:0:0:
76,288,126928,6,0,L|72:196,1,90,2|2,0:0|0:0,0:0:0:0:
164,192,127242,1,8,0:0:0:0:
256,192,127399,1,2,0:0:0:0:
84,104,127556,2,0,L|163:58,2,90,8|2|8,0:0|0:0|0:0,0:0:0:0:
184,104,128027,1,2,0:0:0:0:
284,104,128184,6,0,L|288:200,1,90,2|2,0:0|0:0,0:0:0:0:
188,192,128499,2,0,L|184:288,1,90,8|2,0:0|0:0,0:0:0:0:
356,284,128813,2,0,L|276:238,1,90,8|2,0:0|0:0,0:0:0:0:
368,192,129127,2,0,L|447:238,1,90,8|2,0:0|0:0,0:0:0:0:
278,239,129441,5,2,0:0:0:0:
185,203,129598,1,2,0:0:0:0:
183,104,129755,1,8,0:0:0:0:
274,66,129912,1,2,0:0:0:0:
104,64,130069,2,0,L|24:110,1,90,8|2,0:0|0:0,0:0:0:0:
124,64,130383,2,0,L|203:110,1,90,8|2,0:0|0:0,0:0:0:0:
104,108,130698,6,0,L|196:108,2,90,2|2|8,0:0|0:0|0:0,0:0:0:0:
204,108,131169,1,2,0:0:0:0:
32,108,131326,2,0,L|28:212,1,90,8|2,0:0|0:0,0:0:0:0:
200,200,131640,2,0,L|296:200,1,90,8|2,0:0|0:0,0:0:0:0:
