osu file format v14

[General]
AudioFilename: Madpakke.mp3
AudioLeadIn: 0
PreviewTime: 43970
Countdown: 0
SampleSet: Soft
StackLeniency: 0.7
Mode: 3
LetterboxInBreaks: 0
SpecialStyle: 0
WidescreenStoryboard: 0

[Editor]
DistanceSpacing: 1
BeatDivisor: 4
GridSize: 8
TimelineZoom: 1.4

[Metadata]
Title:Madpakke
TitleUnicode:Madpakke
Artist:CELLON.
ArtistUnicode:CELLON.
Creator:[ C r a c k ]
Version:richard's 7K Normal
Source:BMS
Tags:of fighters bof2012 richardfeder
BeatmapID:709819
BeatmapSetID:304248

[Difficulty]
HPDrainRate:7.5
CircleSize:7
OverallDifficulty:7.5
ApproachRate:5
SliderMultiplier:1.4
SliderTickRate:1

[Events]
//Background and Video events
0,0,"damn BG.jpg",0,0
//Break Periods
//Storyboard Layer 0 (Background)
//Storyboard Layer 1 (Fail)
//Storyboard Layer 2 (Pass)
//Storyboard Layer 3 (Foreground)
//Storyboard Sound Samples

[TimingPoints]
9,461.538461538462,4,2,0,10,1,0
30470,375,4,2,0,10,1,0
30470,-123.456790123457,4,2,0,10,0,0
31220,375,4,2,0,10,1,0
31220,-123.456790123457,4,2,0,10,0,0
55970,461.538461538462,4,2,0,10,1,0
56893,461.538461538462,4,2,0,10,1,0

[HitObjects]
182,192,1855,5,2,0:0:0:0:
329,192,1912,1,0,0:0:0:0:
475,192,1970,128,0,3239:0:0:0:0:
36,192,2316,1,2,0:0:0:0:
109,192,2778,1,2,0:0:0:0:
182,192,3239,128,2,5547:0:0:0:0:
109,192,5547,1,2,0:0:0:0:
402,192,5605,128,0,6932:0:0:0:0:
36,192,6470,1,2,0:0:0:0:
182,192,6932,128,2,9239:0:0:0:0:
402,192,9239,1,2,0:0:0:0:
256,192,9297,1,0,0:0:0:0:
109,192,9355,128,0,10162:0:0:0:0:
475,192,10162,1,2,0:0:0:0:
329,192,10220,128,0,12932:0:0:0:0:
109,192,12932,1,2,0:0:0:0:
256,192,12989,128,0,13855:0:0:0:0:
36,192,13855,1,2,0:0:0:0:
182,192,13912,128,0,16624:0:0:0:0:
475,192,16624,1,2,0:0:0:0:
402,192,17085,1,0,0:0:0:0:
329,192,17547,1,0,0:0:0:0:
256,192,18009,1,0,0:0:0:0:
182,192,18470,1,0,0:0:0:0:
36,192,18470,1,2,0:0:0:0:
329,192,18932,1,2,0:0:0:0:
109,192,19393,1,2,0:0:0:0:
256,192,19855,1,2,0:0:0:0:
402,192,20316,1,2,0:0:0:0:
182,192,20778,128,2,21701:0:0:0:0:
329,192,21701,1,0,0:0:0:0:
475,192,21701,1,2,0:0:0:0:
36,192,22162,128,2,24009:0:0:0:0:
402,192,23316,1,2,0:0:0:0:
329,192,23547,1,2,0:0:0:0:
256,192,23778,1,2,0:0:0:0:
182,192,24009,128,0,24932:0:0:0:0:
402,192,24009,1,2,0:0:0:0:
36,192,24470,1,2,0:0:0:0:
475,192,24932,1,2,0:0:0:0:
109,192,25393,1,2,0:0:0:0:
182,192,25855,1,2,0:0:0:0:
329,192,25855,128,0,26778:0:0:0:0:
475,192,26316,1,2,0:0:0:0:
36,192,26778,1,2,0:0:0:0:
182,192,27009,1,2,0:0:0:0:
256,192,27239,1,2,0:0:0:0:
329,192,27470,1,2,0:0:0:0:
402,192,27701,128,0,28393:0:0:0:0:
182,192,27701,1,2,0:0:0:0:
36,192,27701,1,0,0:0:0:0:
256,192,28624,1,0,0:0:0:0:
109,192,28624,1,2,0:0:0:0:
475,192,28624,128,0,29316:0:0:0:0:
402,192,29547,1,2,0:0:0:0:
182,192,29547,1,0,0:0:0:0:
329,192,30009,1,2,0:0:0:0:
109,192,30009,1,0,0:0:0:0:
256,192,30470,1,2,0:0:0:0:
36,192,30470,1,0,0:0:0:0:
329,192,30845,1,2,0:0:0:0:
475,192,30845,1,0,0:0:0:0:
402,192,31220,1,0,0:0:0:0:
36,192,31220,1,4,0:0:0:0:
402,192,31407,1,0,0:0:0:0:
36,192,31407,1,4,0:0:0:0:
182,192,32157,1,0,0:0:0:0:
182,192,32345,1,0,0:0:0:0:
475,192,32720,1,4,0:0:0:0:
109,192,32720,1,0,0:0:0:0:
109,192,32907,1,4,0:0:0:0:
475,192,32907,1,0,0:0:0:0:
256,192,33095,1,4,0:0:0:0:
402,192,33657,1,0,0:0:0:0:
402,192,33845,1,0,0:0:0:0:
256,192,34220,1,0,0:0:0:0:
36,192,34220,1,4,0:0:0:0:
256,192,34407,1,0,0:0:0:0:
36,192,34407,1,4,0:0:0:0:
256,192,34782,1,4,0:0:0:0:
36,192,34782,1,0,0:0:0:0:
36,192,35345,1,0,0:0:0:0:
256,192,35345,1,4,0:0:0:0:
475,192,35720,1,4,0:0:0:0:
109,192,35720,1,0,0:0:0:0:
475,192,35907,1,4,0:0:0:0:
109,192,35907,1,0,0:0:0:0:
475,192,36282,1,0,0:0:0:0:
109,192,36282,1,4,0:0:0:0:
36,192,36657,1,4,0:0:0:0:
402,192,36657,1,0,0:0:0:0:
182,192,37220,1,4,0:0:0:0:
475,192,37220,1,0,0:0:0:0:
182,192,37407,1,4,0:0:0:0:
475,192,37407,1,0,0:0:0:0:
182,192,38157,1,4,0:0:0:0:
475,192,38157,1,0,0:0:0:0:
182,192,38345,1,4,0:0:0:0:
475,192,38345,1,0,0:0:0:0:
182,192,38532,1,0,0:0:0:0:
329,192,38720,1,4,0:0:0:0:
36,192,38720,1,0,0:0:0:0:
329,192,38907,1,0,0:0:0:0:
36,192,38907,1,4,0:0:0:0:
256,192,39095,1,4,0:0:0:0:
329,192,39657,1,4,0:0:0:0:
36,192,39657,1,0,0:0:0:0:
329,192,39845,1,0,0:0:0:0:
256,192,40220,1,4,0:0:0:0:
36,192,40220,1,0,0:0:0:0:
256,192,40407,1,4,0:0:0:0:
36,192,40407,1,0,0:0:0:0:
256,192,40782,1,4,0:0:0:0:
36,192,40782,1,0,0:0:0:0:
256,192,41345,1,4,0:0:0:0:
36,192,41345,1,0,0:0:0:0:
256,192,41720,1,4,0:0:0:0:
475,192,41720,1,0,0:0:0:0:
256,192,41907,1,4,0:0:0:0:
475,192,41907,1,0,0:0:0:0:
256,192,42282,1,4,0:0:0:0:
475,192,42282,1,0,0:0:0:0:
182,192,42657,1,2,0:0:0:0:
36,192,42657,1,4,0:0:0:0:
36,192,43970,1,2,0:0:0:0:
109,192,44157,1,2,0:0:0:0:
182,192,44345,1,2,0:0:0:0:
256,192,44532,1,2,0:0:0:0:
329,192,44720,1,4,0:0:0:0:
475,192,44720,1,2,0:0:0:0:
182,192,44907,1,2,0:0:0:0:
402,192,45095,1,2,0:0:0:0:
109,192,45188,1,2,0:0:0:0:
402,192,45282,1,2,0:0:0:0:
329,192,45470,1,2,0:0:0:0:
256,192,45657,1,2,0:0:0:0:
182,192,45845,1,2,0:0:0:0:
109,192,46032,1,2,0:0:0:0:
36,192,46220,1,2,0:0:0:0:
329,192,46407,1,2,0:0:0:0:
182,192,46595,1,2,0:0:0:0:
329,192,46688,1,2,0:0:0:0:
36,192,46782,1,2,0:0:0:0:
475,192,46970,1,2,0:0:0:0:
402,192,47157,1,2,0:0:0:0:
329,192,47345,1,2,0:0:0:0:
256,192,47532,1,2,0:0:0:0:
182,192,47720,1,6,0:0:0:0:
36,192,47720,1,4,0:0:0:0:
329,192,47907,1,0,0:0:0:0:
182,192,48001,1,0,0:0:0:0:
402,192,48095,1,8,0:0:0:0:
256,192,48188,1,0,0:0:0:0:
109,192,48282,1,2,0:0:0:0:
329,192,48376,1,0,0:0:0:0:
182,192,48470,1,0,0:0:0:0:
182,192,48657,1,2,0:0:0:0:
36,192,48751,1,0,0:0:0:0:
329,192,48845,1,8,0:0:0:0:
182,192,48938,1,0,0:0:0:0:
475,192,49032,1,0,0:0:0:0:
329,192,49126,1,0,0:0:0:0:
182,192,49220,1,2,0:0:0:0:
36,192,49407,1,0,0:0:0:0:
109,192,49595,1,8,0:0:0:0:
182,192,49688,1,0,0:0:0:0:
256,192,49782,1,0,0:0:0:0:
329,192,49876,1,0,0:0:0:0:
402,192,49970,1,4,0:0:0:0:
475,192,49970,1,0,0:0:0:0:
109,192,50157,1,4,0:0:0:0:
36,192,50157,1,0,0:0:0:0:
475,192,50720,1,4,0:0:0:0:
329,192,50720,1,2,0:0:0:0:
182,192,50813,1,2,0:0:0:0:
256,192,50907,1,2,0:0:0:0:
109,192,51095,1,2,0:0:0:0:
402,192,51188,1,2,0:0:0:0:
109,192,51282,1,2,0:0:0:0:
329,192,51470,1,2,0:0:0:0:
256,192,51657,1,2,0:0:0:0:
182,192,51845,1,2,0:0:0:0:
109,192,52032,1,2,0:0:0:0:
329,192,52220,1,2,0:0:0:0:
475,192,52313,1,2,0:0:0:0:
182,192,52407,1,2,0:0:0:0:
109,192,52782,1,2,0:0:0:0:
256,192,52876,1,2,0:0:0:0:
402,192,52970,1,2,0:0:0:0:
329,192,53063,1,0,0:0:0:0:
256,192,53157,1,0,0:0:0:0:
182,192,53251,1,0,0:0:0:0:
109,192,53345,1,4,0:0:0:0:
475,192,53438,1,0,0:0:0:0:
402,192,53532,1,0,0:0:0:0:
329,192,53626,1,0,0:0:0:0:
256,192,53720,1,4,0:0:0:0:
36,192,53720,1,0,0:0:0:0:
475,192,53907,1,2,0:0:0:0:
402,192,54001,1,2,0:0:0:0:
256,192,54095,1,2,0:0:0:0:
329,192,54188,1,2,0:0:0:0:
182,192,54282,1,2,0:0:0:0:
109,192,54470,1,2,0:0:0:0:
182,192,54657,1,2,0:0:0:0:
256,192,54845,1,2,0:0:0:0:
329,192,55032,1,2,0:0:0:0:
402,192,55220,1,2,0:0:0:0:
109,192,56893,1,4,0:0:0:0:
402,192,56893,1,0,0:0:0:0:
36,192,58739,1,4,0:0:0:0:
475,192,58739,1,0,0:0:0:0:
182,192,59085,1,2,0:0:0:0:
329,192,59200,1,2,0:0:0:0:
402,192,59431,1,2,0:0:0:0:
256,192,59546,1,2,0:0:0:0:
109,192,59662,1,2,0:0:0:0:
329,192,59893,128,0,60123:0:0:0:0:
182,192,60354,128,0,60585:0:0:0:0:
109,192,60816,1,2,0:0:0:0:
402,192,60931,1,2,0:0:0:0:
36,192,61277,1,2,0:0:0:0:
475,192,61393,1,2,0:0:0:0:
182,192,61739,1,2,0:0:0:0:
329,192,61854,1,2,0:0:0:0:
182,192,62200,1,2,0:0:0:0:
329,192,62316,1,2,0:0:0:0:
36,192,62431,1,4,0:0:0:0:
475,192,62431,1,0,0:0:0:0:
329,192,62662,1,2,0:0:0:0:
182,192,62777,1,2,0:0:0:0:
329,192,63123,1,2,0:0:0:0:
109,192,63239,1,2,0:0:0:0:
182,192,63585,1,2,0:0:0:0:
402,192,63700,1,2,0:0:0:0:
36,192,64046,1,2,0:0:0:0:
256,192,64162,1,2,0:0:0:0:
475,192,64508,128,0,64739:0:0:0:0:
329,192,64969,128,0,65200:0:0:0:0:
182,192,65431,128,0,65662:0:0:0:0:
329,192,65662,1,4,0:0:0:0:
256,192,65893,128,0,66123:0:0:0:0:
36,192,66123,1,4,0:0:0:0:
475,192,66123,1,0,0:0:0:0:
329,192,66354,1,2,0:0:0:0:
182,192,66469,1,2,0:0:0:0:
402,192,66816,1,2,0:0:0:0:
109,192,66931,1,2,0:0:0:0:
329,192,67277,1,2,0:0:0:0:
182,192,67393,1,2,0:0:0:0:
329,192,67739,1,2,0:0:0:0:
182,192,67854,1,2,0:0:0:0:
475,192,67969,1,4,0:0:0:0:
36,192,67969,1,0,0:0:0:0:
402,192,68200,128,0,68431:0:0:0:0:
109,192,68662,128,0,68893:0:0:0:0:
256,192,69123,1,2,0:0:0:0:
402,192,69239,1,2,0:0:0:0:
329,192,69585,1,2,0:0:0:0:
182,192,69700,1,2,0:0:0:0:
36,192,69816,1,4,0:0:0:0:
475,192,69816,1,0,0:0:0:0:
256,192,70046,1,2,0:0:0:0:
109,192,70162,1,2,0:0:0:0:
329,192,70393,1,2,0:0:0:0:
182,192,70508,1,2,0:0:0:0:
36,192,70739,1,4,0:0:0:0:
475,192,70739,1,0,0:0:0:0:
182,192,70854,1,2,0:0:0:0:
329,192,70969,1,2,0:0:0:0:
402,192,71431,128,0,71662:0:0:0:0:
182,192,71662,1,4,0:0:0:0:
256,192,71893,128,0,72123:0:0:0:0:
36,192,72123,1,4,0:0:0:0:
109,192,72354,128,0,72585:0:0:0:0:
329,192,72585,1,4,0:0:0:0:
402,192,72816,128,0,73046:0:0:0:0:
182,192,73046,1,4,0:0:0:0:
256,192,73277,128,0,73508:0:0:0:0:
36,192,73508,1,4,0:0:0:0:
475,192,73508,1,0,0:0:0:0:
256,192,74893,1,8,0:0:0:0:
36,192,75354,1,4,0:0:0:0:
475,192,75354,1,0,0:0:0:0:
329,192,75700,1,2,0:0:0:0:
182,192,75816,1,2,0:0:0:0:
402,192,76046,1,2,0:0:0:0:
256,192,76162,1,2,0:0:0:0:
109,192,76277,1,2,0:0:0:0:
329,192,76508,128,0,76739:0:0:0:0:
182,192,76739,1,8,0:0:0:0:
256,192,76969,128,0,77200:0:0:0:0:
36,192,77200,1,4,0:0:0:0:
475,192,77200,1,0,0:0:0:0:
36,192,77662,1,2,0:0:0:0:
182,192,77662,1,0,0:0:0:0:
402,192,78123,1,2,0:0:0:0:
256,192,78123,1,0,0:0:0:0:
256,192,78585,1,2,0:0:0:0:
402,192,78585,1,0,0:0:0:0:
182,192,79046,1,2,0:0:0:0:
329,192,79046,1,0,0:0:0:0:
182,192,79508,1,2,0:0:0:0:
329,192,79508,1,0,0:0:0:0:
182,192,79969,1,2,0:0:0:0:
329,192,79969,1,0,0:0:0:0:
256,192,80431,1,2,0:0:0:0:
109,192,80431,1,0,0:0:0:0:
182,192,80893,1,2,0:0:0:0:
36,192,80893,1,0,0:0:0:0:
36,192,81354,1,0,0:0:0:0:
182,192,81354,1,2,0:0:0:0:
402,192,81816,1,0,0:0:0:0:
256,192,81816,1,2,0:0:0:0:
256,192,82277,1,2,0:0:0:0:
402,192,82277,1,0,0:0:0:0:
36,192,82739,1,0,0:0:0:0:
475,192,82739,1,4,0:0:0:0:
329,192,82739,1,2,0:0:0:0:
329,192,83200,1,2,0:0:0:0:
475,192,83200,1,0,0:0:0:0:
475,192,83662,1,0,0:0:0:0:
329,192,83662,1,2,0:0:0:0:
402,192,84123,1,0,0:0:0:0:
256,192,84123,1,2,0:0:0:0:
256,192,84585,1,2,0:0:0:0:
109,192,84585,1,0,0:0:0:0:
109,192,85046,1,0,0:0:0:0:
256,192,85046,1,2,0:0:0:0:
329,192,85508,1,2,0:0:0:0:
402,192,85508,1,0,0:0:0:0:
329,192,85969,1,2,0:0:0:0:
402,192,85969,1,0,0:0:0:0:
256,192,86431,1,2,0:0:0:0:
109,192,86431,1,0,0:0:0:0:
256,192,86893,1,2,0:0:0:0:
109,192,86893,1,0,0:0:0:0:
256,192,87354,1,2,0:0:0:0:
109,192,87354,1,0,0:0:0:0:
182,192,87816,1,2,0:0:0:0:
36,192,87816,1,0,0:0:0:0:
329,192,88277,1,2,0:0:0:0:
475,192,88277,1,0,0:0:0:0:
475,192,88739,1,0,0:0:0:0:
329,192,88739,1,2,0:0:0:0:
256,192,89200,1,2,0:0:0:0:
109,192,89200,1,0,0:0:0:0:
256,192,89662,1,2,0:0:0:0:
109,192,89662,1,0,0:0:0:0:
182,192,90123,1,2,0:0:0:0:
36,192,90123,1,0,0:0:0:0:
475,192,90123,1,4,0:0:0:0:
182,192,90585,1,2,0:0:0:0:
36,192,90585,1,0,0:0:0:0:
36,192,91046,1,0,0:0:0:0:
182,192,91046,1,2,0:0:0:0:
109,192,91508,1,2,0:0:0:0:
256,192,91508,1,0,0:0:0:0:
182,192,91969,1,2,0:0:0:0:
329,192,91969,1,0,0:0:0:0:
182,192,92431,1,0,0:0:0:0:
329,192,92431,1,2,0:0:0:0:
256,192,92893,1,2,0:0:0:0:
402,192,92893,1,0,0:0:0:0:
256,192,93354,1,2,0:0:0:0:
402,192,93354,1,0,0:0:0:0:
329,192,93816,1,2,0:0:0:0:
109,192,93816,1,0,0:0:0:0:
109,192,94277,1,0,0:0:0:0:
329,192,94277,1,2,0:0:0:0:
329,192,94739,1,2,0:0:0:0:
109,192,94739,1,0,0:0:0:0:
256,192,95200,1,2,0:0:0:0:
36,192,95200,1,0,0:0:0:0:
182,192,95662,1,2,0:0:0:0:
402,192,95662,1,0,0:0:0:0:
402,192,96123,1,0,0:0:0:0:
182,192,96123,1,2,0:0:0:0:
256,192,96585,1,2,0:0:0:0:
475,192,96585,1,0,0:0:0:0:
475,192,97046,1,0,0:0:0:0:
256,192,97046,1,2,0:0:0:0:
182,192,97277,1,0,0:0:0:0:
329,192,97393,1,0,0:0:0:0:
182,192,97508,1,0,0:0:0:0:
36,192,97508,1,0,0:0:0:0:
475,192,97508,1,4,0:0:0:0:
182,192,97969,1,2,0:0:0:0:
36,192,97969,1,0,0:0:0:0:
36,192,98431,1,0,0:0:0:0:
182,192,98431,1,2,0:0:0:0:
256,192,98893,1,2,0:0:0:0:
402,192,98893,1,0,0:0:0:0:
329,192,99354,1,0,0:0:0:0:
109,192,99354,1,2,0:0:0:0:
109,192,99816,1,0,0:0:0:0:
329,192,99816,1,2,0:0:0:0:
256,192,100277,1,2,0:0:0:0:
475,192,100277,1,0,0:0:0:0:
475,192,100739,1,0,0:0:0:0:
256,192,100739,1,2,0:0:0:0:
402,192,101200,1,0,0:0:0:0:
256,192,101200,1,2,0:0:0:0:
402,192,101662,1,0,0:0:0:0:
256,192,101662,1,2,0:0:0:0:
402,192,102123,1,0,0:0:0:0:
256,192,102123,1,2,0:0:0:0:
329,192,102585,1,0,0:0:0:0:
182,192,102585,1,2,0:0:0:0:
256,192,103046,1,2,0:0:0:0:
109,192,103046,1,0,0:0:0:0:
109,192,103508,1,0,0:0:0:0:
256,192,103508,1,2,0:0:0:0:
182,192,103969,1,2,0:0:0:0:
36,192,103969,1,0,0:0:0:0:
475,192,104200,1,0,0:0:0:0:
329,192,104316,1,0,0:0:0:0:
182,192,104431,1,2,0:0:0:0:
36,192,104431,1,0,0:0:0:0:
475,192,104662,1,0,0:0:0:0:
329,192,104777,1,0,0:0:0:0:
182,192,104893,1,2,0:0:0:0:
36,192,104893,1,0,0:0:0:0:
329,192,105123,1,2,0:0:0:0:
182,192,105239,1,2,0:0:0:0:
402,192,105585,1,2,0:0:0:0:
256,192,105700,1,2,0:0:0:0:
109,192,105816,1,2,0:0:0:0:
329,192,106046,128,0,106277:0:0:0:0:
182,192,106508,128,0,106739:0:0:0:0:
109,192,106969,1,2,0:0:0:0:
402,192,107085,1,2,0:0:0:0:
36,192,107431,1,2,0:0:0:0:
475,192,107546,1,2,0:0:0:0:
182,192,107893,1,2,0:0:0:0:
329,192,108008,1,2,0:0:0:0:
256,192,108354,1,2,0:0:0:0:
402,192,108469,1,2,0:0:0:0:
256,192,108816,1,2,0:0:0:0:
109,192,108931,1,2,0:0:0:0:
329,192,109277,1,2,0:0:0:0:
182,192,109393,1,2,0:0:0:0:
402,192,109739,1,2,0:0:0:0:
256,192,109854,1,2,0:0:0:0:
109,192,110200,1,2,0:0:0:0:
256,192,110316,1,2,0:0:0:0:
402,192,110662,128,0,110893:0:0:0:0:
256,192,111123,128,0,111354:0:0:0:0:
109,192,111585,128,0,111816:0:0:0:0:
256,192,112046,128,0,112277:0:0:0:0:
475,192,112277,1,4,0:0:0:0:
36,192,112277,1,0,0:0:0:0:
