osu file format v14

[General]
AudioFilename: Madpakke.mp3
AudioLeadIn: 0
PreviewTime: 43970
Countdown: 0
SampleSet: Soft
StackLeniency: 0.7
Mode: 3
LetterboxInBreaks: 0
SpecialStyle: 0
WidescreenStoryboard: 0

[Editor]
Bookmarks: 58740,75355,104894
DistanceSpacing: 1
BeatDivisor: 4
GridSize: 8
TimelineZoom: 2.599999

[Metadata]
Title:Madpakke
TitleUnicode:Madpakke
Artist:CELLON.
ArtistUnicode:CELLON.
Creator:[ C r a c k ]
Version:richard's 7K Another
Source:BMS
Tags:of fighters bof2012 richardfeder
BeatmapID:709818
BeatmapSetID:304248

[Difficulty]
HPDrainRate:9
CircleSize:7
OverallDifficulty:8
ApproachRate:5
SliderMultiplier:1.4
SliderTickRate:1

[Events]
//Background and Video events
0,0,"damn BG.jpg",0,0
//Break Periods
//Storyboard Layer 0 (Background)
//Storyboard Layer 1 (Fail)
//Storyboard Layer 2 (Pass)
//Storyboard Layer 3 (Foreground)
//Storyboard Sound Samples

[TimingPoints]
9,461.538461538462,4,2,0,10,1,0
30470,375,4,2,0,10,1,0
30470,-123.456790123457,4,2,0,10,0,0
31220,375,4,2,0,10,1,0
31220,-123.456790123457,4,2,0,10,0,0
55970,461.538461538462,4,2,0,10,1,0
56893,461.538461538462,4,2,0,10,1,0

[HitObjects]
182,192,1855,5,0,0:0:0:0:
36,192,1855,1,2,0:0:0:0:
329,192,1912,1,0,0:0:0:0:
475,192,1970,128,0,3239:0:0:0:0:
109,192,2085,1,0,0:0:0:0:
36,192,2316,1,2,0:0:0:0:
182,192,2316,1,0,0:0:0:0:
329,192,2547,1,0,0:0:0:0:
256,192,2662,1,0,0:0:0:0:
182,192,2778,1,2,0:0:0:0:
36,192,2778,1,0,0:0:0:0:
329,192,3009,1,0,0:0:0:0:
36,192,3239,1,2,0:0:0:0:
329,192,3239,1,0,0:0:0:0:
182,192,3239,128,0,5547:0:0:0:0:
402,192,3470,1,0,0:0:0:0:
109,192,3585,1,0,0:0:0:0:
402,192,3701,1,0,0:0:0:0:
402,192,3932,1,0,0:0:0:0:
475,192,4162,1,0,0:0:0:0:
36,192,4162,1,0,0:0:0:0:
109,192,4393,1,0,0:0:0:0:
402,192,4509,1,0,0:0:0:0:
109,192,4624,1,0,0:0:0:0:
329,192,4855,1,0,0:0:0:0:
329,192,4970,1,0,0:0:0:0:
36,192,5085,1,0,0:0:0:0:
475,192,5085,1,0,0:0:0:0:
329,192,5316,1,0,0:0:0:0:
475,192,5432,1,0,0:0:0:0:
256,192,5547,1,0,0:0:0:0:
36,192,5547,1,2,0:0:0:0:
402,192,5605,128,0,6932:0:0:0:0:
182,192,5778,1,0,0:0:0:0:
36,192,6009,1,0,0:0:0:0:
182,192,6009,1,0,0:0:0:0:
109,192,6239,1,0,0:0:0:0:
256,192,6355,1,0,0:0:0:0:
109,192,6470,1,2,0:0:0:0:
475,192,6470,128,0,6932:0:0:0:0:
256,192,6701,1,0,0:0:0:0:
329,192,6932,1,2,0:0:0:0:
36,192,6932,1,0,0:0:0:0:
182,192,6932,128,0,9239:0:0:0:0:
402,192,7162,1,0,0:0:0:0:
109,192,7278,1,0,0:0:0:0:
402,192,7393,1,0,0:0:0:0:
329,192,7624,1,0,0:0:0:0:
36,192,7855,1,0,0:0:0:0:
475,192,7855,1,0,0:0:0:0:
109,192,8085,1,0,0:0:0:0:
402,192,8201,1,0,0:0:0:0:
109,192,8316,1,0,0:0:0:0:
329,192,8547,1,0,0:0:0:0:
329,192,8662,1,0,0:0:0:0:
36,192,8778,1,0,0:0:0:0:
475,192,8778,1,0,0:0:0:0:
329,192,9009,1,0,0:0:0:0:
329,192,9124,1,0,0:0:0:0:
36,192,9239,1,2,0:0:0:0:
402,192,9239,1,0,0:0:0:0:
256,192,9297,1,0,0:0:0:0:
109,192,9355,128,0,10162:0:0:0:0:
329,192,9470,1,0,0:0:0:0:
329,192,9701,1,2,0:0:0:0:
475,192,9701,1,0,0:0:0:0:
402,192,9932,1,0,0:0:0:0:
256,192,10047,1,0,0:0:0:0:
36,192,10162,1,2,0:0:0:0:
402,192,10162,1,0,0:0:0:0:
182,192,10220,128,0,12932:0:0:0:0:
329,192,10393,1,0,0:0:0:0:
329,192,10624,1,0,0:0:0:0:
475,192,10624,1,0,0:0:0:0:
109,192,10855,1,0,0:0:0:0:
402,192,10970,1,0,0:0:0:0:
109,192,11085,1,0,0:0:0:0:
329,192,11316,1,0,0:0:0:0:
402,192,11374,1,0,0:0:0:0:
109,192,11432,1,0,0:0:0:0:
256,192,11489,1,0,0:0:0:0:
36,192,11547,1,0,0:0:0:0:
475,192,11547,1,0,0:0:0:0:
329,192,11605,1,0,0:0:0:0:
402,192,11662,1,0,0:0:0:0:
109,192,11720,1,0,0:0:0:0:
475,192,11778,1,0,0:0:0:0:
256,192,11835,1,0,0:0:0:0:
329,192,11893,1,0,0:0:0:0:
109,192,11951,1,0,0:0:0:0:
475,192,12009,1,0,0:0:0:0:
329,192,12066,1,0,0:0:0:0:
402,192,12124,1,0,0:0:0:0:
109,192,12182,1,0,0:0:0:0:
475,192,12239,1,0,0:0:0:0:
256,192,12297,1,0,0:0:0:0:
329,192,12355,1,0,0:0:0:0:
109,192,12412,1,0,0:0:0:0:
475,192,12470,1,0,0:0:0:0:
402,192,12470,1,0,0:0:0:0:
36,192,12528,1,0,0:0:0:0:
109,192,12585,1,0,0:0:0:0:
329,192,12701,1,0,0:0:0:0:
475,192,12816,1,0,0:0:0:0:
109,192,12932,1,2,0:0:0:0:
402,192,12932,1,0,0:0:0:0:
256,192,12989,128,0,13855:0:0:0:0:
329,192,13162,1,0,0:0:0:0:
182,192,13393,1,0,0:0:0:0:
36,192,13393,1,0,0:0:0:0:
475,192,13624,1,0,0:0:0:0:
329,192,13739,1,0,0:0:0:0:
36,192,13855,1,2,0:0:0:0:
475,192,13855,1,0,0:0:0:0:
182,192,13912,128,0,16624:0:0:0:0:
329,192,14085,1,0,0:0:0:0:
475,192,14316,1,0,0:0:0:0:
36,192,14316,1,0,0:0:0:0:
109,192,14547,1,0,0:0:0:0:
402,192,14662,1,0,0:0:0:0:
256,192,14778,1,0,0:0:0:0:
329,192,15009,1,0,0:0:0:0:
36,192,15239,1,0,0:0:0:0:
475,192,15239,1,0,0:0:0:0:
402,192,15355,1,0,0:0:0:0:
256,192,15412,1,0,0:0:0:0:
109,192,15470,1,0,0:0:0:0:
475,192,15528,1,0,0:0:0:0:
329,192,15585,1,0,0:0:0:0:
36,192,15643,1,0,0:0:0:0:
402,192,15701,1,0,0:0:0:0:
256,192,15759,1,0,0:0:0:0:
329,192,15874,1,0,0:0:0:0:
109,192,15932,1,0,0:0:0:0:
329,192,15989,1,0,0:0:0:0:
109,192,16047,1,0,0:0:0:0:
329,192,16105,1,0,0:0:0:0:
36,192,16162,1,0,0:0:0:0:
475,192,16162,1,0,0:0:0:0:
329,192,16393,1,0,0:0:0:0:
329,192,16509,1,0,0:0:0:0:
475,192,16624,1,2,0:0:0:0:
402,192,17085,1,0,0:0:0:0:
329,192,17432,1,0,0:0:0:0:
256,192,17547,1,0,0:0:0:0:
475,192,17662,1,0,0:0:0:0:
402,192,17720,1,0,0:0:0:0:
329,192,17778,1,0,0:0:0:0:
256,192,17835,1,0,0:0:0:0:
182,192,17893,1,0,0:0:0:0:
402,192,17951,1,0,0:0:0:0:
329,192,18009,1,0,0:0:0:0:
256,192,18066,1,0,0:0:0:0:
182,192,18124,1,0,0:0:0:0:
109,192,18182,1,0,0:0:0:0:
329,192,18239,1,0,0:0:0:0:
256,192,18297,1,0,0:0:0:0:
182,192,18355,1,0,0:0:0:0:
109,192,18412,1,0,0:0:0:0:
36,192,18470,1,2,0:0:0:0:
402,192,18470,1,0,0:0:0:0:
329,192,18932,1,2,0:0:0:0:
109,192,19393,1,2,0:0:0:0:
402,192,19855,1,2,0:0:0:0:
475,192,20316,1,2,0:0:0:0:
182,192,20778,1,2,0:0:0:0:
329,192,21239,1,0,0:0:0:0:
36,192,21701,128,2,22855:0:0:0:0:
109,192,21701,128,0,22739:0:0:0:0:
475,192,22162,1,2,0:0:0:0:
182,192,23316,1,2,0:0:0:0:
256,192,23547,1,2,0:0:0:0:
329,192,23778,1,2,0:0:0:0:
402,192,24009,128,0,25855:0:0:0:0:
475,192,24009,1,2,0:0:0:0:
36,192,24009,1,0,0:0:0:0:
182,192,24239,1,0,0:0:0:0:
109,192,24470,1,2,0:0:0:0:
329,192,24470,1,0,0:0:0:0:
256,192,24701,1,0,0:0:0:0:
182,192,24932,1,2,0:0:0:0:
36,192,24932,1,0,0:0:0:0:
475,192,25047,1,0,0:0:0:0:
256,192,25162,1,0,0:0:0:0:
329,192,25393,1,2,0:0:0:0:
109,192,25393,1,0,0:0:0:0:
256,192,25624,1,0,0:0:0:0:
475,192,25739,1,0,0:0:0:0:
329,192,25855,128,0,27585:0:0:0:0:
36,192,25855,1,0,0:0:0:0:
402,192,26085,1,0,0:0:0:0:
256,192,26201,1,0,0:0:0:0:
475,192,26316,1,2,0:0:0:0:
109,192,26316,1,0,0:0:0:0:
182,192,26432,1,0,0:0:0:0:
36,192,26547,1,0,0:0:0:0:
256,192,26662,1,0,0:0:0:0:
402,192,26778,1,2,0:0:0:0:
109,192,26778,1,0,0:0:0:0:
182,192,26893,1,0,0:0:0:0:
182,192,27009,1,2,0:0:0:0:
36,192,27009,128,0,27585:0:0:0:0:
109,192,27239,128,0,27585:0:0:0:0:
182,192,27470,128,0,27585:0:0:0:0:
329,192,27701,128,2,28509:0:0:0:0:
182,192,27701,128,0,28509:0:0:0:0:
109,192,27701,128,0,28509:0:0:0:0:
36,192,27701,128,0,28509:0:0:0:0:
182,192,28624,128,2,29432:0:0:0:0:
329,192,28624,128,0,29432:0:0:0:0:
402,192,28624,128,0,29432:0:0:0:0:
109,192,28624,128,0,29432:0:0:0:0:
329,192,29547,128,2,29893:0:0:0:0:
256,192,29547,128,0,29893:0:0:0:0:
475,192,29547,128,0,29893:0:0:0:0:
256,192,30009,128,2,30355:0:0:0:0:
182,192,30009,128,0,30355:0:0:0:0:
402,192,30009,128,0,30355:0:0:0:0:
109,192,30470,128,2,30751:0:0:0:0:
36,192,30470,128,0,30751:0:0:0:0:
256,192,30845,128,2,31126:0:0:0:0:
402,192,30845,128,0,31126:0:0:0:0:
182,192,30845,128,0,31126:0:0:0:0:
475,192,30845,128,0,31126:0:0:0:0:
475,192,31220,1,4,0:0:0:0:
402,192,31220,1,0,0:0:0:0:
256,192,31220,1,0,0:0:0:0:
182,192,31220,1,0,0:0:0:0:
329,192,31313,1,0,0:0:0:0:
256,192,31407,1,4,0:0:0:0:
182,192,31407,1,0,0:0:0:0:
402,192,31407,1,0,0:0:0:0:
475,192,31407,1,0,0:0:0:0:
329,192,31501,1,0,0:0:0:0:
109,192,31595,1,0,0:0:0:0:
36,192,31688,1,0,0:0:0:0:
109,192,31782,1,0,0:0:0:0:
182,192,31876,1,0,0:0:0:0:
329,192,31970,1,0,0:0:0:0:
256,192,32063,1,0,0:0:0:0:
36,192,32157,1,0,0:0:0:0:
475,192,32157,1,0,0:0:0:0:
182,192,32157,1,0,0:0:0:0:
329,192,32251,1,0,0:0:0:0:
36,192,32345,1,0,0:0:0:0:
475,192,32345,1,0,0:0:0:0:
182,192,32345,1,0,0:0:0:0:
256,192,32438,1,0,0:0:0:0:
36,192,32532,1,0,0:0:0:0:
475,192,32532,1,0,0:0:0:0:
329,192,32532,1,0,0:0:0:0:
182,192,32626,1,0,0:0:0:0:
402,192,32720,1,4,0:0:0:0:
475,192,32720,1,0,0:0:0:0:
109,192,32720,1,0,0:0:0:0:
36,192,32720,1,0,0:0:0:0:
256,192,32813,1,0,0:0:0:0:
109,192,32907,1,4,0:0:0:0:
36,192,32907,1,0,0:0:0:0:
402,192,32907,1,0,0:0:0:0:
475,192,32907,1,0,0:0:0:0:
256,192,33001,1,0,0:0:0:0:
36,192,33095,1,4,0:0:0:0:
182,192,33095,1,0,0:0:0:0:
475,192,33095,1,0,0:0:0:0:
329,192,33188,1,0,0:0:0:0:
109,192,33282,1,0,0:0:0:0:
256,192,33376,1,0,0:0:0:0:
182,192,33470,1,0,0:0:0:0:
256,192,33563,1,0,0:0:0:0:
475,192,33657,1,0,0:0:0:0:
329,192,33657,1,0,0:0:0:0:
36,192,33657,1,0,0:0:0:0:
182,192,33751,1,0,0:0:0:0:
109,192,33845,1,0,0:0:0:0:
329,192,33845,1,0,0:0:0:0:
475,192,33845,1,0,0:0:0:0:
182,192,33938,1,0,0:0:0:0:
256,192,34032,1,0,0:0:0:0:
109,192,34126,1,0,0:0:0:0:
36,192,34220,1,4,0:0:0:0:
256,192,34220,1,0,0:0:0:0:
475,192,34220,1,0,0:0:0:0:
402,192,34220,1,0,0:0:0:0:
182,192,34313,1,0,0:0:0:0:
475,192,34407,1,4,0:0:0:0:
402,192,34407,1,0,0:0:0:0:
256,192,34407,1,0,0:0:0:0:
36,192,34407,1,0,0:0:0:0:
182,192,34501,1,0,0:0:0:0:
329,192,34595,1,0,0:0:0:0:
256,192,34688,1,0,0:0:0:0:
36,192,34782,1,4,0:0:0:0:
475,192,34782,1,0,0:0:0:0:
329,192,34782,1,0,0:0:0:0:
109,192,34782,1,0,0:0:0:0:
182,192,34876,1,0,0:0:0:0:
402,192,34970,1,0,0:0:0:0:
256,192,35063,1,0,0:0:0:0:
475,192,35157,1,0,0:0:0:0:
329,192,35251,1,0,0:0:0:0:
36,192,35345,1,4,0:0:0:0:
109,192,35345,1,0,0:0:0:0:
475,192,35345,1,0,0:0:0:0:
256,192,35345,1,0,0:0:0:0:
402,192,35438,1,0,0:0:0:0:
329,192,35532,1,0,0:0:0:0:
256,192,35626,1,0,0:0:0:0:
182,192,35720,1,4,0:0:0:0:
475,192,35720,1,0,0:0:0:0:
36,192,35720,1,0,0:0:0:0:
402,192,35720,1,0,0:0:0:0:
329,192,35813,1,0,0:0:0:0:
182,192,35907,1,4,0:0:0:0:
475,192,35907,1,0,0:0:0:0:
36,192,35907,1,0,0:0:0:0:
402,192,35907,1,0,0:0:0:0:
329,192,36001,1,0,0:0:0:0:
109,192,36095,1,0,0:0:0:0:
109,192,36188,1,0,0:0:0:0:
36,192,36282,1,4,0:0:0:0:
256,192,36282,1,0,0:0:0:0:
475,192,36282,1,0,0:0:0:0:
402,192,36282,1,0,0:0:0:0:
182,192,36376,1,0,0:0:0:0:
329,192,36470,1,0,0:0:0:0:
329,192,36563,1,0,0:0:0:0:
36,192,36657,1,4,0:0:0:0:
109,192,36657,1,0,0:0:0:0:
475,192,36657,1,0,0:0:0:0:
402,192,36657,1,0,0:0:0:0:
256,192,36751,1,0,0:0:0:0:
182,192,36845,1,0,0:0:0:0:
182,192,36938,1,0,0:0:0:0:
182,192,37032,1,0,0:0:0:0:
182,192,37126,1,0,0:0:0:0:
475,192,37220,1,4,0:0:0:0:
36,192,37220,1,0,0:0:0:0:
109,192,37220,1,0,0:0:0:0:
402,192,37220,1,0,0:0:0:0:
256,192,37313,1,0,0:0:0:0:
475,192,37407,1,4,0:0:0:0:
36,192,37407,1,0,0:0:0:0:
109,192,37407,1,0,0:0:0:0:
402,192,37407,1,0,0:0:0:0:
256,192,37501,1,0,0:0:0:0:
182,192,37595,1,0,0:0:0:0:
329,192,37688,1,0,0:0:0:0:
109,192,37782,1,0,0:0:0:0:
256,192,37876,1,0,0:0:0:0:
182,192,37970,1,0,0:0:0:0:
256,192,38063,1,0,0:0:0:0:
475,192,38157,1,4,0:0:0:0:
36,192,38157,1,0,0:0:0:0:
329,192,38157,1,0,0:0:0:0:
109,192,38157,1,0,0:0:0:0:
256,192,38251,1,0,0:0:0:0:
475,192,38345,1,4,0:0:0:0:
36,192,38345,1,0,0:0:0:0:
402,192,38345,1,0,0:0:0:0:
182,192,38345,1,0,0:0:0:0:
329,192,38438,1,0,0:0:0:0:
182,192,38532,1,0,0:0:0:0:
402,192,38532,1,0,0:0:0:0:
109,192,38532,1,0,0:0:0:0:
256,192,38626,1,0,0:0:0:0:
329,192,38720,1,4,0:0:0:0:
109,192,38720,1,0,0:0:0:0:
475,192,38720,1,0,0:0:0:0:
36,192,38720,1,0,0:0:0:0:
182,192,38813,1,0,0:0:0:0:
475,192,38907,1,4,0:0:0:0:
36,192,38907,1,4,0:0:0:0:
329,192,38907,1,0,0:0:0:0:
402,192,38907,1,0,0:0:0:0:
182,192,39001,1,0,0:0:0:0:
256,192,39095,1,4,0:0:0:0:
36,192,39095,1,0,0:0:0:0:
475,192,39095,1,0,0:0:0:0:
329,192,39188,1,0,0:0:0:0:
109,192,39282,1,0,0:0:0:0:
256,192,39376,1,0,0:0:0:0:
402,192,39470,1,0,0:0:0:0:
256,192,39563,1,0,0:0:0:0:
36,192,39657,1,4,0:0:0:0:
475,192,39657,1,0,0:0:0:0:
329,192,39657,1,0,0:0:0:0:
109,192,39657,1,0,0:0:0:0:
256,192,39751,1,0,0:0:0:0:
475,192,39845,1,0,0:0:0:0:
329,192,39845,1,0,0:0:0:0:
109,192,39845,1,0,0:0:0:0:
182,192,39938,1,0,0:0:0:0:
329,192,40032,1,0,0:0:0:0:
475,192,40032,1,0,0:0:0:0:
36,192,40032,1,0,0:0:0:0:
182,192,40126,1,0,0:0:0:0:
402,192,40220,1,4,0:0:0:0:
109,192,40220,1,0,0:0:0:0:
475,192,40220,1,0,0:0:0:0:
36,192,40220,1,0,0:0:0:0:
256,192,40313,1,0,0:0:0:0:
182,192,40407,1,4,0:0:0:0:
329,192,40407,1,0,0:0:0:0:
36,192,40407,1,0,0:0:0:0:
475,192,40407,1,0,0:0:0:0:
256,192,40501,1,0,0:0:0:0:
402,192,40595,1,0,0:0:0:0:
109,192,40688,1,0,0:0:0:0:
475,192,40782,1,4,0:0:0:0:
182,192,40782,1,0,0:0:0:0:
36,192,40782,1,0,0:0:0:0:
329,192,40782,1,0,0:0:0:0:
402,192,40876,1,0,0:0:0:0:
256,192,40970,1,0,0:0:0:0:
182,192,41063,1,0,0:0:0:0:
256,192,41157,1,0,0:0:0:0:
109,192,41251,1,0,0:0:0:0:
475,192,41345,1,4,0:0:0:0:
182,192,41345,1,0,0:0:0:0:
402,192,41345,1,0,0:0:0:0:
36,192,41345,1,0,0:0:0:0:
329,192,41438,1,0,0:0:0:0:
256,192,41532,1,0,0:0:0:0:
182,192,41626,1,0,0:0:0:0:
36,192,41720,1,4,0:0:0:0:
329,192,41720,1,0,0:0:0:0:
475,192,41720,1,0,0:0:0:0:
109,192,41720,1,0,0:0:0:0:
256,192,41813,1,0,0:0:0:0:
109,192,41907,1,4,0:0:0:0:
329,192,41907,1,0,0:0:0:0:
475,192,41907,1,0,0:0:0:0:
36,192,41907,1,0,0:0:0:0:
256,192,42001,1,0,0:0:0:0:
182,192,42095,1,0,0:0:0:0:
182,192,42188,1,0,0:0:0:0:
256,192,42282,1,4,0:0:0:0:
36,192,42282,1,0,0:0:0:0:
109,192,42282,1,0,0:0:0:0:
475,192,42282,1,0,0:0:0:0:
402,192,42376,1,0,0:0:0:0:
329,192,42470,1,0,0:0:0:0:
329,192,42563,1,0,0:0:0:0:
36,192,42657,1,4,0:0:0:0:
475,192,42657,1,4,0:0:0:0:
182,192,42657,1,0,0:0:0:0:
402,192,42657,1,0,0:0:0:0:
329,192,42751,1,0,0:0:0:0:
256,192,42845,1,0,0:0:0:0:
256,192,42938,1,0,0:0:0:0:
256,192,43032,1,0,0:0:0:0:
256,192,43126,1,0,0:0:0:0:
36,192,43970,1,2,0:0:0:0:
109,192,44157,1,2,0:0:0:0:
182,192,44345,1,2,0:0:0:0:
402,192,44532,1,2,0:0:0:0:
256,192,44579,1,0,0:0:0:0:
329,192,44626,1,0,0:0:0:0:
402,192,44673,1,0,0:0:0:0:
36,192,44720,1,4,0:0:0:0:
475,192,44720,1,2,0:0:0:0:
182,192,44720,1,0,0:0:0:0:
329,192,44813,1,0,0:0:0:0:
256,192,44907,1,2,0:0:0:0:
36,192,45095,1,2,0:0:0:0:
329,192,45095,1,0,0:0:0:0:
402,192,45188,1,2,0:0:0:0:
256,192,45282,1,2,0:0:0:0:
109,192,45282,1,0,0:0:0:0:
182,192,45376,1,0,0:0:0:0:
475,192,45470,1,2,0:0:0:0:
329,192,45470,1,0,0:0:0:0:
36,192,45470,1,0,0:0:0:0:
182,192,45563,1,0,0:0:0:0:
402,192,45657,1,2,0:0:0:0:
256,192,45657,1,0,0:0:0:0:
109,192,45657,1,0,0:0:0:0:
329,192,45845,1,2,0:0:0:0:
182,192,45845,1,0,0:0:0:0:
256,192,46032,1,2,0:0:0:0:
109,192,46032,1,0,0:0:0:0:
402,192,46032,1,0,0:0:0:0:
329,192,46126,1,0,0:0:0:0:
182,192,46220,1,2,0:0:0:0:
36,192,46220,1,0,0:0:0:0:
475,192,46220,1,0,0:0:0:0:
402,192,46407,1,2,0:0:0:0:
256,192,46407,1,0,0:0:0:0:
182,192,46595,1,2,0:0:0:0:
36,192,46595,1,0,0:0:0:0:
329,192,46688,1,2,0:0:0:0:
256,192,46782,1,2,0:0:0:0:
109,192,46782,1,0,0:0:0:0:
182,192,46876,1,0,0:0:0:0:
475,192,46970,1,2,0:0:0:0:
36,192,46970,1,0,0:0:0:0:
182,192,47063,1,0,0:0:0:0:
329,192,47157,1,2,0:0:0:0:
109,192,47157,1,0,0:0:0:0:
256,192,47251,1,0,0:0:0:0:
182,192,47345,1,2,0:0:0:0:
402,192,47345,1,0,0:0:0:0:
109,192,47532,1,2,0:0:0:0:
256,192,47532,1,0,0:0:0:0:
182,192,47626,1,0,0:0:0:0:
329,192,47720,1,6,0:0:0:0:
475,192,47720,1,4,0:0:0:0:
36,192,47720,1,0,0:0:0:0:
182,192,47813,1,0,0:0:0:0:
256,192,47907,1,0,0:0:0:0:
329,192,48001,1,0,0:0:0:0:
402,192,48095,1,0,0:0:0:0:
109,192,48095,1,0,0:0:0:0:
256,192,48188,1,0,0:0:0:0:
402,192,48282,1,2,0:0:0:0:
182,192,48282,1,0,0:0:0:0:
36,192,48376,1,0,0:0:0:0:
475,192,48376,1,0,0:0:0:0:
329,192,48470,1,0,0:0:0:0:
182,192,48470,1,0,0:0:0:0:
329,192,48657,1,2,0:0:0:0:
109,192,48657,1,0,0:0:0:0:
256,192,48751,1,0,0:0:0:0:
36,192,48751,1,0,0:0:0:0:
182,192,48845,1,0,0:0:0:0:
402,192,48845,1,0,0:0:0:0:
329,192,48938,1,0,0:0:0:0:
109,192,49032,1,0,0:0:0:0:
402,192,49032,1,0,0:0:0:0:
36,192,49126,1,0,0:0:0:0:
329,192,49126,1,0,0:0:0:0:
256,192,49220,1,2,0:0:0:0:
475,192,49220,1,0,0:0:0:0:
109,192,49407,1,2,0:0:0:0:
329,192,49407,1,0,0:0:0:0:
182,192,49501,1,0,0:0:0:0:
402,192,49501,1,0,0:0:0:0:
36,192,49595,1,0,0:0:0:0:
256,192,49595,1,0,0:0:0:0:
109,192,49688,1,0,0:0:0:0:
402,192,49688,1,0,0:0:0:0:
182,192,49782,1,0,0:0:0:0:
475,192,49782,1,0,0:0:0:0:
256,192,49876,1,0,0:0:0:0:
402,192,49876,1,0,0:0:0:0:
36,192,49970,1,4,0:0:0:0:
109,192,49970,1,0,0:0:0:0:
329,192,49970,1,0,0:0:0:0:
475,192,49970,1,0,0:0:0:0:
475,192,50157,1,4,0:0:0:0:
182,192,50157,1,0,0:0:0:0:
109,192,50157,1,0,0:0:0:0:
402,192,50157,1,0,0:0:0:0:
256,192,50345,1,0,0:0:0:0:
256,192,50532,1,0,0:0:0:0:
475,192,50720,1,4,0:0:0:0:
36,192,50720,1,0,0:0:0:0:
402,192,50720,1,0,0:0:0:0:
182,192,50720,1,0,0:0:0:0:
109,192,50813,1,0,0:0:0:0:
329,192,50907,1,2,0:0:0:0:
36,192,51095,1,2,0:0:0:0:
182,192,51095,1,0,0:0:0:0:
402,192,51188,1,2,0:0:0:0:
256,192,51282,1,2,0:0:0:0:
109,192,51282,1,0,0:0:0:0:
182,192,51376,1,0,0:0:0:0:
475,192,51470,1,2,0:0:0:0:
329,192,51470,1,0,0:0:0:0:
36,192,51470,1,0,0:0:0:0:
182,192,51563,1,0,0:0:0:0:
402,192,51657,1,2,0:0:0:0:
109,192,51657,1,0,0:0:0:0:
256,192,51657,1,0,0:0:0:0:
329,192,51845,1,2,0:0:0:0:
182,192,51845,1,0,0:0:0:0:
36,192,51845,1,0,0:0:0:0:
256,192,52032,1,2,0:0:0:0:
109,192,52032,1,0,0:0:0:0:
402,192,52032,1,0,0:0:0:0:
329,192,52126,1,0,0:0:0:0:
182,192,52220,1,2,0:0:0:0:
36,192,52220,1,0,0:0:0:0:
475,192,52220,1,0,0:0:0:0:
402,192,52313,1,2,0:0:0:0:
329,192,52407,1,2,0:0:0:0:
182,192,52407,1,0,0:0:0:0:
256,192,52501,1,0,0:0:0:0:
109,192,52595,1,0,0:0:0:0:
36,192,52595,1,0,0:0:0:0:
182,192,52688,1,0,0:0:0:0:
329,192,52782,1,0,0:0:0:0:
109,192,52782,1,0,0:0:0:0:
402,192,52876,1,0,0:0:0:0:
182,192,52876,1,0,0:0:0:0:
475,192,52970,1,0,0:0:0:0:
256,192,52970,1,0,0:0:0:0:
329,192,53063,1,0,0:0:0:0:
109,192,53063,1,0,0:0:0:0:
256,192,53157,1,0,0:0:0:0:
36,192,53157,1,0,0:0:0:0:
182,192,53251,1,0,0:0:0:0:
402,192,53251,1,0,0:0:0:0:
36,192,53345,1,4,0:0:0:0:
475,192,53345,1,0,0:0:0:0:
256,192,53345,1,0,0:0:0:0:
329,192,53438,1,0,0:0:0:0:
182,192,53532,1,0,0:0:0:0:
402,192,53532,1,0,0:0:0:0:
109,192,53626,1,0,0:0:0:0:
329,192,53626,1,0,0:0:0:0:
36,192,53720,1,4,0:0:0:0:
475,192,53720,1,0,0:0:0:0:
402,192,53720,1,0,0:0:0:0:
256,192,53720,1,0,0:0:0:0:
109,192,53907,1,2,0:0:0:0:
256,192,53907,1,0,0:0:0:0:
329,192,54001,1,2,0:0:0:0:
182,192,54095,1,2,0:0:0:0:
36,192,54095,1,0,0:0:0:0:
256,192,54188,1,2,0:0:0:0:
109,192,54282,1,2,0:0:0:0:
475,192,54282,1,0,0:0:0:0:
402,192,54376,1,0,0:0:0:0:
36,192,54470,1,2,0:0:0:0:
182,192,54470,1,0,0:0:0:0:
329,192,54470,1,0,0:0:0:0:
402,192,54563,1,0,0:0:0:0:
256,192,54657,1,2,0:0:0:0:
109,192,54657,1,0,0:0:0:0:
475,192,54657,1,0,0:0:0:0:
329,192,54845,1,2,0:0:0:0:
36,192,54845,1,0,0:0:0:0:
402,192,55032,1,2,0:0:0:0:
109,192,55032,1,0,0:0:0:0:
256,192,55126,1,0,0:0:0:0:
475,192,55220,1,2,0:0:0:0:
36,192,55220,1,0,0:0:0:0:
109,192,55407,1,0,0:0:0:0:
36,192,55595,1,0,0:0:0:0:
475,192,55595,1,0,0:0:0:0:
182,192,55782,1,0,0:0:0:0:
329,192,55876,1,0,0:0:0:0:
109,192,55970,1,0,0:0:0:0:
256,192,56085,1,0,0:0:0:0:
182,192,56200,1,0,0:0:0:0:
329,192,56316,1,0,0:0:0:0:
36,192,56431,1,0,0:0:0:0:
475,192,56431,1,0,0:0:0:0:
109,192,56662,1,0,0:0:0:0:
256,192,56777,1,0,0:0:0:0:
36,192,56893,1,4,0:0:0:0:
475,192,56893,1,0,0:0:0:0:
329,192,56893,1,0,0:0:0:0:
329,192,57354,1,0,0:0:0:0:
329,192,57816,1,0,0:0:0:0:
329,192,58277,1,0,0:0:0:0:
182,192,58739,128,0,59085:0:0:0:0:
36,192,58739,1,4,0:0:0:0:
475,192,58739,1,0,0:0:0:0:
256,192,58739,1,0,0:0:0:0:
329,192,58969,1,0,0:0:0:0:
402,192,59085,1,2,0:0:0:0:
182,192,59200,128,0,59546:0:0:0:0:
36,192,59200,1,0,0:0:0:0:
475,192,59431,1,2,0:0:0:0:
329,192,59546,1,2,0:0:0:0:
182,192,59662,128,0,60008:0:0:0:0:
36,192,59662,1,0,0:0:0:0:
402,192,59893,128,0,60123:0:0:0:0:
182,192,60123,128,0,60469:0:0:0:0:
36,192,60123,1,0,0:0:0:0:
475,192,60354,128,0,60585:0:0:0:0:
36,192,60585,128,4,60931:0:0:0:0:
109,192,60585,1,0,0:0:0:0:
402,192,60585,1,0,0:0:0:0:
329,192,60816,1,2,0:0:0:0:
475,192,60931,1,2,0:0:0:0:
36,192,61046,128,8,61393:0:0:0:0:
256,192,61046,1,0,0:0:0:0:
475,192,61277,1,2,0:0:0:0:
329,192,61393,1,2,0:0:0:0:
256,192,61508,128,0,61854:0:0:0:0:
109,192,61508,1,0,0:0:0:0:
36,192,61739,1,2,0:0:0:0:
329,192,61739,1,0,0:0:0:0:
109,192,61854,1,2,0:0:0:0:
402,192,61854,1,0,0:0:0:0:
256,192,61969,128,0,62316:0:0:0:0:
182,192,61969,1,0,0:0:0:0:
475,192,61969,1,0,0:0:0:0:
36,192,62085,1,0,0:0:0:0:
402,192,62085,1,0,0:0:0:0:
329,192,62200,1,2,0:0:0:0:
109,192,62200,1,0,0:0:0:0:
402,192,62316,1,2,0:0:0:0:
182,192,62316,1,0,0:0:0:0:
109,192,62431,128,0,62777:0:0:0:0:
36,192,62431,1,4,0:0:0:0:
475,192,62431,1,0,0:0:0:0:
256,192,62431,1,0,0:0:0:0:
402,192,62662,1,0,0:0:0:0:
256,192,62777,1,2,0:0:0:0:
475,192,62893,1,2,0:0:0:0:
109,192,62893,128,0,63239:0:0:0:0:
402,192,63123,1,2,0:0:0:0:
256,192,63239,1,2,0:0:0:0:
109,192,63354,128,0,63700:0:0:0:0:
475,192,63354,1,0,0:0:0:0:
256,192,63585,1,2,0:0:0:0:
402,192,63700,1,2,0:0:0:0:
109,192,63816,128,0,64162:0:0:0:0:
475,192,63816,1,0,0:0:0:0:
329,192,64046,1,2,0:0:0:0:
256,192,64162,1,2,0:0:0:0:
475,192,64277,128,0,64623:0:0:0:0:
182,192,64277,1,4,0:0:0:0:
36,192,64277,1,0,0:0:0:0:
329,192,64508,128,0,64739:0:0:0:0:
475,192,64739,128,0,65085:0:0:0:0:
36,192,64739,1,0,0:0:0:0:
182,192,64739,1,0,0:0:0:0:
182,192,64969,128,0,65200:0:0:0:0:
109,192,64969,1,0,0:0:0:0:
402,192,65085,1,0,0:0:0:0:
329,192,65200,128,0,65546:0:0:0:0:
36,192,65200,1,0,0:0:0:0:
109,192,65277,1,0,0:0:0:0:
182,192,65354,1,0,0:0:0:0:
256,192,65431,1,2,0:0:0:0:
475,192,65431,128,0,65662:0:0:0:0:
109,192,65546,1,0,0:0:0:0:
329,192,65662,128,4,66008:0:0:0:0:
36,192,65662,1,0,0:0:0:0:
182,192,65662,1,4,0:0:0:0:
36,192,65893,128,0,66123:0:0:0:0:
182,192,65893,1,0,0:0:0:0:
475,192,65893,1,4,0:0:0:0:
182,192,66123,128,0,66469:0:0:0:0:
475,192,66123,1,4,0:0:0:0:
329,192,66123,1,0,0:0:0:0:
402,192,66354,1,2,0:0:0:0:
256,192,66469,1,2,0:0:0:0:
182,192,66585,128,0,66931:0:0:0:0:
36,192,66585,1,0,0:0:0:0:
475,192,66816,1,2,0:0:0:0:
329,192,66931,1,2,0:0:0:0:
182,192,67046,128,0,67393:0:0:0:0:
36,192,67046,1,0,0:0:0:0:
329,192,67277,1,2,0:0:0:0:
475,192,67393,1,2,0:0:0:0:
182,192,67508,128,0,67854:0:0:0:0:
36,192,67508,1,0,0:0:0:0:
329,192,67739,1,2,0:0:0:0:
256,192,67854,1,2,0:0:0:0:
36,192,67969,128,0,68316:0:0:0:0:
475,192,67969,1,4,0:0:0:0:
182,192,67969,1,0,0:0:0:0:
329,192,68200,128,0,68431:0:0:0:0:
36,192,68431,128,0,68777:0:0:0:0:
475,192,68431,1,0,0:0:0:0:
182,192,68662,128,0,68893:0:0:0:0:
402,192,68893,128,0,69239:0:0:0:0:
256,192,68893,1,0,0:0:0:0:
182,192,69123,1,2,0:0:0:0:
36,192,69239,1,2,0:0:0:0:
402,192,69354,128,0,69700:0:0:0:0:
256,192,69354,1,0,0:0:0:0:
36,192,69585,1,2,0:0:0:0:
182,192,69700,1,2,0:0:0:0:
256,192,69816,128,0,70162:0:0:0:0:
475,192,69816,1,4,0:0:0:0:
36,192,69816,1,0,0:0:0:0:
402,192,70046,128,0,70277:0:0:0:0:
256,192,70277,128,0,70623:0:0:0:0:
36,192,70277,1,0,0:0:0:0:
109,192,70393,1,2,0:0:0:0:
402,192,70508,1,2,0:0:0:0:
109,192,70623,1,2,0:0:0:0:
256,192,70739,128,0,71085:0:0:0:0:
36,192,70739,1,4,0:0:0:0:
475,192,70739,1,0,0:0:0:0:
109,192,70854,1,2,0:0:0:0:
402,192,70969,1,2,0:0:0:0:
256,192,71200,128,0,71546:0:0:0:0:
36,192,71200,1,0,0:0:0:0:
402,192,71431,128,0,71662:0:0:0:0:
109,192,71662,128,0,72008:0:0:0:0:
36,192,71662,1,4,0:0:0:0:
475,192,71662,1,0,0:0:0:0:
329,192,71893,128,0,72123:0:0:0:0:
109,192,72123,128,0,72469:0:0:0:0:
36,192,72123,1,0,0:0:0:0:
475,192,72123,1,0,0:0:0:0:
256,192,72354,128,0,72585:0:0:0:0:
329,192,72354,1,0,0:0:0:0:
182,192,72469,1,0,0:0:0:0:
402,192,72585,128,0,72931:0:0:0:0:
36,192,72585,1,4,0:0:0:0:
475,192,72585,1,0,0:0:0:0:
109,192,72816,128,0,73046:0:0:0:0:
182,192,72816,1,0,0:0:0:0:
329,192,72931,1,0,0:0:0:0:
402,192,73046,128,0,73393:0:0:0:0:
36,192,73046,1,4,0:0:0:0:
475,192,73046,1,0,0:0:0:0:
256,192,73277,128,0,73508:0:0:0:0:
329,192,73277,1,0,0:0:0:0:
182,192,73393,1,0,0:0:0:0:
36,192,73508,1,4,0:0:0:0:
475,192,73508,1,0,0:0:0:0:
256,192,74893,1,8,0:0:0:0:
256,192,75354,1,4,0:0:0:0:
182,192,75354,128,0,75700:0:0:0:0:
36,192,75354,1,0,0:0:0:0:
475,192,75354,1,0,0:0:0:0:
329,192,75585,1,0,0:0:0:0:
402,192,75700,1,2,0:0:0:0:
36,192,75816,1,0,0:0:0:0:
182,192,75816,128,0,76162:0:0:0:0:
475,192,76046,1,2,0:0:0:0:
329,192,76162,1,2,0:0:0:0:
36,192,76277,1,0,0:0:0:0:
182,192,76277,128,0,76623:0:0:0:0:
402,192,76508,128,0,76739:0:0:0:0:
475,192,76508,128,0,76739:0:0:0:0:
36,192,76739,1,0,0:0:0:0:
182,192,76739,128,0,77085:0:0:0:0:
36,192,76969,128,0,77200:0:0:0:0:
109,192,76969,128,0,77200:0:0:0:0:
329,192,76969,1,2,0:0:0:0:
329,192,77085,1,2,0:0:0:0:
182,192,77200,1,4,0:0:0:0:
475,192,77200,1,0,0:0:0:0:
182,192,77431,1,0,0:0:0:0:
402,192,77546,1,2,0:0:0:0:
475,192,77662,1,0,0:0:0:0:
36,192,77662,1,0,0:0:0:0:
109,192,77662,1,0,0:0:0:0:
256,192,77662,1,0,0:0:0:0:
182,192,77893,1,2,0:0:0:0:
402,192,77893,1,0,0:0:0:0:
182,192,78008,1,2,0:0:0:0:
36,192,78123,1,0,0:0:0:0:
256,192,78123,1,0,0:0:0:0:
475,192,78123,1,0,0:0:0:0:
109,192,78123,1,0,0:0:0:0:
182,192,78354,1,0,0:0:0:0:
329,192,78469,1,2,0:0:0:0:
36,192,78585,1,0,0:0:0:0:
475,192,78585,1,0,0:0:0:0:
402,192,78585,1,0,0:0:0:0:
182,192,78585,1,0,0:0:0:0:
329,192,78816,1,2,0:0:0:0:
109,192,78816,1,0,0:0:0:0:
329,192,78931,1,2,0:0:0:0:
36,192,79046,1,0,0:0:0:0:
475,192,79046,1,0,0:0:0:0:
182,192,79046,1,0,0:0:0:0:
256,192,79046,1,0,0:0:0:0:
256,192,79277,1,0,0:0:0:0:
109,192,79393,1,2,0:0:0:0:
36,192,79508,1,0,0:0:0:0:
475,192,79508,1,0,0:0:0:0:
402,192,79508,1,0,0:0:0:0:
182,192,79508,1,0,0:0:0:0:
256,192,79739,1,2,0:0:0:0:
329,192,79739,1,0,0:0:0:0:
256,192,79854,1,2,0:0:0:0:
36,192,79969,1,0,0:0:0:0:
182,192,79969,1,0,0:0:0:0:
329,192,79969,1,0,0:0:0:0:
475,192,79969,1,0,0:0:0:0:
109,192,80200,1,0,0:0:0:0:
402,192,80316,1,2,0:0:0:0:
36,192,80431,1,0,0:0:0:0:
182,192,80431,1,0,0:0:0:0:
256,192,80431,1,0,0:0:0:0:
475,192,80431,1,0,0:0:0:0:
329,192,80662,1,2,0:0:0:0:
109,192,80662,1,0,0:0:0:0:
329,192,80777,1,2,0:0:0:0:
36,192,80893,1,0,0:0:0:0:
475,192,80893,1,0,0:0:0:0:
402,192,80893,1,0,0:0:0:0:
256,192,80893,1,0,0:0:0:0:
182,192,81123,1,0,0:0:0:0:
329,192,81123,1,2,0:0:0:0:
256,192,81354,1,0,0:0:0:0:
36,192,81354,1,0,0:0:0:0:
402,192,81354,1,0,0:0:0:0:
475,192,81354,1,0,0:0:0:0:
109,192,81585,1,0,0:0:0:0:
182,192,81585,1,2,0:0:0:0:
475,192,81816,1,0,0:0:0:0:
329,192,81816,1,0,0:0:0:0:
256,192,81816,1,0,0:0:0:0:
36,192,81816,1,0,0:0:0:0:
402,192,82046,1,2,0:0:0:0:
329,192,82046,1,0,0:0:0:0:
256,192,82277,1,0,0:0:0:0:
182,192,82277,1,0,0:0:0:0:
36,192,82277,1,0,0:0:0:0:
475,192,82277,1,0,0:0:0:0:
329,192,82508,1,2,0:0:0:0:
182,192,82508,1,0,0:0:0:0:
329,192,82623,1,2,0:0:0:0:
36,192,82739,1,0,0:0:0:0:
109,192,82739,1,0,0:0:0:0:
402,192,82739,1,0,0:0:0:0:
475,192,82739,1,0,0:0:0:0:
256,192,82739,1,0,0:0:0:0:
182,192,82969,1,0,0:0:0:0:
329,192,83085,1,2,0:0:0:0:
475,192,83200,1,0,0:0:0:0:
402,192,83200,1,0,0:0:0:0:
36,192,83200,1,0,0:0:0:0:
256,192,83200,1,0,0:0:0:0:
329,192,83431,1,2,0:0:0:0:
109,192,83431,1,0,0:0:0:0:
329,192,83546,1,2,0:0:0:0:
182,192,83662,1,0,0:0:0:0:
36,192,83662,1,0,0:0:0:0:
256,192,83662,1,0,0:0:0:0:
475,192,83662,1,0,0:0:0:0:
402,192,83893,1,0,0:0:0:0:
329,192,84008,1,2,0:0:0:0:
256,192,84123,1,0,0:0:0:0:
36,192,84123,1,0,0:0:0:0:
475,192,84123,1,0,0:0:0:0:
109,192,84123,1,0,0:0:0:0:
402,192,84354,1,2,0:0:0:0:
329,192,84354,1,0,0:0:0:0:
402,192,84469,1,2,0:0:0:0:
36,192,84585,1,0,0:0:0:0:
329,192,84585,1,0,0:0:0:0:
475,192,84585,1,0,0:0:0:0:
182,192,84585,1,0,0:0:0:0:
256,192,84816,1,0,0:0:0:0:
109,192,84816,1,2,0:0:0:0:
182,192,85046,1,0,0:0:0:0:
36,192,85046,1,0,0:0:0:0:
256,192,85046,1,0,0:0:0:0:
402,192,85046,1,0,0:0:0:0:
329,192,85277,1,2,0:0:0:0:
475,192,85277,1,0,0:0:0:0:
475,192,85508,1,0,0:0:0:0:
329,192,85508,1,0,0:0:0:0:
256,192,85508,1,0,0:0:0:0:
36,192,85508,1,0,0:0:0:0:
109,192,85739,1,0,0:0:0:0:
256,192,85854,1,2,0:0:0:0:
182,192,85969,1,0,0:0:0:0:
36,192,85969,1,0,0:0:0:0:
475,192,85969,1,0,0:0:0:0:
329,192,85969,1,0,0:0:0:0:
109,192,86200,1,0,0:0:0:0:
402,192,86200,1,2,0:0:0:0:
402,192,86316,1,2,0:0:0:0:
182,192,86431,1,0,0:0:0:0:
36,192,86431,1,0,0:0:0:0:
475,192,86431,1,0,0:0:0:0:
256,192,86431,1,0,0:0:0:0:
109,192,86662,1,0,0:0:0:0:
329,192,86662,1,2,0:0:0:0:
256,192,86893,1,0,0:0:0:0:
36,192,86893,1,0,0:0:0:0:
475,192,86893,1,0,0:0:0:0:
182,192,86893,1,0,0:0:0:0:
329,192,87008,1,2,0:0:0:0:
109,192,87123,1,0,0:0:0:0:
329,192,87123,1,2,0:0:0:0:
36,192,87354,1,0,0:0:0:0:
475,192,87354,1,0,0:0:0:0:
329,192,87354,1,0,0:0:0:0:
182,192,87354,1,0,0:0:0:0:
402,192,87585,1,2,0:0:0:0:
256,192,87585,1,0,0:0:0:0:
36,192,87816,1,0,0:0:0:0:
402,192,87816,1,0,0:0:0:0:
182,192,87816,1,0,0:0:0:0:
256,192,87816,1,0,0:0:0:0:
329,192,88046,1,2,0:0:0:0:
475,192,88046,1,0,0:0:0:0:
36,192,88277,1,0,0:0:0:0:
402,192,88277,1,0,0:0:0:0:
256,192,88277,1,0,0:0:0:0:
109,192,88277,1,0,0:0:0:0:
182,192,88508,1,2,0:0:0:0:
329,192,88508,1,0,0:0:0:0:
36,192,88739,1,0,0:0:0:0:
256,192,88739,1,0,0:0:0:0:
402,192,88739,1,0,0:0:0:0:
475,192,88739,1,0,0:0:0:0:
182,192,88854,1,2,0:0:0:0:
109,192,88854,1,0,0:0:0:0:
329,192,88969,1,2,0:0:0:0:
402,192,89046,1,2,0:0:0:0:
329,192,89123,1,2,0:0:0:0:
402,192,89200,1,2,0:0:0:0:
36,192,89200,1,0,0:0:0:0:
475,192,89200,1,0,0:0:0:0:
182,192,89200,1,0,0:0:0:0:
256,192,89431,1,2,0:0:0:0:
329,192,89431,1,0,0:0:0:0:
256,192,89546,1,2,0:0:0:0:
329,192,89546,1,0,0:0:0:0:
36,192,89662,1,0,0:0:0:0:
475,192,89662,1,0,0:0:0:0:
402,192,89662,1,0,0:0:0:0:
182,192,89662,1,0,0:0:0:0:
109,192,89893,1,0,0:0:0:0:
256,192,89893,1,2,0:0:0:0:
36,192,90123,1,0,0:0:0:0:
329,192,90123,1,0,0:0:0:0:
475,192,90123,1,0,0:0:0:0:
182,192,90123,1,0,0:0:0:0:
256,192,90123,1,0,0:0:0:0:
182,192,90354,1,0,0:0:0:0:
402,192,90469,1,2,0:0:0:0:
475,192,90585,1,0,0:0:0:0:
109,192,90585,1,0,0:0:0:0:
36,192,90585,1,0,0:0:0:0:
256,192,90585,1,0,0:0:0:0:
182,192,90816,1,2,0:0:0:0:
402,192,90816,1,0,0:0:0:0:
182,192,90931,1,2,0:0:0:0:
256,192,91046,1,0,0:0:0:0:
36,192,91046,1,0,0:0:0:0:
109,192,91046,1,0,0:0:0:0:
475,192,91046,1,0,0:0:0:0:
182,192,91277,1,0,0:0:0:0:
329,192,91393,1,2,0:0:0:0:
182,192,91508,1,0,0:0:0:0:
475,192,91508,1,0,0:0:0:0:
402,192,91508,1,0,0:0:0:0:
36,192,91508,1,0,0:0:0:0:
329,192,91739,1,2,0:0:0:0:
109,192,91739,1,0,0:0:0:0:
329,192,91854,1,2,0:0:0:0:
475,192,91969,1,0,0:0:0:0:
256,192,91969,1,0,0:0:0:0:
36,192,91969,1,0,0:0:0:0:
182,192,91969,1,0,0:0:0:0:
256,192,92200,1,0,0:0:0:0:
109,192,92316,1,2,0:0:0:0:
475,192,92431,1,0,0:0:0:0:
182,192,92431,1,0,0:0:0:0:
402,192,92431,1,0,0:0:0:0:
36,192,92431,1,0,0:0:0:0:
256,192,92662,1,2,0:0:0:0:
329,192,92662,1,0,0:0:0:0:
256,192,92777,1,2,0:0:0:0:
182,192,92893,1,0,0:0:0:0:
36,192,92893,1,0,0:0:0:0:
329,192,92893,1,0,0:0:0:0:
475,192,92893,1,0,0:0:0:0:
109,192,93123,1,0,0:0:0:0:
402,192,93239,1,2,0:0:0:0:
36,192,93354,1,0,0:0:0:0:
256,192,93354,1,0,0:0:0:0:
475,192,93354,1,0,0:0:0:0:
182,192,93354,1,0,0:0:0:0:
329,192,93585,1,2,0:0:0:0:
109,192,93585,1,0,0:0:0:0:
329,192,93700,1,2,0:0:0:0:
402,192,93816,1,0,0:0:0:0:
256,192,93816,1,0,0:0:0:0:
36,192,93816,1,0,0:0:0:0:
475,192,93816,1,0,0:0:0:0:
182,192,94046,1,0,0:0:0:0:
329,192,94046,1,2,0:0:0:0:
475,192,94277,1,0,0:0:0:0:
256,192,94277,1,0,0:0:0:0:
36,192,94277,1,0,0:0:0:0:
402,192,94277,1,0,0:0:0:0:
182,192,94508,1,0,0:0:0:0:
109,192,94508,1,2,0:0:0:0:
256,192,94739,1,0,0:0:0:0:
475,192,94739,1,0,0:0:0:0:
329,192,94739,1,0,0:0:0:0:
36,192,94739,1,0,0:0:0:0:
402,192,94969,1,2,0:0:0:0:
329,192,94969,1,0,0:0:0:0:
182,192,95200,1,0,0:0:0:0:
256,192,95200,1,0,0:0:0:0:
36,192,95200,1,0,0:0:0:0:
475,192,95200,1,0,0:0:0:0:
329,192,95431,1,2,0:0:0:0:
182,192,95431,1,0,0:0:0:0:
329,192,95546,1,2,0:0:0:0:
256,192,95662,1,0,0:0:0:0:
475,192,95662,1,0,0:0:0:0:
109,192,95662,1,0,0:0:0:0:
36,192,95662,1,0,0:0:0:0:
182,192,95893,1,0,0:0:0:0:
329,192,96008,1,2,0:0:0:0:
36,192,96123,1,0,0:0:0:0:
475,192,96123,1,0,0:0:0:0:
402,192,96123,1,0,0:0:0:0:
256,192,96123,1,0,0:0:0:0:
109,192,96354,1,0,0:0:0:0:
329,192,96354,1,2,0:0:0:0:
329,192,96469,1,2,0:0:0:0:
36,192,96585,1,0,0:0:0:0:
182,192,96585,1,0,0:0:0:0:
475,192,96585,1,0,0:0:0:0:
256,192,96585,1,0,0:0:0:0:
402,192,96816,1,0,0:0:0:0:
109,192,96816,1,0,0:0:0:0:
329,192,96931,1,2,0:0:0:0:
182,192,96931,1,0,0:0:0:0:
256,192,97046,1,0,0:0:0:0:
36,192,97046,1,0,0:0:0:0:
475,192,97046,1,0,0:0:0:0:
109,192,97046,1,0,0:0:0:0:
402,192,97277,1,2,0:0:0:0:
182,192,97277,1,0,0:0:0:0:
402,192,97393,1,2,0:0:0:0:
256,192,97393,1,0,0:0:0:0:
329,192,97508,1,0,0:0:0:0:
475,192,97508,1,0,0:0:0:0:
36,192,97508,1,0,0:0:0:0:
109,192,97508,1,0,0:0:0:0:
256,192,97508,1,0,0:0:0:0:
182,192,97739,1,0,0:0:0:0:
329,192,97854,1,2,0:0:0:0:
475,192,97969,1,0,0:0:0:0:
36,192,97969,1,0,0:0:0:0:
402,192,97969,1,0,0:0:0:0:
256,192,97969,1,0,0:0:0:0:
109,192,98200,1,0,0:0:0:0:
329,192,98200,1,2,0:0:0:0:
329,192,98316,1,2,0:0:0:0:
182,192,98431,1,0,0:0:0:0:
36,192,98431,1,0,0:0:0:0:
475,192,98431,1,0,0:0:0:0:
256,192,98431,1,0,0:0:0:0:
402,192,98662,1,0,0:0:0:0:
329,192,98777,1,2,0:0:0:0:
36,192,98893,1,0,0:0:0:0:
109,192,98893,1,0,0:0:0:0:
256,192,98893,1,0,0:0:0:0:
475,192,98893,1,0,0:0:0:0:
402,192,99123,1,2,0:0:0:0:
329,192,99123,1,0,0:0:0:0:
402,192,99239,1,2,0:0:0:0:
329,192,99354,1,0,0:0:0:0:
182,192,99354,1,0,0:0:0:0:
475,192,99354,1,0,0:0:0:0:
36,192,99354,1,0,0:0:0:0:
109,192,99585,1,0,0:0:0:0:
256,192,99585,1,2,0:0:0:0:
36,192,99816,1,0,0:0:0:0:
182,192,99816,1,0,0:0:0:0:
402,192,99816,1,0,0:0:0:0:
256,192,99816,1,0,0:0:0:0:
475,192,100046,1,0,0:0:0:0:
329,192,100046,1,2,0:0:0:0:
475,192,100277,1,0,0:0:0:0:
329,192,100277,1,0,0:0:0:0:
256,192,100277,1,0,0:0:0:0:
36,192,100277,1,0,0:0:0:0:
109,192,100508,1,0,0:0:0:0:
256,192,100623,1,2,0:0:0:0:
36,192,100739,1,0,0:0:0:0:
182,192,100739,1,0,0:0:0:0:
329,192,100739,1,0,0:0:0:0:
475,192,100739,1,0,0:0:0:0:
109,192,100969,1,0,0:0:0:0:
402,192,100969,1,2,0:0:0:0:
402,192,101085,1,2,0:0:0:0:
475,192,101200,1,0,0:0:0:0:
182,192,101200,1,0,0:0:0:0:
36,192,101200,1,0,0:0:0:0:
256,192,101200,1,0,0:0:0:0:
109,192,101431,1,0,0:0:0:0:
329,192,101431,1,2,0:0:0:0:
475,192,101662,1,0,0:0:0:0:
256,192,101662,1,0,0:0:0:0:
36,192,101662,1,0,0:0:0:0:
182,192,101662,1,0,0:0:0:0:
329,192,101777,1,2,0:0:0:0:
329,192,101893,1,2,0:0:0:0:
109,192,101893,1,0,0:0:0:0:
475,192,102123,1,0,0:0:0:0:
36,192,102123,1,0,0:0:0:0:
329,192,102123,1,0,0:0:0:0:
182,192,102123,1,0,0:0:0:0:
256,192,102354,1,0,0:0:0:0:
402,192,102354,1,2,0:0:0:0:
36,192,102585,1,0,0:0:0:0:
182,192,102585,1,0,0:0:0:0:
256,192,102585,1,0,0:0:0:0:
402,192,102585,1,0,0:0:0:0:
475,192,102816,1,0,0:0:0:0:
329,192,102816,1,2,0:0:0:0:
329,192,102931,1,2,0:0:0:0:
36,192,103046,1,0,0:0:0:0:
109,192,103046,1,0,0:0:0:0:
256,192,103046,1,0,0:0:0:0:
402,192,103046,1,0,0:0:0:0:
329,192,103277,1,2,0:0:0:0:
475,192,103277,1,0,0:0:0:0:
402,192,103508,1,0,0:0:0:0:
256,192,103508,1,0,0:0:0:0:
182,192,103508,1,0,0:0:0:0:
36,192,103508,1,0,0:0:0:0:
329,192,103739,5,0,0:0:0:0:
109,192,103739,1,2,0:0:0:0:
256,192,103969,1,0,0:0:0:0:
36,192,103969,1,0,0:0:0:0:
475,192,103969,1,0,0:0:0:0:
402,192,103969,1,0,0:0:0:0:
182,192,104200,1,2,0:0:0:0:
329,192,104200,1,0,0:0:0:0:
256,192,104316,1,0,0:0:0:0:
109,192,104431,1,0,0:0:0:0:
402,192,104431,1,0,0:0:0:0:
182,192,104662,1,2,0:0:0:0:
329,192,104662,1,0,0:0:0:0:
256,192,104777,1,0,0:0:0:0:
475,192,104893,5,4,0:0:0:0:
36,192,104893,1,0,0:0:0:0:
182,192,104893,128,0,105239:0:0:0:0:
402,192,104893,1,0,0:0:0:0:
329,192,105123,1,0,0:0:0:0:
402,192,105239,1,0,0:0:0:0:
36,192,105354,1,0,0:0:0:0:
182,192,105354,128,0,105700:0:0:0:0:
475,192,105585,1,0,0:0:0:0:
329,192,105700,1,0,0:0:0:0:
182,192,105816,128,0,106162:0:0:0:0:
36,192,105816,1,0,0:0:0:0:
402,192,106046,128,0,106277:0:0:0:0:
182,192,106277,128,0,106623:0:0:0:0:
36,192,106277,1,0,0:0:0:0:
475,192,106508,128,0,106739:0:0:0:0:
36,192,106739,128,0,107085:0:0:0:0:
109,192,106739,1,0,0:0:0:0:
402,192,106739,1,0,0:0:0:0:
329,192,106969,1,0,0:0:0:0:
475,192,107085,1,0,0:0:0:0:
256,192,107200,1,0,0:0:0:0:
36,192,107200,128,0,107546:0:0:0:0:
475,192,107431,1,0,0:0:0:0:
329,192,107546,1,0,0:0:0:0:
109,192,107662,1,0,0:0:0:0:
256,192,107662,128,0,108008:0:0:0:0:
182,192,107893,1,0,0:0:0:0:
402,192,108008,1,0,0:0:0:0:
256,192,108123,128,0,108469:0:0:0:0:
36,192,108123,1,0,0:0:0:0:
109,192,108354,1,0,0:0:0:0:
329,192,108469,1,0,0:0:0:0:
109,192,108585,128,0,108931:0:0:0:0:
36,192,108585,1,0,0:0:0:0:
475,192,108585,1,0,0:0:0:0:
402,192,108816,1,0,0:0:0:0:
256,192,108931,1,0,0:0:0:0:
109,192,109046,128,0,109393:0:0:0:0:
475,192,109046,1,0,0:0:0:0:
402,192,109277,1,0,0:0:0:0:
256,192,109393,1,0,0:0:0:0:
475,192,109508,1,0,0:0:0:0:
109,192,109508,128,0,109854:0:0:0:0:
256,192,109739,1,0,0:0:0:0:
402,192,109854,1,0,0:0:0:0:
475,192,109969,1,0,0:0:0:0:
109,192,109969,128,0,110316:0:0:0:0:
329,192,110200,1,0,0:0:0:0:
256,192,110316,1,0,0:0:0:0:
182,192,110431,1,0,0:0:0:0:
475,192,110431,128,0,110777:0:0:0:0:
36,192,110431,1,0,0:0:0:0:
329,192,110662,128,0,110893:0:0:0:0:
109,192,110662,1,0,0:0:0:0:
36,192,110893,1,0,0:0:0:0:
475,192,110893,128,0,111239:0:0:0:0:
182,192,111123,128,0,111354:0:0:0:0:
109,192,111123,1,0,0:0:0:0:
402,192,111239,1,0,0:0:0:0:
329,192,111354,128,0,111700:0:0:0:0:
36,192,111354,1,0,0:0:0:0:
475,192,111585,128,0,111816:0:0:0:0:
182,192,111585,1,0,0:0:0:0:
182,192,111700,1,0,0:0:0:0:
329,192,111816,128,0,112162:0:0:0:0:
36,192,111816,1,0,0:0:0:0:
109,192,112046,128,0,112277:0:0:0:0:
256,192,112046,1,0,0:0:0:0:
256,192,112162,1,0,0:0:0:0:
329,192,112277,1,0,0:0:0:0:
475,192,112277,1,4,0:0:0:0:
36,192,112277,1,0,0:0:0:0:
182,192,112277,1,0,0:0:0:0:
