osu file format v14

[General]
AudioFilename: Madpakke.mp3
AudioLeadIn: 0
PreviewTime: 43970
Countdown: 0
SampleSet: Soft
StackLeniency: 0.7
Mode: 3
LetterboxInBreaks: 0
SpecialStyle: 0
WidescreenStoryboard: 0

[Editor]
DistanceSpacing: 1
BeatDivisor: 4
GridSize: 8
TimelineZoom: 1.5

[Metadata]
Title:Madpakke
TitleUnicode:Madpakke
Artist:CELLON.
ArtistUnicode:CELLON.
Creator:[ C r a c k ]
Version:4K Normal
Source:BMS
Tags:of fighters bof2012 richardfeder
BeatmapID:681652
BeatmapSetID:304248

[Difficulty]
HPDrainRate:7.2
CircleSize:4
OverallDifficulty:7.2
ApproachRate:5
SliderMultiplier:1.4
SliderTickRate:1

[Events]
//Background and Video events
0,0,"damn BG.jpg",0,0
//Break Periods
//Storyboard Layer 0 (Background)
//Storyboard Layer 1 (Fail)
//Storyboard Layer 2 (Pass)
//Storyboard Layer 3 (Foreground)
//Storyboard Sound Samples

[TimingPoints]
9,461.538461538462,4,2,0,10,1,0
30470,375,4,2,0,10,1,0
30470,-123.456790123457,4,2,0,10,0,0
31220,375,4,2,0,10,1,0
31220,-123.456790123457,4,2,0,10,0,0
55970,461.538461538462,4,2,0,10,1,0
56893,461.538461538462,4,2,0,10,1,0

[HitObjects]
64,192,1855,5,2,0:0:0:0:
448,192,1855,1,2,0:0:0:0:
64,192,2316,1,2,0:0:0:0:
192,192,2778,1,2,0:0:0:0:
320,192,3239,128,2,5547:0:0:0:0:
192,192,5547,1,2,0:0:0:0:
448,192,5547,1,2,0:0:0:0:
64,192,6470,1,2,0:0:0:0:
192,192,6932,128,2,9239:0:0:0:0:
64,192,9239,1,2,0:0:0:0:
448,192,9239,1,2,0:0:0:0:
64,192,9701,1,2,0:0:0:0:
320,192,10162,128,2,12932:0:0:0:0:
192,192,12932,1,2,0:0:0:0:
448,192,12932,1,2,0:0:0:0:
64,192,13855,128,2,16624:0:0:0:0:
448,192,16624,1,2,0:0:0:0:
448,192,17085,1,0,0:0:0:0:
448,192,17547,128,0,18470:0:0:0:0:
64,192,18470,1,2,0:0:0:0:
192,192,18470,1,2,0:0:0:0:
320,192,18932,1,2,0:0:0:0:
192,192,19393,1,2,0:0:0:0:
320,192,19855,1,2,0:0:0:0:
448,192,20316,1,2,0:0:0:0:
320,192,20778,1,2,0:0:0:0:
64,192,21701,1,2,0:0:0:0:
448,192,22162,1,2,0:0:0:0:
64,192,23316,1,2,0:0:0:0:
192,192,23547,1,2,0:0:0:0:
320,192,23778,1,2,0:0:0:0:
64,192,24009,1,2,0:0:0:0:
448,192,24009,1,2,0:0:0:0:
320,192,24470,1,2,0:0:0:0:
192,192,24932,1,2,0:0:0:0:
64,192,25393,1,2,0:0:0:0:
448,192,25855,1,2,0:0:0:0:
192,192,25855,1,2,0:0:0:0:
320,192,26316,1,2,0:0:0:0:
64,192,26778,1,2,0:0:0:0:
192,192,27009,1,2,0:0:0:0:
320,192,27239,1,2,0:0:0:0:
448,192,27470,1,2,0:0:0:0:
192,192,27701,1,2,0:0:0:0:
64,192,27701,1,0,0:0:0:0:
448,192,28624,1,2,0:0:0:0:
192,192,28624,1,0,0:0:0:0:
64,192,29547,1,2,0:0:0:0:
320,192,29547,1,0,0:0:0:0:
448,192,30009,1,2,0:0:0:0:
64,192,30009,1,0,0:0:0:0:
192,192,30470,1,2,0:0:0:0:
320,192,30845,1,2,0:0:0:0:
64,192,31220,1,4,0:0:0:0:
448,192,31220,1,0,0:0:0:0:
64,192,31407,1,4,0:0:0:0:
448,192,31407,1,0,0:0:0:0:
320,192,32720,1,4,0:0:0:0:
448,192,32720,1,0,0:0:0:0:
448,192,32907,1,4,0:0:0:0:
320,192,32907,1,0,0:0:0:0:
192,192,33095,1,4,0:0:0:0:
64,192,33095,1,0,0:0:0:0:
320,192,34220,1,0,0:0:0:0:
64,192,34220,1,4,0:0:0:0:
320,192,34407,1,0,0:0:0:0:
64,192,34407,1,4,0:0:0:0:
192,192,34782,1,4,0:0:0:0:
448,192,34782,1,0,0:0:0:0:
320,192,35345,1,4,0:0:0:0:
64,192,35345,1,0,0:0:0:0:
320,192,35720,1,4,0:0:0:0:
448,192,35720,1,0,0:0:0:0:
320,192,35907,1,4,0:0:0:0:
448,192,35907,1,0,0:0:0:0:
320,192,36282,1,0,0:0:0:0:
192,192,36282,1,4,0:0:0:0:
192,192,36657,1,4,0:0:0:0:
64,192,36657,1,0,0:0:0:0:
64,192,37220,1,4,0:0:0:0:
448,192,37220,1,0,0:0:0:0:
64,192,37407,1,4,0:0:0:0:
448,192,37407,1,0,0:0:0:0:
64,192,38157,1,4,0:0:0:0:
320,192,38157,1,0,0:0:0:0:
64,192,38345,1,4,0:0:0:0:
320,192,38345,1,0,0:0:0:0:
448,192,38720,1,4,0:0:0:0:
320,192,38720,1,0,0:0:0:0:
320,192,38907,1,0,0:0:0:0:
448,192,38907,1,4,0:0:0:0:
192,192,39095,1,4,0:0:0:0:
64,192,39095,1,0,0:0:0:0:
320,192,39657,1,4,0:0:0:0:
64,192,39657,1,0,0:0:0:0:
448,192,40220,1,4,0:0:0:0:
192,192,40220,1,0,0:0:0:0:
448,192,40407,1,4,0:0:0:0:
192,192,40407,1,0,0:0:0:0:
64,192,40782,1,4,0:0:0:0:
320,192,40782,1,0,0:0:0:0:
192,192,41345,1,4,0:0:0:0:
448,192,41345,1,0,0:0:0:0:
64,192,41720,1,4,0:0:0:0:
192,192,41720,1,0,0:0:0:0:
64,192,41907,1,4,0:0:0:0:
192,192,41907,1,0,0:0:0:0:
192,192,42282,1,4,0:0:0:0:
320,192,42282,1,0,0:0:0:0:
64,192,42657,1,2,0:0:0:0:
448,192,42657,1,4,0:0:0:0:
64,192,43970,1,2,0:0:0:0:
192,192,44157,1,2,0:0:0:0:
320,192,44345,1,2,0:0:0:0:
448,192,44532,1,2,0:0:0:0:
64,192,44720,1,4,0:0:0:0:
192,192,44720,1,2,0:0:0:0:
448,192,44907,1,2,0:0:0:0:
64,192,45095,1,2,0:0:0:0:
192,192,45188,1,2,0:0:0:0:
320,192,45282,1,2,0:0:0:0:
448,192,45470,1,2,0:0:0:0:
64,192,45657,1,2,0:0:0:0:
320,192,45845,1,2,0:0:0:0:
192,192,46032,1,2,0:0:0:0:
448,192,46220,1,2,0:0:0:0:
320,192,46407,1,2,0:0:0:0:
64,192,46595,1,2,0:0:0:0:
192,192,46688,1,2,0:0:0:0:
320,192,46782,1,2,0:0:0:0:
64,192,46970,1,2,0:0:0:0:
320,192,47157,1,2,0:0:0:0:
192,192,47345,1,2,0:0:0:0:
448,192,47532,1,2,0:0:0:0:
64,192,47720,1,6,0:0:0:0:
192,192,47720,1,4,0:0:0:0:
448,192,47907,1,0,0:0:0:0:
320,192,48001,1,0,0:0:0:0:
192,192,48095,1,8,0:0:0:0:
64,192,48188,1,0,0:0:0:0:
192,192,48282,1,2,0:0:0:0:
320,192,48376,1,0,0:0:0:0:
448,192,48470,1,0,0:0:0:0:
64,192,48657,1,2,0:0:0:0:
192,192,48751,1,0,0:0:0:0:
448,192,48845,1,8,0:0:0:0:
320,192,48938,1,0,0:0:0:0:
64,192,49032,1,0,0:0:0:0:
192,192,49126,1,0,0:0:0:0:
320,192,49220,1,2,0:0:0:0:
448,192,49407,1,2,0:0:0:0:
64,192,49595,1,8,0:0:0:0:
192,192,49688,1,0,0:0:0:0:
320,192,49782,1,0,0:0:0:0:
448,192,49876,1,0,0:0:0:0:
192,192,49970,1,0,0:0:0:0:
64,192,49970,1,4,0:0:0:0:
320,192,50157,1,4,0:0:0:0:
448,192,50157,1,0,0:0:0:0:
64,192,50720,1,4,0:0:0:0:
192,192,50720,1,2,0:0:0:0:
448,192,50813,1,2,0:0:0:0:
320,192,50907,1,2,0:0:0:0:
64,192,51095,1,2,0:0:0:0:
192,192,51188,1,2,0:0:0:0:
448,192,51282,1,2,0:0:0:0:
320,192,51470,1,2,0:0:0:0:
64,192,51657,1,2,0:0:0:0:
320,192,51845,1,2,0:0:0:0:
192,192,52032,1,2,0:0:0:0:
448,192,52220,1,2,0:0:0:0:
320,192,52313,1,2,0:0:0:0:
192,192,52407,1,2,0:0:0:0:
448,192,52595,1,8,0:0:0:0:
64,192,52782,1,2,0:0:0:0:
192,192,52876,1,2,0:0:0:0:
320,192,52970,1,2,0:0:0:0:
448,192,53063,1,0,0:0:0:0:
320,192,53157,1,0,0:0:0:0:
192,192,53251,1,0,0:0:0:0:
64,192,53345,1,4,0:0:0:0:
320,192,53438,1,0,0:0:0:0:
192,192,53532,1,0,0:0:0:0:
320,192,53626,1,0,0:0:0:0:
448,192,53720,1,4,0:0:0:0:
64,192,53720,1,0,0:0:0:0:
192,192,53907,1,2,0:0:0:0:
320,192,54001,1,2,0:0:0:0:
448,192,54095,1,2,0:0:0:0:
64,192,54188,1,2,0:0:0:0:
192,192,54282,1,2,0:0:0:0:
448,192,54470,1,2,0:0:0:0:
64,192,54657,1,2,0:0:0:0:
448,192,54845,1,2,0:0:0:0:
192,192,55032,1,2,0:0:0:0:
448,192,55220,128,2,56893:0:0:0:0:
320,192,56893,1,0,0:0:0:0:
64,192,56893,1,4,0:0:0:0:
64,192,58739,1,4,0:0:0:0:
448,192,58739,1,0,0:0:0:0:
192,192,59085,1,2,0:0:0:0:
320,192,59200,1,8,0:0:0:0:
448,192,59431,1,2,0:0:0:0:
64,192,59546,1,2,0:0:0:0:
192,192,59662,1,2,0:0:0:0:
320,192,59893,1,2,0:0:0:0:
192,192,60123,1,8,0:0:0:0:
64,192,60354,1,2,0:0:0:0:
192,192,60469,1,0,0:0:0:0:
320,192,60585,1,4,0:0:0:0:
448,192,60585,1,0,0:0:0:0:
64,192,60816,1,2,0:0:0:0:
192,192,60931,1,2,0:0:0:0:
448,192,61277,1,2,0:0:0:0:
320,192,61393,1,2,0:0:0:0:
192,192,61739,1,2,0:0:0:0:
320,192,61854,1,2,0:0:0:0:
192,192,62200,1,2,0:0:0:0:
320,192,62316,1,2,0:0:0:0:
448,192,62431,1,0,0:0:0:0:
64,192,62431,1,4,0:0:0:0:
192,192,62662,1,2,0:0:0:0:
64,192,62777,1,2,0:0:0:0:
320,192,63123,1,2,0:0:0:0:
192,192,63239,1,2,0:0:0:0:
320,192,63585,1,2,0:0:0:0:
448,192,63700,1,2,0:0:0:0:
192,192,64046,1,2,0:0:0:0:
320,192,64162,1,2,0:0:0:0:
64,192,64277,1,4,0:0:0:0:
448,192,64277,1,0,0:0:0:0:
320,192,64508,1,2,0:0:0:0:
192,192,64739,1,8,0:0:0:0:
320,192,64969,1,2,0:0:0:0:
192,192,65200,1,2,0:0:0:0:
64,192,65431,1,2,0:0:0:0:
448,192,65662,1,4,0:0:0:0:
320,192,65662,1,0,0:0:0:0:
64,192,65893,1,4,0:0:0:0:
192,192,65893,1,0,0:0:0:0:
448,192,66123,1,0,0:0:0:0:
64,192,66123,1,4,0:0:0:0:
320,192,66354,1,2,0:0:0:0:
192,192,66469,1,2,0:0:0:0:
448,192,66816,1,2,0:0:0:0:
64,192,66931,1,2,0:0:0:0:
320,192,67277,1,2,0:0:0:0:
192,192,67393,1,2,0:0:0:0:
448,192,67739,1,2,0:0:0:0:
320,192,67854,1,2,0:0:0:0:
64,192,67969,1,4,0:0:0:0:
192,192,67969,1,0,0:0:0:0:
448,192,68200,1,2,0:0:0:0:
192,192,68431,1,8,0:0:0:0:
448,192,68662,1,2,0:0:0:0:
64,192,68893,1,2,0:0:0:0:
320,192,69123,1,2,0:0:0:0:
448,192,69239,1,2,0:0:0:0:
192,192,69585,1,2,0:0:0:0:
320,192,69700,1,2,0:0:0:0:
64,192,69816,1,4,0:0:0:0:
448,192,69816,1,0,0:0:0:0:
192,192,70046,1,2,0:0:0:0:
192,192,70393,1,2,0:0:0:0:
320,192,70508,1,2,0:0:0:0:
192,192,70623,1,2,0:0:0:0:
448,192,70739,1,0,0:0:0:0:
64,192,70739,1,4,0:0:0:0:
320,192,70854,1,2,0:0:0:0:
192,192,70969,1,2,0:0:0:0:
320,192,71431,1,2,0:0:0:0:
64,192,71662,1,0,0:0:0:0:
448,192,71662,1,4,0:0:0:0:
320,192,71893,1,2,0:0:0:0:
64,192,72123,1,4,0:0:0:0:
192,192,72123,1,0,0:0:0:0:
320,192,72354,1,2,0:0:0:0:
448,192,72585,1,0,0:0:0:0:
64,192,72585,1,4,0:0:0:0:
192,192,72816,1,2,0:0:0:0:
320,192,72931,1,2,0:0:0:0:
448,192,73046,1,0,0:0:0:0:
64,192,73046,1,4,0:0:0:0:
192,192,73277,1,2,0:0:0:0:
64,192,73508,1,4,0:0:0:0:
448,192,73508,1,0,0:0:0:0:
320,192,74893,1,8,0:0:0:0:
64,192,75354,1,4,0:0:0:0:
448,192,75354,1,0,0:0:0:0:
192,192,75700,1,2,0:0:0:0:
320,192,75816,1,8,0:0:0:0:
448,192,76046,1,2,0:0:0:0:
64,192,76162,1,2,0:0:0:0:
192,192,76277,1,2,0:0:0:0:
448,192,76508,1,2,0:0:0:0:
64,192,76739,1,8,0:0:0:0:
320,192,76969,1,2,0:0:0:0:
192,192,77085,1,0,0:0:0:0:
64,192,77200,1,4,0:0:0:0:
448,192,77200,1,0,0:0:0:0:
64,192,77662,1,2,0:0:0:0:
448,192,77662,1,0,0:0:0:0:
192,192,78123,1,2,0:0:0:0:
448,192,78123,1,0,0:0:0:0:
192,192,78585,1,2,0:0:0:0:
448,192,78585,1,0,0:0:0:0:
320,192,79046,1,2,0:0:0:0:
448,192,79046,1,0,0:0:0:0:
320,192,79508,1,2,0:0:0:0:
448,192,79508,1,0,0:0:0:0:
320,192,79969,1,2,0:0:0:0:
448,192,79969,1,0,0:0:0:0:
192,192,80431,1,2,0:0:0:0:
320,192,80431,1,0,0:0:0:0:
64,192,80893,1,2,0:0:0:0:
192,192,80893,1,0,0:0:0:0:
64,192,81354,1,2,0:0:0:0:
192,192,81354,1,0,0:0:0:0:
192,192,81816,1,2,0:0:0:0:
320,192,81816,1,0,0:0:0:0:
192,192,82277,1,2,0:0:0:0:
320,192,82277,1,0,0:0:0:0:
64,192,82739,1,2,0:0:0:0:
448,192,82739,1,4,0:0:0:0:
448,192,83200,1,0,0:0:0:0:
64,192,83200,1,2,0:0:0:0:
448,192,83662,1,0,0:0:0:0:
64,192,83662,1,2,0:0:0:0:
192,192,84123,1,2,0:0:0:0:
448,192,84123,1,0,0:0:0:0:
64,192,84585,1,2,0:0:0:0:
320,192,84585,1,0,0:0:0:0:
64,192,85046,1,2,0:0:0:0:
320,192,85046,1,0,0:0:0:0:
448,192,85508,1,0,0:0:0:0:
320,192,85508,1,2,0:0:0:0:
448,192,85969,1,0,0:0:0:0:
320,192,85969,1,2,0:0:0:0:
64,192,86431,1,0,0:0:0:0:
192,192,86431,1,2,0:0:0:0:
64,192,86893,1,0,0:0:0:0:
192,192,86893,1,2,0:0:0:0:
64,192,87354,1,0,0:0:0:0:
192,192,87354,1,2,0:0:0:0:
192,192,87816,1,2,0:0:0:0:
320,192,87816,1,0,0:0:0:0:
64,192,88277,1,0,0:0:0:0:
448,192,88277,1,2,0:0:0:0:
320,192,88508,1,0,0:0:0:0:
64,192,88739,128,2,89200:0:0:0:0:
192,192,88969,128,0,89200:0:0:0:0:
448,192,89200,1,2,0:0:0:0:
320,192,89431,128,0,89662:0:0:0:0:
64,192,89662,1,2,0:0:0:0:
192,192,89893,1,0,0:0:0:0:
64,192,90123,1,2,0:0:0:0:
448,192,90123,1,4,0:0:0:0:
320,192,90469,1,0,0:0:0:0:
448,192,90585,1,0,0:0:0:0:
64,192,90585,1,2,0:0:0:0:
192,192,90816,1,0,0:0:0:0:
64,192,91046,1,2,0:0:0:0:
448,192,91046,1,0,0:0:0:0:
320,192,91277,1,0,0:0:0:0:
192,192,91508,1,0,0:0:0:0:
64,192,91508,1,2,0:0:0:0:
448,192,91739,1,0,0:0:0:0:
64,192,91969,1,2,0:0:0:0:
192,192,91969,1,0,0:0:0:0:
320,192,92316,1,0,0:0:0:0:
64,192,92431,1,2,0:0:0:0:
448,192,92431,1,0,0:0:0:0:
192,192,92662,1,0,0:0:0:0:
64,192,92893,1,2,0:0:0:0:
448,192,92893,1,0,0:0:0:0:
320,192,93239,1,0,0:0:0:0:
64,192,93354,1,2,0:0:0:0:
448,192,93354,1,0,0:0:0:0:
192,192,93585,1,0,0:0:0:0:
320,192,93816,1,2,0:0:0:0:
448,192,93816,1,0,0:0:0:0:
64,192,94162,1,0,0:0:0:0:
320,192,94277,1,2,0:0:0:0:
448,192,94277,1,0,0:0:0:0:
192,192,94508,1,0,0:0:0:0:
64,192,94739,1,0,0:0:0:0:
448,192,94739,1,2,0:0:0:0:
448,192,95085,1,0,0:0:0:0:
192,192,95200,1,2,0:0:0:0:
64,192,95200,1,0,0:0:0:0:
320,192,95431,1,0,0:0:0:0:
64,192,95662,1,0,0:0:0:0:
448,192,95662,1,2,0:0:0:0:
192,192,95893,1,0,0:0:0:0:
64,192,96123,1,0,0:0:0:0:
448,192,96123,1,2,0:0:0:0:
192,192,96354,1,0,0:0:0:0:
320,192,96585,1,2,0:0:0:0:
448,192,96585,1,0,0:0:0:0:
64,192,96816,1,0,0:0:0:0:
320,192,97046,1,0,0:0:0:0:
448,192,97046,1,2,0:0:0:0:
64,192,97277,1,0,0:0:0:0:
448,192,97508,1,4,0:0:0:0:
64,192,97508,1,0,0:0:0:0:
192,192,97854,1,0,0:0:0:0:
64,192,97969,1,0,0:0:0:0:
320,192,97969,1,2,0:0:0:0:
448,192,98200,1,0,0:0:0:0:
64,192,98431,1,0,0:0:0:0:
192,192,98431,1,2,0:0:0:0:
320,192,98777,1,0,0:0:0:0:
192,192,98893,1,2,0:0:0:0:
448,192,98893,1,0,0:0:0:0:
64,192,99123,1,0,0:0:0:0:
320,192,99354,1,2,0:0:0:0:
448,192,99354,1,0,0:0:0:0:
192,192,99585,1,0,0:0:0:0:
320,192,99816,1,2,0:0:0:0:
448,192,99816,1,0,0:0:0:0:
64,192,100046,1,0,0:0:0:0:
192,192,100277,1,2,0:0:0:0:
448,192,100277,1,0,0:0:0:0:
320,192,100623,1,0,0:0:0:0:
192,192,100739,1,2,0:0:0:0:
448,192,100739,1,0,0:0:0:0:
64,192,100969,1,0,0:0:0:0:
320,192,101200,1,2,0:0:0:0:
448,192,101200,1,0,0:0:0:0:
192,192,101431,1,0,0:0:0:0:
64,192,101662,1,0,0:0:0:0:
448,192,101662,1,2,0:0:0:0:
320,192,101777,1,0,0:0:0:0:
320,192,102123,1,2,0:0:0:0:
64,192,102123,1,0,0:0:0:0:
448,192,102354,1,0,0:0:0:0:
192,192,102585,1,2,0:0:0:0:
64,192,102585,1,0,0:0:0:0:
320,192,102816,1,0,0:0:0:0:
192,192,103046,1,2,0:0:0:0:
448,192,103046,1,0,0:0:0:0:
64,192,103277,1,0,0:0:0:0:
320,192,103508,1,2,0:0:0:0:
448,192,103508,1,0,0:0:0:0:
192,192,103739,1,0,0:0:0:0:
64,192,103969,1,0,0:0:0:0:
448,192,103969,1,2,0:0:0:0:
320,192,104200,1,0,0:0:0:0:
192,192,104316,1,0,0:0:0:0:
64,192,104431,1,0,0:0:0:0:
448,192,104431,1,2,0:0:0:0:
320,192,104662,1,0,0:0:0:0:
64,192,104893,1,4,0:0:0:0:
448,192,104893,1,2,0:0:0:0:
320,192,105123,1,2,0:0:0:0:
192,192,105239,1,2,0:0:0:0:
448,192,105585,1,2,0:0:0:0:
64,192,105700,1,2,0:0:0:0:
192,192,105816,1,2,0:0:0:0:
320,192,106046,1,2,0:0:0:0:
64,192,106277,1,8,0:0:0:0:
448,192,106508,1,2,0:0:0:0:
192,192,106739,1,2,0:0:0:0:
448,192,106969,1,2,0:0:0:0:
320,192,107085,1,2,0:0:0:0:
64,192,107431,1,2,0:0:0:0:
192,192,107546,1,2,0:0:0:0:
320,192,107893,1,2,0:0:0:0:
192,192,108008,1,2,0:0:0:0:
320,192,108354,1,2,0:0:0:0:
192,192,108469,1,2,0:0:0:0:
64,192,108585,1,4,0:0:0:0:
320,192,108816,1,2,0:0:0:0:
448,192,108931,1,2,0:0:0:0:
192,192,109277,1,2,0:0:0:0:
320,192,109393,1,2,0:0:0:0:
192,192,109739,1,2,0:0:0:0:
64,192,109854,1,2,0:0:0:0:
192,192,110200,1,2,0:0:0:0:
320,192,110316,1,2,0:0:0:0:
448,192,110662,1,0,0:0:0:0:
192,192,110893,1,0,0:0:0:0:
320,192,111123,1,0,0:0:0:0:
64,192,111354,1,0,0:0:0:0:
192,192,111585,1,0,0:0:0:0:
320,192,111816,1,0,0:0:0:0:
192,192,112046,1,0,0:0:0:0:
64,192,112277,1,4,0:0:0:0:
448,192,112277,1,0,0:0:0:0:
