osu file format v14

[General]
AudioFilename: audio.mp3
AudioLeadIn: 0
PreviewTime: 58523
Countdown: 0
SampleSet: Soft
StackLeniency: 0.5
Mode: 0
LetterboxInBreaks: 0
WidescreenStoryboard: 1

[Editor]
Bookmarks: 20577,30082,39587,108418,146374,165384,182018,184394
DistanceSpacing: 1.1
BeatDivisor: 8
GridSize: 32
TimelineZoom: 3.199999

[Metadata]
Title:Labyrinth of Darkness
TitleUnicode:Labyrinth of Darkness
Artist:CELLON.
ArtistUnicode:CELLON.
Creator:Mir
Version:Normal
Source:
Tags:dark dnb drum and bass mun plaudible
BeatmapID:1662376
BeatmapSetID:778383

[Difficulty]
HPDrainRate:3
CircleSize:3
OverallDifficulty:4
ApproachRate:6
SliderMultiplier:0.8
SliderTickRate:1

[Events]
//Background and Video events
0,0,"ss.jpg",0,0
//Break Periods
//Storyboard Layer 0 (Background)
//Storyboard Layer 1 (Fail)
//Storyboard Layer 2 (Pass)
//Storyboard Layer 3 (Foreground)
//Storyboard Sound Samples

[TimingPoints]
1568,297.029702970297,4,2,1,60,1,0
19389,-100,4,2,1,40,0,0
20577,-100,4,2,1,40,0,0
38399,-100,4,2,1,40,0,0
39587,-100,4,2,1,50,0,0
40775,-100,4,2,1,50,0,0
44340,-100,4,2,1,50,0,0
45528,-100,4,2,1,50,0,0
47904,-100,4,2,1,50,0,0
49092,-100,4,2,1,60,0,0
53696,-100,4,2,1,60,0,0
53845,-100,4,2,1,60,0,0
58003,-100,4,2,1,30,0,0
58300,-100,4,2,1,100,0,0
58597,-100,4,2,1,80,0,1
75231,-100,4,2,1,90,0,0
77607,-100,4,2,1,80,0,1
96320,-100,4,2,1,40,0,0
96617,-100,4,2,1,80,0,0
96914,-100,4,2,1,80,0,1
102558,-100,4,2,1,80,0,0
102855,-100,4,2,1,80,0,1
108053,-100,4,2,1,80,0,0

[Colours]
Combo1 : 212,212,212
Combo2 : 106,106,106

[HitObjects]
49,90,20577,6,0,L|222:82,1,160,2|0,0:2|0:2,0:0:0:0:
296,78,21468,1,0,0:2:0:0:
378,109,21766,2,0,B|405:53|405:53|388:-5,2,120,2|0|0,0:2|0:2|0:2,0:0:0:0:
325,179,22954,5,2,0:2:0:0:
266,244,23251,2,0,L|250:336,1,80,0|0,0:2|0:2,0:0:0:0:
168,349,23845,1,0,0:2:0:0:
80,338,24142,2,0,L|51:176,1,160,0|0,0:2|0:2,0:0:0:0:
98,105,25033,1,2,0:2:0:0:
179,139,25330,6,0,L|345:126,1,160,2|0,0:2|0:2,0:0:0:0:
396,192,26221,1,0,0:2:0:0:
466,139,26518,2,0,B|506:187|506:187|503:256,2,120,0|0|0,0:2|0:2|0:2,0:0:0:0:
500,58,27706,6,0,B|407:31|432:90|331:49,1,160,2|0,0:2|0:2,0:0:0:0:
268,9,28597,1,0,0:2:0:0:
190,51,28894,2,0,L|177:129,1,80,2|0,0:2|0:2,0:0:0:0:
158,215,29488,1,2,0:2:0:0:
313,297,30082,6,0,B|255:309|255:309|215:299|215:299|156:309,1,160,2|0,3:2|0:2,0:0:0:0:
76,274,30973,1,8,0:2:0:0:
65,186,31270,2,0,L|73:88,1,80,0|8,3:2|0:2,0:0:0:0:
156,81,31865,2,0,L|162:160,1,80,0|8,0:2|0:1,0:0:0:0:
245,188,32459,6,0,P|335:202|388:153,1,160,2|8,3:2|0:1,0:0:0:0:
434,89,33350,1,8,0:2:0:0:
359,41,33647,2,0,P|269:27|216:76,1,160,0|0,3:2|0:2,0:0:0:0:
171,141,34538,1,8,0:1:0:0:
94,98,34835,6,0,B|81:138|81:138|111:265,1,160,2|8,3:2|0:1,0:0:0:0:
130,337,35726,1,8,0:2:0:0:
201,285,36023,2,0,P|266:263|293:262,1,80,0|8,3:2|0:2,0:0:0:0:
398,313,36766,2,0,L|412:220,1,80,8|8,0:2|0:1,0:0:0:0:
423,192,37211,6,0,B|371:181|371:181|320:187|320:187|260:170,1,160,2|8,3:2|0:1,0:0:0:0:
228,92,38102,1,8,0:2:0:0:
140,88,38399,2,0,P|126:133|128:179,1,80,2|8,3:2|0:2,0:0:0:0:
208,268,39142,2,0,P|206:307|193:345,1,80,8|8,0:2|0:1,0:0:0:0:
149,345,39587,6,0,L|58:342,1,80,0|0,3:2|0:2,0:0:0:0:
39,309,40033,1,0,3:2:0:0:
35,177,40478,2,0,L|34:82,1,80,0|0,0:2|3:0,0:0:0:0:
63,64,40924,2,0,B|101:55|101:55|148:56,2,80,0|0|8,0:2|0:2|0:2,0:0:0:0:
138,172,41964,6,0,L|236:164,1,80,0|8,3:2|0:2,0:0:0:0:
305,159,42558,2,0,L|403:151,1,80,8|8,0:1|0:2,0:0:0:0:
472,143,43152,2,0,P|492:192|484:268,1,120,0|0,3:2|3:2,0:0:0:0:
392,349,44043,1,8,0:1:0:0:
323,293,44340,6,0,L|238:285,1,80,0|8,3:2|0:2,0:0:0:0:
214,318,44785,2,0,L|134:325,1,80,0|0,3:2|0:2,0:0:0:0:
100,297,45231,1,8,0:2:0:0:
63,217,45528,2,0,B|58:172|58:172|74:127,2,80,0|8|0,3:2|0:0|0:2,0:0:0:0:
100,297,46419,1,8,2:1:0:0:
159,232,46716,6,0,P|194:223|250:222,1,80,0|0,3:2|0:2,0:0:0:0:
280,144,47310,2,0,P|319:145|358:155,1,80,8|8,0:1|0:2,0:0:0:0:
426,210,47904,2,0,B|456:264|456:264|442:339,2,120,0|0|8,3:2|3:2|3:1,0:0:0:0:
358,155,49092,6,0,L|226:144,1,120,0|0,3:2|0:2,0:0:0:0:
172,85,49835,2,0,P|156:108|150:137,1,40,0|8,0:2|3:2,0:0:0:0:
175,204,50280,1,0,3:2:0:0:
143,286,50577,2,0,L|49:284,2,80,8|0|8,3:2|3:2|3:1,0:0:0:0:
200,352,51468,6,0,P|247:357|295:343,1,80,0|8,3:2|3:2,0:0:0:0:
303,265,52063,2,0,P|350:260|398:274,1,80,0|8,3:2|3:2,0:0:0:0:
457,322,52657,1,0,3:2:0:0:
457,322,52805,6,0,B|466:275|478:252|478:252|472:209|441:184|441:184|453:144|443:91,1,240,0|0,0:2|0:2,0:0:0:0:
407,72,53845,6,0,L|234:56,1,160,0|0,3:2|3:2,0:0:0:0:
160,47,54736,1,8,3:1:0:0:
91,102,55033,2,0,P|66:165|66:195,1,80,0|0,3:2|3:2,0:0:0:0:
6,242,55627,2,0,P|13:281|31:316,1,80,0|0,3:2|3:2,0:0:0:0:
256,192,56221,12,0,57409,3:2:0:0:
403,220,58300,5,0,3:2:0:0:
383,134,58597,2,0,L|293:123,1,80,0|8,3:2|0:2,0:0:0:0:
268,151,59043,2,0,P|211:157|161:106,1,120,0|8,3:2|0:2,0:0:0:0:
163,74,59637,1,0,3:2:0:0:
229,16,59934,2,0,L|270:10,2,40,2|10|2,0:2|0:2|3:2,0:0:0:0:
163,74,60528,2,0,L|122:68,2,40,2|10|2,0:2|0:2|0:2,0:0:0:0:
187,110,60973,6,0,P|201:171|190:237,1,120,0|0,3:2|3:2,0:0:0:0:
159,256,61568,2,0,L|73:255,1,80,8|10,0:1|0:2,0:0:0:0:
54,339,62162,2,0,L|174:340,1,120,0|0,3:2|3:2,0:0:0:0:
218,342,62756,2,0,L|297:342,1,80,2|8,0:2|0:1,0:0:0:0:
381,315,63350,6,0,B|396:276|396:276|379:226,1,80,0|8,3:2|0:2,0:0:0:0:
370,198,63795,2,0,B|351:147|351:147|279:117,1,120,0|8,3:2|0:2,0:0:0:0:
249,106,64389,1,0,3:2:0:0:
160,203,64835,2,0,L|104:213,1,40,10|2,0:2|3:2,0:0:0:0:
40,174,65280,2,0,L|0:166,2,40,2|8|2,0:2|0:2|0:2,0:0:0:0:
61,135,65726,6,0,B|75:75|75:75|107:60,1,80,0|8,3:2|0:2,0:0:0:0:
132,50,66171,2,0,L|212:17,1,80,0|0,3:2|0:2,0:0:0:0:
247,34,66617,1,8,0:2:0:0:
333,18,66914,6,0,L|406:48,1,80,0|8,3:2|0:2,0:0:0:0:
447,66,67359,2,0,B|463:73|463:73|477:133,1,80,0|0,3:2|3:0,0:0:0:0:
481,177,67805,1,8,0:2:0:0:
460,262,68102,6,0,L|366:271,1,80,0|8,3:2|0:2,0:0:0:0:
354,305,68548,2,0,P|301:353|252:345,1,120,0|8,3:2|0:2,0:0:0:0:
234,309,69142,1,0,3:2:0:0:
252,222,69439,2,0,L|309:212,2,40,2|10|2,0:2|0:2|3:2,0:0:0:0:
183,166,70033,2,0,L|126:156,2,40,2|10|2,0:2|0:2|0:2,0:0:0:0:
210,131,70478,6,0,L|231:2,1,120,0|0,3:2|3:2,0:0:0:0:
272,23,71072,2,0,P|326:31|362:26,1,80,8|8,0:1|0:2,0:0:0:0:
391,10,71518,1,2,3:2:0:0:
469,49,71815,2,0,L|462:96,1,40,2|8,0:2|0:2,0:0:0:0:
381,123,72261,2,0,B|376:166|376:166|396:207,1,80,2|8,0:2|0:1,0:0:0:0:
457,258,72855,6,0,P|393:285|371:281,1,80,0|8,3:2|0:2,0:0:0:0:
310,237,73449,2,0,P|270:241|237:263,1,80,8|8,0:1|0:2,0:0:0:0:
227,305,73894,1,0,3:2:0:0:
417,76,74785,5,0,3:2:0:0:
417,76,74934,1,10,0:2:0:0:
330,66,75231,6,0,L|200:54,2,120,2|2|8,3:2|0:2|0:1,0:0:0:0:
375,141,76419,2,0,L|505:129,2,120,2|8|8,3:2|0:1|2:2,0:0:0:0:
288,148,77607,6,0,L|271:232,1,80,0|8,3:2|0:2,0:0:0:0:
191,258,78201,2,0,L|208:342,1,80,8|8,0:1|0:2,0:0:0:0:
242,363,78647,1,2,0:2:0:0:
298,294,78944,2,0,L|291:247,2,40,2|10|2,0:2|0:2|0:2,0:0:0:0:
371,343,79538,2,0,L|366:382,2,40,2|10|2,3:2|0:2|0:2,0:0:0:0:
409,321,79983,6,0,B|418:240,1,80,0|8,3:2|0:2,0:0:0:0:
428,154,80577,2,0,B|437:73,1,80,8|8,0:1|0:2,0:0:0:0:
313,29,81320,2,0,L|256:31,1,40,2|8,0:2|0:2,0:0:0:0:
185,33,81766,2,0,L|106:36,1,80,2|8,0:2|0:0,0:0:0:0:
24,68,82360,6,0,B|3:122|3:122|31:231,1,160,0|8,3:2|0:1,0:0:0:0:
46,307,83251,1,8,0:2:0:0:
46,307,83399,2,0,L|137:298,1,80,2|2,0:2|0:2,0:0:0:0:
162,324,83845,1,10,0:2:0:0:
231,266,84142,1,2,0:2:0:0:
310,304,84439,1,10,0:2:0:0:
362,232,84736,6,0,B|452:213|452:213|496:227,2,120,2|2|8,3:2|0:2|0:2,0:0:0:0:
313,159,85924,2,0,B|223:140|223:140|179:154,2,120,2|2|8,3:2|0:2|0:2,0:0:0:0:
374,95,87112,6,0,L|366:7,1,80,0|8,3:2|0:2,0:0:0:0:
324,22,87558,2,0,P|275:43|196:35,1,120,0|8,0:2|0:2,0:0:0:0:
170,20,88152,1,2,0:2:0:0:
108,82,88449,2,0,L|57:72,2,40,2|10|2,0:2|0:2|0:2,0:0:0:0:
166,148,89043,2,0,L|217:138,2,40,2|10|2,3:2|0:2|0:2,0:0:0:0:
134,177,89488,6,0,B|119:217|119:217|129:267,1,80,0|8,3:2|0:2,0:0:0:0:
151,338,90082,2,0,L|239:328,1,80,8|8,0:1|0:2,0:0:0:0:
319,321,90676,1,0,3:2:0:0:
319,321,90825,2,0,L|407:311,1,80,2|0,0:2|0:2,0:0:0:0:
420,273,91270,2,0,B|431:233|431:233|414:182,1,80,2|8,0:2|0:2,0:0:0:0:
388,113,91865,6,0,L|292:107,1,80,0|8,3:2|0:2,0:0:0:0:
245,46,92459,2,0,L|166:50,1,80,8|8,0:1|0:2,0:0:0:0:
122,57,92904,1,2,0:2:0:0:
129,144,93201,1,2,0:2:0:0:
136,231,93498,1,2,0:2:0:0:
145,318,93795,2,0,L|151:364,2,40,2|10|2,3:2|0:2|0:2,0:0:0:0:
188,304,94241,6,0,B|221:292|221:292|271:298,1,80,0|8,3:2|0:2,0:0:0:0:
353,312,94835,1,8,0:1:0:0:
440,326,95132,1,8,0:2:0:0:
500,260,95429,2,0,B|512:223|512:223|504:182,1,80,0|8,3:2|0:2,0:0:0:0:
438,68,96171,1,0,3:0:0:0:
438,68,96320,2,0,L|349:78,1,80,10|0,0:2|3:2,0:0:0:0:
273,55,96914,6,0,B|210:53|210:53|171:65|171:65|97:60,1,160,10|8,0:2|0:2,0:0:0:0:
43,112,97805,2,0,B|14:163|14:163|34:227,2,120,0|0|8,3:2|3:2|0:2,0:0:0:0:
114,61,98993,1,0,0:0:0:0:
184,113,99290,1,10,0:2:0:0:
184,113,99439,2,0,L|236:122,1,40,2|0,0:2|3:2,0:0:0:0:
293,66,99884,6,0,B|350:74|350:74|396:64|396:64|466:74,1,160,10|8,0:2|0:2,0:0:0:0:
460,159,100775,2,0,B|486:217|486:217|464:289,1,120,0|0,3:2|3:2,0:0:0:0:
406,332,101518,1,0,3:2:0:0:
406,332,101667,2,0,L|308:334,1,80,10|0,0:2|3:2,0:0:0:0:
283,331,102112,2,0,B|272:300|272:300|294:208,1,120,10|2,0:2|0:2,0:0:0:0:
331,136,102855,6,0,L|166:126,1,160,8|8,0:2|0:2,0:0:0:0:
102,181,103746,2,0,B|62:130|62:130|61:86|77:64,2,120,0|0|8,3:2|3:2|0:2,0:0:0:0:
130,214,104785,1,0,3:2:0:0:
211,248,105082,2,0,L|261:243,2,40,0|10|2,3:2|0:2|0:2,0:0:0:0:
171,126,105825,6,0,L|332:112,1,160,8|8,0:2|0:2,0:0:0:0:
392,50,106716,2,0,P|420:101|399:171,1,120,0|0,3:2|3:2,0:0:0:0:
376,241,107459,1,0,3:2:0:0:
376,241,107607,2,0,P|367:295|369:333,1,80,10|0,0:2|3:2,0:0:0:0:
403,345,108053,2,0,P|321:332|270:336,1,120,8|0,0:2|3:2,0:0:0:0:
