osu file format v14

[General]
AudioFilename: audio.mp3
AudioLeadIn: 0
PreviewTime: 58523
Countdown: 0
SampleSet: Soft
StackLeniency: 0.7
Mode: 0
LetterboxInBreaks: 0
WidescreenStoryboard: 0

[Editor]
Bookmarks: 20577,30082,39587,108418,146374,165384,182018,184394
DistanceSpacing: 1.1
BeatDivisor: 8
GridSize: 32
TimelineZoom: 3.199999

[Metadata]
Title:Labyrinth of Darkness
TitleUnicode:Labyrinth of Darkness
Artist:CELLON.
ArtistUnicode:CELLON.
Creator:Mir
Version:Expert
Source:
Tags:dark dnb drum and bass mun plaudible
BeatmapID:1634887
BeatmapSetID:778383

[Difficulty]
HPDrainRate:5
CircleSize:4
OverallDifficulty:9
ApproachRate:9.4
SliderMultiplier:1.4
SliderTickRate:1

[Events]
//Background and Video events
0,0,"ss.jpg",0,0
//Break Periods
//Storyboard Layer 0 (Background)
//Storyboard Layer 1 (Fail)
//Storyboard Layer 2 (Pass)
//Storyboard Layer 3 (Foreground)
//Storyboard Sound Samples

[TimingPoints]
1568,297.029702970297,4,2,1,60,1,0
19389,-500,4,2,1,40,0,0
20577,-100,4,2,1,40,0,0
39587,-50,4,2,1,50,0,0
40478,-133.333333333333,4,2,1,50,0,0
41964,-100,4,2,1,50,0,0
44340,-50,4,2,1,50,0,0
45528,-133.333333333333,4,2,1,50,0,0
46419,-100,4,2,1,50,0,0
47904,-66.6666666666667,4,2,1,50,0,0
49092,-50,4,2,1,60,0,0
50280,-100,4,2,1,60,0,0
51766,-76.9230769230769,4,2,1,60,0,0
52063,-62.5,4,2,1,60,0,0
52285,-50,4,2,1,60,0,0
52508,-43.4782608695652,4,2,1,60,0,0
52805,-25,4,2,1,60,0,0
52824,-25,4,2,1,30,0,0
53845,-500,4,2,1,60,0,0
54142,-200,4,2,1,60,0,0
54439,-142.857142857143,4,2,1,60,0,0
54736,-117.647058823529,4,2,1,60,0,0
55033,-100,4,2,1,60,0,0
55330,-76.9230769230769,4,2,1,60,0,0
55627,-66.6666666666667,4,2,1,60,0,0
57112,-40,4,2,1,60,0,0
58003,-76.9230769230769,4,2,1,30,0,0
58300,-76.9230769230769,4,2,1,100,0,0
58597,-50,4,2,1,80,0,1
58820,-66.6666666666667,4,2,1,80,0,1
59637,-500,4,2,1,80,0,1
59785,-66.6666666666667,4,2,1,80,0,1
61865,-200,4,2,1,80,0,1
62162,-66.6666666666667,4,2,1,80,0,1
64241,-28.5714285714286,4,2,1,80,0,1
64389,-500,4,2,1,80,0,1
64538,-66.6666666666667,4,2,1,80,0,1
69142,-500,4,2,1,80,0,1
69290,-66.6666666666667,4,2,1,80,0,1
72855,-133.333333333333,4,2,1,80,0,1
73746,-50,4,2,1,80,0,1
73894,-1000,4,2,1,80,0,1
74934,-142.857142857143,4,2,1,80,0,1
75231,-66.6666666666667,4,2,1,90,0,0
77607,-66.6666666666667,4,2,1,80,0,1
78498,-33.3333333333333,4,2,1,80,0,1
78647,-500,4,2,1,80,0,1
78795,-66.6666666666667,4,2,1,80,0,1
80874,-200,4,2,1,80,0,1
81171,-66.6666666666667,4,2,1,80,0,1
83251,-33.3333333333333,4,2,1,80,0,1
83399,-500,4,2,1,80,0,1
83548,-66.6666666666667,4,2,1,80,0,1
88003,-33.3333333333333,4,2,1,80,0,1
88151,-500,4,2,1,80,0,1
88300,-66.6666666666667,4,2,1,80,0,1
90379,-200,4,2,1,80,0,1
90825,-66.6666666666667,4,2,1,80,0,1
92756,-33.3333333333333,4,2,1,80,0,1
92904,-500,4,2,1,80,0,1
93053,-66.6666666666667,4,2,1,80,0,1
96320,-100,4,2,1,40,0,0
96617,-50,4,2,1,80,0,0
96914,-33.3333333333333,4,2,1,80,0,1
97360,-66.6666666666667,4,2,1,80,0,1
99290,-33.3333333333333,4,2,1,80,0,1
99438,-500,4,2,1,80,0,1
99884,-33.3333333333333,4,2,1,80,0,1
100330,-66.6666666666667,4,2,1,80,0,1
102112,-133.333333333333,4,2,1,80,0,1
102558,-133.333333333333,4,2,1,80,0,0
102855,-33.3333333333333,4,2,1,80,0,1
103300,-66.6666666666667,4,2,1,80,0,1
105231,-33.3333333333333,4,2,1,80,0,1
105379,-500,4,2,1,80,0,1
105825,-33.3333333333333,4,2,1,80,0,1
106270,-66.6666666666667,4,2,1,80,0,1
108053,-200,4,2,1,80,0,0

[Colours]
Combo1 : 220,220,220
Combo2 : 130,130,130

[HitObjects]
82,132,19389,6,0,L|81:147,3,14,0|0|0|0,0:2|0:2|0:2|0:2,0:2:0:0:
164,180,19983,2,0,L|165:195,3,14,0|0|0|0,0:2|0:2|0:2|0:2,0:2:0:0:
232,117,20577,6,0,P|292:101|372:153,1,140,2|0,0:2|0:2,0:2:0:0:
407,222,21023,1,0,0:2:0:0:
407,222,21171,2,0,L|393:302,1,70,0|0,0:2|0:2,0:2:0:0:
475,314,21468,2,0,L|489:394,1,70,0|0,0:2|0:2,0:2:0:0:
306,321,21766,6,0,B|256:318|256:318|228:336|228:336|142:331,1,140,2|0,0:2|0:2,0:2:0:0:
83,329,22211,1,0,0:2:0:0:
83,329,22360,2,0,P|79:274|95:249,1,70,0|0,0:2|0:2,0:2:0:0:
171,175,22657,2,0,P|180:208|172:241,1,70,0|0,0:2|0:2,0:2:0:0:
94,117,22954,5,2,0:2:0:0:
94,117,23251,1,0,0:2:0:0:
183,77,23399,1,0,0:2:0:0:
279,119,23548,2,0,P|343:120|363:116,1,70,0|0,0:2|0:2,0:2:0:0:
488,48,23845,2,0,P|424:47|404:51,1,70,0|0,0:2|0:2,0:2:0:0:
444,138,24142,6,0,B|453:193|453:193|426:290,1,140,2|0,0:2|0:2,0:2:0:0:
397,360,24587,1,0,0:2:0:0:
397,360,24736,1,0,0:2:0:0:
176,297,24884,1,2,0:2:0:0:
281,299,25033,1,2,0:2:0:0:
226,384,25181,1,2,0:2:0:0:
230,216,25330,6,0,B|227:160|227:160|238:135|238:135|233:63,1,140,2|0,0:2|0:2,0:2:0:0:
169,19,25775,1,0,0:2:0:0:
169,19,25924,2,0,P|117:20|86:25,1,70,0|0,0:2|0:2,0:2:0:0:
234,78,26221,2,0,P|286:77|317:72,1,70,0|0,0:2|0:2,0:2:0:0:
411,31,26518,6,0,B|405:85|405:85|434:189,1,140,2|0,0:2|0:2,0:2:0:0:
483,240,26964,2,0,B|489:294|489:294|460:398,1,140,2|0,0:2|0:2,0:2:0:0:
383,334,27409,2,0,P|324:341|297:348,1,70,2|0,0:2|0:2,0:2:0:0:
131,248,27706,6,0,P|212:249|226:311,1,140,2|0,0:2|0:2,0:2:0:0:
146,343,28152,1,0,0:2:0:0:
57,309,28300,2,0,P|11:313|-25:320,1,70,0|0,0:2|0:2,0:2:0:0:
131,248,28597,2,0,P|177:252|213:259,1,70,0|0,0:2|0:2,0:2:0:0:
44,220,28894,6,0,L|59:81,1,140,2|0,0:2|0:2,0:2:0:0:
16,6,29340,1,0,0:2:0:0:
117,2,29488,2,0,P|170:5|281:50,1,140,2|0,0:2|0:2,0:2:0:0:
252,32,29934,1,0,0:2:0:0:
356,173,30082,6,0,L|199:157,1,140,2|8,3:2|0:2,0:2:0:0:
148,104,30528,1,0,0:2:0:0:
148,104,30676,2,0,P|150:42|162:24,1,70,0|0,0:2|0:2,0:2:0:0:
216,158,30973,2,0,P|226:191|220:225,1,70,8|0,0:2|3:2,0:2:0:0:
28,254,31270,6,0,P|98:238|140:309,1,140,0|8,3:2|0:2,0:2:0:0:
154,372,31716,1,0,3:2:0:0:
154,372,31865,2,0,L|229:368,1,70,0|0,0:2|0:2,0:2:0:0:
316,364,32162,2,8,L|372:359,3,35,8|8|8|8,0:1|0:1|0:1|0:1,0:1:0:0:
305,343,32459,6,0,B|299:289|299:289|311:257|311:257|298:176,1,140,2|8,3:2|0:2,0:2:0:0:
285,119,32904,1,0,0:2:0:0:
285,119,33053,2,8,B|345:112,3,35,8|8|8|8,0:1|0:1|0:1|0:1,0:1:0:0:
211,174,33350,2,0,B|176:183|176:183|143:174,1,70,8|0,0:2|3:2,0:2:0:0:
33,100,33647,6,0,L|52:243,1,140,0|0,3:2|0:2,0:2:0:0:
66,327,34092,1,0,3:2:0:0:
66,327,34241,1,0,0:2:0:0:
275,303,34389,1,10,0:2:0:0:
143,174,34538,2,0,L|153:235,1,35,8|8,0:1|0:2,0:2:0:0:
165,290,34686,2,0,L|175:351,1,35,8|8,0:1|0:2,0:2:0:0:
275,303,34835,6,0,B|317:314|350:289|350:289|388:289|423:321,1,140,2|8,3:2|0:2,0:2:0:0:
426,223,35280,1,0,3:2:0:0:
491,282,35429,2,8,L|495:338,1,35,8|8,0:1|0:1,0:1:0:0:
426,223,35577,2,8,L|423:188,1,35,8|8,0:1|0:1,0:1:0:0:
464,106,35726,2,0,P|433:94|384:107,1,70,8|0,0:2|3:2,0:2:0:0:
310,170,36023,6,0,L|295:9,1,140,2|8,3:2|0:2,0:2:0:0:
397,99,36468,1,0,3:2:0:0:
95,70,36766,1,8,0:2:0:0:
166,134,36914,2,8,L|171:179,1,35,8|8,0:1|0:1,0:1:0:0:
180,246,37063,2,8,L|185:291,1,35,8|8,0:1|0:1,0:1:0:0:
199,370,37211,6,0,L|357:358,1,140,2|8,3:2|0:2,0:2:0:0:
388,278,37657,1,8,0:1:0:0:
388,278,37731,1,8,0:1:0:0:
388,278,37805,2,8,L|378:231,2,35,8|8|8,0:1|0:1|3:1,0:1:0:0:
512,177,38102,6,0,P|476:178|427:160,1,70,8|0,0:2|0:2,0:2:0:0:
420,141,38325,1,8,0:1:0:0:
406,108,38399,5,2,3:2:0:0:
320,177,38548,1,0,3:2:0:0:
324,30,38696,1,8,0:2:0:0:
188,248,38845,1,8,0:1:0:0:
154,256,38919,1,8,0:1:0:0:
119,249,38993,1,8,0:1:0:0:
91,226,39068,1,8,0:1:0:0:
70,194,39142,2,0,L|79:116,1,70,8|0,0:2|0:2,0:2:0:0:
109,47,39364,1,8,0:1:0:0:
114,81,39438,1,8,0:1:0:0:
120,116,39512,1,8,0:1:0:0:
125,150,39587,6,0,B|69:193|69:193|130:193|130:193|194:157|194:157|297:158,1,280,2|0,3:2|0:2,0:2:0:0:
384,168,39959,1,0,0:2:0:0:
384,168,40033,2,0,B|428:195|457:263|413:313|413:313|369:250,1,210,2|0,3:2|0:2,0:2:0:0:
313,233,40330,2,0,P|304:268|312:314,1,70,0|0,0:2|0:2,0:2:0:0:
384,168,40478,6,0,L|407:26,1,131.25000500679,2|0,0:2|0:2,0:2:0:0:
338,58,40924,2,0,L|421:52,1,78.7500030040742,0|0,0:2|0:2,0:2:0:0:
288,68,41221,2,0,L|366:73,1,78.7500030040742,0|0,0:2|0:2,0:2:0:0:
253,90,41518,1,0,0:2:0:0:
253,90,41667,2,8,L|242:49,3,26.2500010013581,8|8|8|8,0:1|0:1|0:1|0:1,0:1:0:0:
196,166,41964,6,0,P|121:167|65:121,1,140,0|8,3:2|0:2,0:2:0:0:
43,48,42409,1,0,3:2:0:0:
160,52,42558,2,8,L|148:97,3,35,8|8|8|8,0:1|0:1|0:1|0:1,0:1:0:0:
246,64,42855,2,0,B|278:75|278:75|343:62,1,70,8|0,0:2|3:2,0:2:0:0:
484,54,43152,6,0,L|391:38,1,70,0|0,3:2|0:2,0:2:0:0:
494,150,43449,1,8,0:2:0:0:
494,150,43597,2,0,L|401:134,1,70,0|0,3:2|0:2,0:2:0:0:
509,248,43894,1,8,0:2:0:0:
280,336,44043,5,8,0:1:0:0:
284,301,44117,1,8,0:1:0:0:
288,266,44191,1,8,0:1:0:0:
292,231,44265,1,8,0:1:0:0:
293,196,44340,6,0,B|233:196|212:159|212:159|137:140|83:192|83:192|107:178|156:174,1,280,2|8,3:2|0:2,0:2:0:0:
286,110,44785,2,0,P|293:35|204:91,1,210,2|0,3:2|0:2,0:2:0:0:
199,65,45082,2,0,L|275:60,1,70,0|0,0:2|0:2,0:2:0:0:
454,44,45231,1,10,0:2:0:0:
454,44,45379,1,0,3:2:0:0:
361,159,45528,6,0,P|384:145|408:134,1,52.5000020027161,0|0,3:2|0:2,0:2:0:0:
437,187,45751,2,0,P|461:197|483:211,1,52.5000020027161,0|0,0:2|0:2,0:2:0:0:
451,260,45973,2,0,P|460:284|466:310,1,52.5000020027161,0|0,3:2|0:2,0:2:0:0:
427,329,46270,1,8,0:2:0:0:
428,329,46419,2,8,P|422:345|415:361,3,35,8|8|8|8,2:1|2:1|2:1|2:1,2:1:0:0:
345,269,46716,6,0,P|269:297|204:258,1,140,0|0,3:2|0:2,0:2:0:0:
137,312,47162,1,8,0:1:0:0:
137,312,47236,1,8,0:1:0:0:
137,312,47310,2,8,L|143:365,2,35,8|8|8,0:1|0:1|3:1,0:1:0:0:
150,210,47607,2,0,L|143:130,1,70,8|0,0:2|0:2,0:2:0:0:
189,33,47830,1,8,0:1:0:0:
189,33,47904,6,0,B|260:-15|341:23|341:23|275:62,1,210.000008010865,0|8,3:2|0:2,0:2:0:0:
309,152,48350,2,0,L|298:48,1,105.000004005432,0|8,3:2|0:1,0:2:0:0:
282,76,48572,1,8,0:1:0:0:
273,100,48647,1,8,0:1:0:0:
283,238,48795,2,8,P|357:229|375:218,3,52.5000020027161,8|8|8|8,3:1|0:1|0:1|0:1,0:1:0:0:
106,173,49092,6,0,B|51:151|51:151|85:303|85:303|136:231,1,280,2|8,3:2|3:2,0:2:0:0:
292,83,49538,2,0,B|256:63|256:63|153:71,1,140,2|0,0:2|3:2,0:2:0:0:
173,85,49761,1,0,0:2:0:0:
190,102,49835,1,2,0:2:0:0:
367,144,49983,2,0,P|387:62|350:12,1,140,10|0,3:2|0:2,0:2:0:0:
252,210,50280,5,0,3:2:0:0:
317,273,50429,1,0,0:2:0:0:
238,202,50577,1,8,3:2:0:0:
231,304,50726,1,0,0:2:0:0:
224,194,50874,1,0,3:2:0:0:
345,178,51023,1,8,0:2:0:0:
58,307,51171,5,8,3:1:0:0:
60,272,51245,1,8,0:1:0:0:
63,237,51319,1,8,0:1:0:0:
65,202,51393,1,8,0:1:0:0:
68,167,51468,6,0,P|133:135|172:152,1,105,0|0,3:2|0:2,0:2:0:0:
225,193,51766,2,0,L|370:173,1,136.499993751526,8|0,3:2|0:2,0:2:0:0:
460,165,52063,1,0,3:2:0:0:
460,165,52137,2,0,B|477:189|477:189|481:266,1,56,0|0,0:2|0:2,0:2:0:0:
421,309,52285,1,0,0:2:0:0:
421,309,52359,2,0,B|404:285|404:285|400:208,1,70,8|0,3:2|0:2,0:2:0:0:
360,174,52508,2,0,B|362:132|362:132|386:101,1,80.5000015354157,0|0,0:2|0:2,0:2:0:0:
312,244,52657,5,0,3:2:0:0:
151,167,52805,6,0,L|159:123,52,35,0|0|0|0|0|0|0|0|0|0|0|0|0|0|0|0|0|0|0|0|0|0|0|0|0|0|0|0|0|0|0|0|0|0|0|0|0|0|0|0|0|0|0|0|0|0|0|0|0|0|0|0|0,0:2|0:2|0:2|0:2|0:2|0:2|0:2|0:2|0:2|0:2|0:2|0:2|0:2|0:2|0:2|0:2|0:2|0:2|0:2|0:2|0:2|0:2|0:2|0:2|0:2|0:2|0:2|0:2|0:2|0:2|0:2|0:2|0:2|0:2|0:2|0:2|0:2|0:2|0:2|0:2|0:2|0:2|0:2|0:2|0:2|0:2|0:2|0:2|0:2|0:2|0:2|0:2|0:2,0:2:0:0:
73,266,53845,6,0,L|71:285,1,14,0|0,3:2|0:2,0:2:0:0:
241,239,54142,2,0,L|245:278,1,35,0|0,3:0|0:2,0:2:0:0:
170,168,54439,2,0,L|114:159,1,48.9999985046387,0|0,3:0|0:2,0:2:0:0:
129,362,54736,2,0,L|191:351,1,59.5000011348725,0|0,3:0|0:2,0:2:0:0:
389,195,55033,6,0,P|422:201|480:191,1,70,0|0,3:2|0:2,0:2:0:0:
344,275,55330,2,0,P|366:319|414:353,1,90.9999958343508,0|0,3:2|0:2,0:2:0:0:
123,195,55627,2,0,P|90:201|22:184,1,105.000004005432,0|0,3:2|0:2,0:2:0:0:
168,275,55924,2,0,P|145:319|95:354,1,105.000004005432,0|0,3:2|0:2,0:2:0:0:
256,128,56221,5,0,3:2:0:0:
160,32,56369,1,0,3:2:0:0:
256,224,56518,1,0,3:2:0:0:
352,32,56667,1,0,3:2:0:0:
168,275,56815,5,0,3:2:0:0:
208,308,56889,1,0,3:2:0:0:
258,319,56963,1,0,3:2:0:0:
309,305,57037,1,0,3:2:0:0:
347,270,57112,5,0,3:2:0:0:
261,256,57186,1,0,3:2:0:0:
174,242,57260,1,0,3:2:0:0:
88,227,57334,1,0,3:2:0:0:
88,227,58003,5,0,0:2:0:0:
91,237,58152,1,0,0:2:0:0:
497,363,58300,5,0,3:2:0:0:
490,343,58597,6,0,B|416:331|416:331|369:357|369:357|271:346,1,210,0|0,3:2|0:2,0:2:0:0:
203,365,58894,2,0,P|202:330|225:288,1,52.5000020027161,8|0,0:2|0:2,0:2:0:0:
345,262,59043,1,0,3:2:0:0:
168,240,59191,1,8,0:1:0:0:
157,236,59266,1,8,0:1:0:0:
147,232,59340,1,8,0:1:0:0:
137,228,59414,1,8,0:1:0:0:
126,225,59488,6,0,L|133:281,1,52.5000020027161,8|0,0:2|0:2,0:2:0:0:
443,197,59637,6,0,L|446:178,1,14,0|0,3:2|0:2,0:2:0:0:
463,108,59934,5,2,0:2:0:0:
288,119,60082,1,10,0:2:0:0:
113,130,60231,2,0,B|46:138|46:138|17:188,1,105.000004005432,2|0,3:2|0:2,0:2:0:0:
374,69,60528,6,0,L|385:3,1,52.5000020027161,2|0,0:2|0:2,0:2:0:0:
202,112,60676,2,0,L|191:46,1,52.5000020027161,10|0,0:2|0:2,0:2:0:0:
351,241,60825,2,0,L|362:175,1,52.5000020027161,2|0,0:2|0:2,0:2:0:0:
90,311,60973,5,0,3:2:0:0:
380,344,61122,2,0,B|338:331|338:331|249:353,1,105.000004005432,2|8,0:2|0:2,0:2:0:0:
150,375,61419,1,0,3:2:0:0:
105,169,61568,1,8,0:1:0:0:
151,145,61642,1,8,0:1:0:0:
202,152,61716,1,8,0:1:0:0:
239,188,61790,1,8,0:1:0:0:
249,239,61865,6,0,L|176:231,1,70,10|0,0:2|3:2,0:2:0:0:
375,58,62310,6,0,L|358:161,1,105.000004005432,2|8,0:2|0:2,0:2:0:0:
319,335,62607,1,0,3:2:0:0:
512,283,62756,2,0,L|408:266,1,105.000004005432,2|8,0:2|0:2,0:2:0:0:
139,311,63053,5,8,0:1:0:0:
109,268,63127,1,8,0:1:0:0:
104,216,63201,1,8,0:1:0:0:
126,169,63275,1,8,0:1:0:0:
167,144,63350,6,0,B|256:121|234:192|365:142,1,157.500006008148,0|0,3:2|0:2,0:2:0:0:
385,102,63647,2,0,P|408:154|409:170,1,52.5000020027161,8|0,0:2|0:2,0:2:0:0:
195,222,63795,1,0,3:2:0:0:
123,72,63944,2,8,L|130:11,1,52.5000020027161,8|8,2:1|2:1,2:1:0:0:
280,17,64092,2,8,L|285:69,1,52.5000020027161,8|8,2:1|2:1,2:1:0:0:
10,172,64241,6,0,P|112:161|166:214,1,122.500001168251,8|0,0:2|0:2,0:2:0:0:
195,222,64389,6,0,L|191:235,1,14,0|0,3:2|0:2,0:2:0:0:
168,326,64686,5,2,0:2:0:0:
101,258,64835,1,10,0:2:0:0:
266,299,64983,1,2,3:2:0:0:
125,168,65132,1,2,0:2:0:0:
79,354,65280,6,0,L|15:364,1,52.5000020027161,2|0,0:2|0:2,0:2:0:0:
266,299,65429,2,0,L|330:309,1,52.5000020027161,8|0,0:2|0:2,0:2:0:0:
125,168,65577,2,0,L|73:159,1,52.5000020027161,2|0,0:2|0:2,0:2:0:0:
258,15,65726,6,0,B|300:64|300:64|277:179,1,157.500006008148,0|0,3:2|0:2,0:2:0:0:
214,214,66023,1,8,0:2:0:0:
0,95,66171,2,0,P|46:36|120:51,1,157.500006008148,0|0,3:2|0:2,0:2:0:0:
167,114,66468,1,0,3:2:0:0:
258,15,66617,6,0,L|345:6,1,52.5000020027161,8|8,0:2|0:1,0:2:0:0:
401,39,66766,2,8,L|453:33,1,52.5000020027161,8|8,0:1|0:1,0:1:0:0:
378,237,66914,6,0,P|293:214|305:117,1,157.500006008148,0|0,3:2|0:2,0:2:0:0:
329,88,67211,1,8,0:2:0:0:
477,204,67360,2,0,L|455:341,1,105.000004005432,0|0,3:2|0:2,0:2:0:0:
200,271,67657,1,0,3:0:0:0:
288,252,67731,1,0,3:0:0:0:
378,237,67805,6,0,L|366:307,1,52.5000020027161,8|8,0:2|0:1,0:2:0:0:
200,271,67954,2,8,L|208:219,1,52.5000020027161,8|8,0:1|0:1,0:1:0:0:
392,38,68102,6,0,P|302:74|210:43,1,157.500006008148,0|0,3:2|0:2,0:2:0:0:
164,15,68399,2,0,L|155:74,1,52.5000020027161,8|0,0:2|0:2,0:2:0:0:
144,147,68548,1,0,3:2:0:0:
21,252,68696,1,8,0:1:0:0:
31,250,68770,1,8,0:1:0:0:
41,248,68845,1,8,0:1:0:0:
51,246,68919,1,8,0:1:0:0:
61,244,68993,6,0,L|131:231,1,52.5000020027161,8|0,0:2|0:2,0:2:0:0:
348,157,69142,6,0,L|334:155,1,14,0|0,3:2|0:2,0:2:0:0:
241,15,69439,5,2,0:2:0:0:
234,172,69587,1,10,0:2:0:0:
227,329,69736,2,0,B|278:358|278:358|338:338,1,105.000004005432,2|0,3:2|0:2,0:2:0:0:
129,304,70033,6,0,L|109:370,1,52.5000020027161,2|0,0:2|0:2,0:2:0:0:
386,258,70181,2,0,L|406:324,1,52.5000020027161,10|0,0:2|0:2,0:2:0:0:
134,170,70330,2,0,L|114:236,1,52.5000020027161,2|0,0:2|0:2,0:2:0:0:
355,166,70478,5,0,3:2:0:0:
250,206,70627,2,0,L|241:62,1,105.000004005432,2|8,0:2|0:2,0:2:0:0:
452,193,70924,1,0,3:2:0:0:
157,86,71072,1,8,0:1:0:0:
181,40,71146,1,8,0:1:0:0:
227,16,71220,1,8,0:1:0:0:
278,23,71294,1,8,0:1:0:0:
317,57,71369,2,0,P|325:84|325:125,1,52.5000020027161,8|0,0:2|0:2,0:2:0:0:
250,206,71518,1,2,3:2:0:0:
250,206,71815,6,0,L|130:193,1,105.000004005432,2|8,0:2|0:2,0:2:0:0:
27,288,72112,2,0,L|114:295,1,52.5000020027161,0|0,3:2|0:2,0:2:0:0:
366,321,72261,2,0,P|381:253|343:201,1,105.000004005432,2|8,0:2|0:2,0:2:0:0:
27,288,72558,1,8,0:1:0:0:
79,292,72632,1,8,0:1:0:0:
131,297,72706,1,8,0:1:0:0:
183,302,72780,1,8,0:1:0:0:
236,306,72855,6,0,B|255:261|255:261|247:192,1,105.000004005432,0|8,3:2|0:2,0:2:0:0:
230,91,73300,1,0,3:2:0:0:
117,106,73449,2,8,L|163:102,1,26.2500010013581,8|8,0:1|0:1,0:1:0:0:
341,76,73597,2,8,L|295:80,1,26.2500010013581,8|8,0:1|0:1,0:1:0:0:
219,21,73746,6,0,L|229:90,1,70,8|0,0:2|0:2,0:2:0:0:
244,173,73894,6,0,L|245:180,1,7,0|0,3:2|0:2,0:2:0:0:
176,231,74191,5,2,0:2:0:0:
261,274,74340,1,2,0:2:0:0:
332,208,74488,1,2,0:2:0:0:
245,174,74637,1,2,0:2:0:0:
280,383,74785,5,0,3:2:0:0:
231,87,74934,2,0,L|221:8,1,73.4999977569581,10|0,0:2|0:2,0:2:0:0:
245,174,75231,5,2,3:2:0:0:
245,174,75454,1,2,0:2:0:0:
262,314,75676,1,2,0:2:0:0:
262,314,75899,1,2,0:2:0:0:
245,174,76122,6,8,L|253:247,1,52.5000020027161,8|8,0:1|0:1,0:1:0:0:
262,314,76270,2,8,L|270:387,1,52.5000020027161,8|8,0:1|0:1,0:1:0:0:
155,262,76419,5,2,3:2:0:0:
334,197,76642,1,0,0:2:0:0:
119,78,76865,2,8,L|60:75,2,52.5000020027161,8|8|8,0:1|0:1|0:1,0:1:0:0:
379,272,77087,2,8,L|438:269,2,52.5000020027161,8|8|8,0:1|0:1|0:1,0:1:0:0:
48,201,77310,6,8,L|121:193,1,52.5000020027161,8|8,2:2|2:2,2:2:0:0:
184,162,77458,2,8,L|257:170,1,52.5000020027161,8|8,2:2|2:2,2:2:0:0:
456,113,77607,6,0,P|382:112|337:197,1,157.500006008148,0|0,3:2|0:2,0:2:0:0:
282,253,77904,2,0,L|290:304,1,52.5000020027161,8|0,0:2|0:2,0:2:0:0:
355,362,78053,1,0,3:2:0:0:
194,299,78201,1,8,0:1:0:0:
194,299,78275,1,8,0:1:0:0:
194,299,78350,2,0,L|118:313,1,52.5000020027161,8|8,3:1|0:1,0:0:0:0:
379,272,78498,6,0,L|500:257,1,105.000004005432,8|0,0:2|0:2,0:2:0:0:
184,162,78647,6,0,L|170:163,1,14,2|0,0:2|3:2,0:2:0:0:
88,171,78944,5,2,0:2:0:0:
271,152,79092,1,10,0:2:0:0:
454,133,79241,2,0,B|472:83|472:83|431:22,1,105.000004005432,2|0,0:2|0:2,0:2:0:0:
153,76,79538,6,0,L|73:85,1,52.5000020027161,2|0,3:2|0:2,0:2:0:0:
352,204,79686,2,0,L|432:213,1,52.5000020027161,10|0,0:2|0:2,0:2:0:0:
163,323,79835,2,0,L|83:332,1,52.5000020027161,2|0,0:2|0:2,0:2:0:0:
249,123,79983,5,0,3:2:0:0:
260,243,80132,2,0,L|271:367,1,105.000004005432,2|8,0:2|0:2,0:2:0:0:
131,217,80429,1,0,0:2:0:0:
377,312,80577,1,8,0:1:0:0:
377,312,80652,1,8,0:1:0:0:
377,312,80726,2,0,L|448:304,1,52.5000020027161,8|8,3:1|0:1,0:2:0:0:
163,323,80874,6,0,L|81:332,1,70,8|0,0:2|3:2,0:2:0:0:
240,142,81320,6,0,P|262:210|257:254,1,105.000004005432,2|8,0:2|0:2,0:2:0:0:
148,87,81617,1,0,0:2:0:0:
428,89,81766,2,0,L|295:87,1,105.000004005432,2|0,0:2|3:2,0:2:0:0:
148,87,82063,2,8,L|136:22,1,52.5000020027161,8|8,0:0|0:1,0:1:0:0:
240,142,82211,2,8,L|230:193,1,52.5000020027161,8|8,0:1|0:1,0:1:0:0:
56,293,82360,6,0,B|169:310|169:310|244:265,1,157.500006008148,0|0,3:2|0:2,0:2:0:0:
296,261,82657,2,0,L|286:338,1,52.5000020027161,8|0,0:2|0:2,0:2:0:0:
230,193,82805,1,0,0:2:0:0:
387,220,82954,1,8,0:1:0:0:
387,220,83028,1,8,0:1:0:0:
387,220,83102,2,0,L|464:230,1,52.5000020027161,8|8,3:1|0:1,0:2:0:0:
230,193,83251,6,0,L|115:175,1,105.000004005432,8|0,0:2|0:2,0:2:0:0:
325,33,83399,6,0,L|324:52,1,14,2|0,0:2|3:2,0:2:0:0:
316,130,83696,5,2,0:2:0:0:
406,88,83845,1,10,0:2:0:0:
239,71,83993,1,2,0:2:0:0:
389,187,84142,1,2,0:2:0:0:
144,82,84290,6,0,P|149:29|159:-5,1,52.5000020027161,2|0,3:2|0:2,0:2:0:0:
307,222,84439,2,0,P|310:247|311:274,1,52.5000020027161,10|0,0:2|0:2,0:2:0:0:
63,144,84587,2,0,P|59:118|58:91,1,52.5000020027161,2|0,0:2|0:2,0:2:0:0:
255,355,84736,6,0,P|158:353|145:270,1,157.500006008148,2|0,3:2|0:2,0:2:0:0:
174,229,85033,1,8,0:2:0:0:
311,274,85181,2,0,L|475:257,1,157.500006008148,2|0,0:2|0:2,0:2:0:0:
512,328,85478,1,0,3:2:0:0:
327,184,85627,6,0,P|317:116|324:102,1,52.5000020027161,8|8,0:2|0:1,0:2:0:0:
228,120,85775,2,8,P|269:64|283:59,1,52.5000020027161,8|8,0:1|0:1,0:1:0:0:
488,90,85924,6,0,P|409:91|332:42,1,157.500006008148,2|0,3:2|0:2,0:2:0:0:
411,2,86221,1,8,0:2:0:0:
96,89,86369,2,0,L|275:73,1,157.500006008148,2|0,0:2|0:2,0:2:0:0:
312,134,86667,1,0,3:2:0:0:
201,268,86815,6,0,P|188:239|193:195,1,52.5000020027161,8|8,0:2|0:1,0:2:0:0:
330,219,86964,2,8,P|327:244|315:268,1,52.5000020027161,8|8,0:1|0:1,0:1:0:0:
252,357,87112,6,0,B|333:385|324:318|412:361,1,157.500006008148,0|0,3:2|0:2,0:2:0:0:
492,379,87409,2,0,P|487:327|478:309,1,52.5000020027161,8|0,0:2|0:2,0:2:0:0:
385,134,87558,2,0,P|359:203|420:248,1,157.500006008148,0|0,0:2|0:2,0:2:0:0:
459,178,87855,1,0,3:2:0:0:
272,212,88003,6,0,L|151:228,1,105.000004005432,8|0,0:2|0:2,0:2:0:0:
381,34,88152,6,0,P|383:42|383:49,1,14,2|0,0:2|3:2,0:2:0:0:
474,30,88449,5,2,0:2:0:0:
299,58,88597,1,10,0:2:0:0:
124,86,88746,2,0,L|13:100,1,105.000004005432,2|0,0:2|0:2,0:2:0:0:
347,194,89043,6,0,P|361:132|362:108,1,52.5000020027161,2|0,3:2|0:2,0:2:0:0:
135,246,89191,2,0,P|121:184|120:160,1,52.5000020027161,10|0,0:2|0:2,0:2:0:0:
393,318,89340,2,0,P|407:256|408:232,1,52.5000020027161,2|0,0:2|0:2,0:2:0:0:
220,139,89488,5,0,3:2:0:0:
309,285,89637,2,0,P|247:273|194:299,1,105.000004005432,2|8,0:2|0:2,0:2:0:0:
159,356,89934,1,0,0:2:0:0:
0,166,90082,1,8,0:1:0:0:
47,145,90156,1,8,0:1:0:0:
97,156,90230,1,8,0:1:0:0:
131,195,90304,1,8,0:1:0:0:
135,246,90379,6,0,L|55:249,1,70,8|0,0:2|3:2,0:2:0:0:
250,68,90825,6,0,P|270:130|244:188,1,105.000004005432,2|8,0:2|0:2,0:2:0:0:
153,42,91122,1,0,0:2:0:0:
354,122,91270,2,0,B|410:130|410:130|471:104,1,105.000004005432,2|0,0:2|3:2,0:2:0:0:
177,129,91568,2,8,L|97:135,1,52.5000020027161,8|8,0:2|0:1,0:1:0:0:
330,37,91716,2,8,L|382:33,1,52.5000020027161,8|8,0:1|0:1,0:1:0:0:
342,272,91865,6,0,P|272:331|187:306,1,157.500006008148,0|0,3:2|0:2,0:2:0:0:
122,287,92162,2,0,L|123:360,1,52.5000020027161,8|0,0:2|0:2,0:2:0:0:
255,242,92310,1,0,0:2:0:0:
34,234,92459,1,8,0:1:0:0:
34,234,92533,1,8,0:1:0:0:
34,234,92607,2,0,L|35:307,1,52.5000020027161,8|8,3:1|0:1,0:2:0:0:
111,189,92756,6,0,B|141:164|141:164|240:158,1,105.000004005432,8|0,0:2|0:2,0:2:0:0:
445,152,92904,6,0,L|429:152,1,14,2|0,0:2|3:2,0:2:0:0:
348,153,93201,5,2,0:2:0:0:
393,73,93350,1,10,0:2:0:0:
394,235,93498,1,2,0:2:0:0:
300,68,93647,1,2,0:2:0:0:
330,351,93795,6,0,L|408:362,1,52.5000020027161,2|0,3:2|0:2,0:2:0:0:
139,274,93944,2,0,L|61:285,1,52.5000020027161,10|0,0:2|0:2,0:2:0:0:
296,145,94092,2,0,L|374:156,1,52.5000020027161,2|0,0:2|0:2,0:2:0:0:
31,105,94241,6,0,B|151:90|151:90|181:132,1,157.500006008148,0|0,3:2|0:2,0:2:0:0:
218,188,94538,1,8,0:2:0:0:
226,27,94686,1,8,0:1:0:0:
226,27,94761,1,8,0:1:0:0:
226,27,94835,2,8,L|313:14,1,52.5000020027161,8|8,0:1|0:1,0:1:0:0:
106,180,94983,1,8,3:1:0:0:
275,108,95132,2,0,L|406:92,1,105.000004005432,8|0,0:2|0:2,0:2:0:0:
481,80,95355,1,8,0:1:0:0:
481,80,95429,6,0,B|515:129|495:185|495:185|481:157|449:136,1,157.500006008148,0|0,3:2|0:2,0:2:0:0:
379,95,95726,1,8,0:2:0:0:
241,264,95874,1,8,0:1:0:0:
285,290,95948,1,8,0:1:0:0:
337,291,96022,1,8,0:1:0:0:
381,265,96096,1,8,0:1:0:0:
406,219,96171,1,0,3:0:0:0:
312,202,96320,6,0,P|309:154|321:199,1,140
309,181,96914,6,0,B|238:190|238:190|185:167|185:167|60:173,1,210.000008010865,10|0,0:2|0:2,0:2:0:0:
104,170,97360,2,0,P|100:201|117:246,1,52.5000020027161,0|0,3:2|0:2,0:2:0:0:
264,297,97508,2,0,P|204:276|152:356,1,157.500006008148,8|0,0:2|0:2,0:2:0:0:
235,384,97805,2,0,L|422:363,1,157.500006008148,0|0,3:2|0:2,0:2:0:0:
477,384,98102,2,0,P|477:353|471:333,1,52.5000020027161,8|0,0:2|0:2,0:2:0:0:
496,230,98251,6,0,P|419:230|369:172,1,157.500006008148,0|0,3:2|0:2,0:2:0:0:
301,109,98548,1,0,3:2:0:0:
276,195,98622,1,0,3:2:0:0:
251,281,98696,1,8,0:2:0:0:
226,45,98845,6,0,P|160:20|69:54,1,157.500006008148,0|0,3:2|0:2,0:2:0:0:
15,111,99142,1,0,3:2:0:0:
40,197,99216,1,0,3:2:0:0:
65,283,99290,6,0,L|98:407,1,105.000004005432,10|0,0:2|0:2,0:2:0:0:
276,195,99439,6,0,L|281:177,1,14,2|0,0:2|3:2,0:2:0:0:
401,307,99810,1,8,0:1:0:0:
401,307,99884,6,0,B|260:327|260:327|201:296,1,210.000008010865,10|0,0:2|0:2,0:2:0:0:
200,295,100330,2,0,L|283:283,1,52.5000020027161,0|0,3:2|0:2,0:2:0:0:
374,189,100478,2,0,B|386:130|386:130|351:11,1,157.500006008148,8|0,0:2|0:2,0:2:0:0:
278,94,100775,2,0,P|203:104|165:24,1,157.500006008148,0|0,3:2|0:2,0:2:0:0:
235,0,101072,1,8,0:2:0:0:
17,174,101221,1,0,3:2:0:0:
17,174,101518,5,0,3:2:0:0:
110,197,101592,1,0,3:2:0:0:
203,220,101667,2,0,P|273:221|323:175,1,105.000004005432,10|0,0:2|0:2,0:2:0:0:
490,15,101964,5,0,3:2:0:0:
397,38,102038,1,0,3:2:0:0:
304,61,102113,2,0,P|234:62|184:16,1,105.000004005432,10|0,0:2|0:2,0:2:0:0:
79,84,102558,6,0,P|129:87|146:80,1,52.5000020027161,2|0,0:2|0:2,0:2:0:0:
419,233,102855,6,0,L|180:218,1,210.000008010865,8|0,0:2|0:2,0:2:0:0:
209,219,103300,2,0,P|201:250|210:286,1,52.5000020027161,0|0,3:2|0:2,0:2:0:0:
163,348,103449,2,0,B|101:363|101:363|0:337,1,157.500006008148,8|0,0:2|0:2,0:2:0:0:
86,147,103746,6,0,P|119:208|56:275,1,157.500006008148,0|0,3:2|0:2,0:2:0:0:
0,224,104043,1,8,0:2:0:0:
20,46,104191,2,0,B|110:21|80:87|190:64,1,157.500006008148,0|0,3:2|0:2,0:2:0:0:
256,33,104488,1,0,3:2:0:0:
273,128,104563,1,0,3:2:0:0:
290,223,104637,1,8,0:2:0:0:
496,52,104785,6,0,B|430:55|430:55|404:78|404:78|347:78,1,157.500006008148,0|0,3:2|0:2,0:2:0:0:
256,33,105082,1,0,3:2:0:0:
273,128,105157,1,0,3:2:0:0:
290,223,105231,6,0,L|310:338,1,105.000004005432,10|0,0:2|0:2,0:2:0:0:
82,286,105379,6,0,L|98:282,1,14,2|0,0:2|3:2,0:2:0:0:
256,33,105751,1,8,0:1:0:0:
256,33,105825,6,0,B|181:32|181:32|141:64|141:64|31:61,1,210.000008010865,8|0,0:2|0:2,0:2:0:0:
57,61,106270,2,0,P|59:87|67:112,1,52.5000020027161,0|0,3:2|0:2,0:2:0:0:
131,262,106419,2,0,B|306:269,1,157.500006008148,8|0,0:2|0:2,0:2:0:0:
332,354,106716,2,0,P|386:342|373:248,1,157.500006008148,0|0,3:2|0:2,0:2:0:0:
288,268,107013,1,8,0:2:0:0:
369,48,107162,2,0,L|364:-12,1,52.5000020027161,0|0,3:2|0:2,0:2:0:0:
369,48,107459,5,0,3:2:0:0:
376,154,107533,1,0,3:2:0:0:
384,255,107607,2,0,L|503:249,1,105.000004005432,10|0,0:2|0:2,0:2:0:0:
143,48,107904,5,0,3:2:0:0:
136,154,107978,1,0,3:2:0:0:
128,255,108053,2,0,L|17:247,1,105,8|0,0:2|3:2,0:2:0:0:
256,192,108572,12,0,113251,0:2:0:0:
