osu file format v14

[General]
AudioFilename: audio.mp3
AudioLeadIn: 0
PreviewTime: 101301
Countdown: 0
SampleSet: Normal
StackLeniency: 0.7
Mode: 0
LetterboxInBreaks: 0
WidescreenStoryboard: 0

[Editor]
Bookmarks: 68019,105988
DistanceSpacing: 1.6
BeatDivisor: 4
GridSize: 16
TimelineZoom: 1

[Metadata]
Title:Surrender
TitleUnicode:Surrender
Artist:CAZZETTE
ArtistUnicode:CAZZETTE
Creator:Firkant
Version:Hard
Source:
Tags:
BeatmapID:2028272
BeatmapSetID:969458

[Difficulty]
HPDrainRate:7
CircleSize:4
OverallDifficulty:7
ApproachRate:8
SliderMultiplier:1.4
SliderTickRate:1

[Events]
//Background and Video events
0,0,"cazette background.jpg",0,0
//Break Periods
//Storyboard Layer 0 (Background)
//Storyboard Layer 1 (Fail)
//Storyboard Layer 2 (Pass)
//Storyboard Layer 3 (Foreground)
//Storyboard Sound Samples

[TimingPoints]
51,468.75,4,1,0,100,1,0
59934,-66.6666666666667,4,1,0,100,0,0
75051,-200,4,1,0,100,0,0
76222,-100,4,1,0,100,0,0
78801,-200,4,1,0,100,0,0
79972,-100,4,1,0,100,0,0
82551,-200,4,1,0,100,0,0
83722,-100,4,1,0,100,0,0
86301,-200,4,1,0,100,0,0
87472,-100,4,1,0,100,0,0
90051,-66.6666666666667,4,1,0,100,0,0
104113,-57.1428571428571,4,1,0,100,0,0
116066,-133.333333333333,4,1,0,100,0,0
119230,-57.1428571428571,4,1,0,100,0,0
127434,-66.6666666666667,4,1,0,100,0,0
130949,-100,4,1,0,100,0,0

[HitObjects]
103,120,45051,5,0,0:0:0:0:
180,87,45402,1,0,0:0:0:0:
264,84,45754,1,0,0:0:0:0:
375,88,46223,2,0,P|416:98|446:125,2,70
264,84,46926,5,0,0:0:0:0:
192,128,47277,1,0,0:0:0:0:
148,199,47629,1,0,0:0:0:0:
83,290,48098,1,0,0:0:0:0:
83,290,48332,2,0,L|178:290,1,70
263,290,48801,5,0,0:0:0:0:
343,266,49152,1,0,0:0:0:0:
411,216,49504,1,0,0:0:0:0:
467,118,49973,2,0,P|474:75|463:37,2,70
415,197,50676,5,0,0:0:0:0:
355,138,51027,1,0,0:0:0:0:
360,54,51379,1,0,0:0:0:0:
467,118,51848,1,0,0:0:0:0:
467,118,52082,2,0,L|442:186,1,70
409,264,52551,5,0,0:0:0:0:
332,297,52902,1,0,0:0:0:0:
248,300,53254,1,0,0:0:0:0:
137,296,53723,2,0,P|95:285|65:258,2,70
248,300,54426,5,0,0:0:0:0:
320,256,54777,1,0,0:0:0:0:
364,185,55129,1,0,0:0:0:0:
429,94,55598,1,0,0:0:0:0:
429,94,55832,2,0,L|334:94,1,70
249,94,56301,5,0,0:0:0:0:
169,118,56652,1,0,0:0:0:0:
101,168,57004,1,0,0:0:0:0:
45,266,57473,2,0,P|37:308|48:346,2,70
101,168,58176,5,0,0:0:0:0:
162,110,58527,1,0,0:0:0:0:
240,78,58879,1,0,0:0:0:0:
310,78,59348,1,0,0:0:0:0:
310,78,59582,2,0,L|215:78,1,70
97,39,60051,5,0,0:0:0:0:
28,168,60285,1,0,0:0:0:0:
169,128,60519,1,8,0:0:0:0:
93,254,60754,2,0,P|127:261|150:259,4,52.5000020027161
240,261,61457,2,0,P|313:243|354:191,1,105.000004005432
321,116,61926,5,0,0:0:0:0:
201,31,62160,1,0,0:0:0:0:
206,177,62394,1,8,0:0:0:0:
96,240,62629,2,0,P|128:256|144:272,4,52.5000020027161
208,340,63332,1,0,0:0:0:0:
272,32,63801,5,0,0:0:0:0:
366,144,64035,1,0,0:0:0:0:
235,201,64269,1,8,0:0:0:0:
192,59,64504,2,0,P|173:89|168:111,4,52.5000020027161
235,201,65207,2,0,P|253:274|305:315,1,105.000004005432
416,324,65676,5,0,0:0:0:0:
391,183,65910,1,0,0:0:0:0:
274,93,66144,1,8,0:0:0:0:
126,93,66379,2,0,P|90:97|70:107,4,52.5000020027161
80,240,67082,2,0,B|144:240|144:240|144:288|144:288|192:288|192:288,1,157.500006008148
128,160,67551,6,0,B|128:96|128:96|176:80,1,105.000004005432
308,45,68019,1,0,0:0:0:0:
259,138,68254,2,0,P|243:170|227:186,4,52.5000020027161
159,256,68957,2,0,P|177:329|229:370,1,105.000004005432
269,222,69426,5,0,0:0:0:0:
369,115,69660,1,0,0:0:0:0:
222,109,69894,1,8,0:0:0:0:
103,218,70129,6,0,P|119:250|135:266,4,52.5000020027161
208,336,70832,5,0,0:0:0:0:
208,336,71066,2,0,B|272:336|272:336|304:336|336:320|352:288,1,157.500006008148
400,176,72004,2,0,L|400:112,1,52.5000020027161
176,160,72473,2,0,B|112:160|112:160|80:160|80:192,1,105.000004005432
80,240,72941,2,0,B|144:240|144:240|176:240|176:272,1,105.000004005432
192,336,73410,2,0,B|272:336|272:336|320:336|320:288|320:288|320:224|336:176|384:144,1,315.000012016297
192,260,75051,6,0,P|118:265|120:181,1,175
240,64,76457,1,0,0:0:0:0:
384,96,76691,2,0,P|384:160|352:192,1,105
321,129,77160,2,0,P|241:193|225:257,1,157.500006008148
95,230,78801,2,0,P|102:156|172:188,1,175
227,326,80207,1,0,0:0:0:0:
384,278,80441,2,0,P|339:324|294:324,1,105.000004005432
227,326,80910,2,0,P|159:294|145:256,1,105
219,252,81379,2,0,B|219:236|219:236|219:220|235:188|259:175|287:174,1,105
294,245,81848,2,0,P|358:245|406:181,1,105.000004005432
192,260,82551,6,0,P|118:265|120:181,1,175
272,64,83957,5,0,0:0:0:0:
397,66,84191,2,0,P|458:83|476:122,1,105
489,217,84660,2,0,P|425:297|358:312,1,175
321,130,86301,6,0,P|394:124|393:209,1,175
272,320,87707,1,0,0:0:0:0:
128,288,87941,2,0,P|128:224|160:187,1,105
196,253,88410,2,0,P|223:220|216:154,1,105
296,173,88879,2,0,B|296:130|269:95|234:90,1,105
169,87,89348,6,0,P|204:29|254:22,1,122.5
72,119,90051,6,0,P|127:154|172:153,1,105.000004005432
232,134,90402,2,0,P|307:112|367:137,1,105.000004005432
395,138,90754,2,0,P|444:173|457:258,1,105.000004005432
384,333,91223,1,0,0:0:0:0:
384,333,91457,1,0,0:0:0:0:
455,291,91926,6,0,P|400:256|355:257,1,105.000004005432
284,265,92277,2,0,P|209:287|149:262,1,105.000004005432
112,253,92629,2,0,P|63:218|50:133,1,105.000004005432
105,56,93098,1,0,0:0:0:0:
105,56,93332,1,0,0:0:0:0:
36,105,93801,6,0,P|101:133|157:129,1,105.000004005432
208,133,94152,2,0,P|267:129|301:54,1,105.000004005432
326,29,94504,2,0,P|408:28|442:70,1,105.000004005432
371,93,94973,1,0,0:0:0:0:
371,93,95207,1,0,0:0:0:0:
473,89,95676,6,0,L|485:212,1,105.000004005432
483,193,96027,1,0,0:0:0:0:
390,260,96262,1,0,0:0:0:0:
390,260,96379,2,0,B|328:259|328:259|316:202|316:202,1,105.000004005432
296,97,96848,1,0,0:0:0:0:
296,97,97082,1,0,0:0:0:0:
168,327,97551,6,0,L|137:282,3,52.5000020027161
216,273,98019,2,0,L|247:228,3,52.5000020027161
166,225,98488,2,0,L|135:180,3,52.5000020027161
214,171,98957,2,0,L|245:126,3,52.5000020027161
303,77,99426,6,0,L|348:46,3,52.5000020027161
354,125,99894,2,0,L|385:170,3,52.5000020027161
304,175,100363,2,0,L|259:206,3,52.5000020027161
243,127,100832,2,0,L|212:82,3,52.5000020027161
256,192,101301,12,0,103176,0:0:0:0:
274,68,104347,5,0,0:0:0:0:
214,213,104581,1,0,0:0:0:0:
347,129,104816,1,0,0:0:0:0:
281,272,105051,2,0,P|196:322|135:311,1,122.500001168251
340,242,105519,2,0,P|390:327|379:388,1,122.500001168251
316,178,105988,2,0,P|401:128|462:139,1,122.500001168251
255,207,106457,2,0,P|205:122|216:61,1,122.500001168251
96,26,106926,2,0,P|46:111|57:172,1,122.500001168251
82,311,107394,2,0,P|167:361|228:350,1,122.500001168251
358,343,107863,1,0,0:0:0:0:
456,202,108097,1,0,0:0:0:0:
339,75,108332,1,0,0:0:0:0:
293,240,108566,1,0,0:0:0:0:
144,296,108801,6,0,P|86:257|86:182,1,122.500001168251
117,67,109269,2,0,P|177:119|169:198,1,122.500001168251
144,296,109738,2,0,P|224:320|288:288,1,122.500001168251
400,224,110207,2,0,L|400:80,1,122.500001168251
304,224,110676,2,0,L|288:80,1,122.500001168251
208,224,111144,2,0,L|176:96,1,122.500001168251
96,224,111613,2,0,L|144:288,1,61.2500005841255
191,336,111848,1,0,0:0:0:0:
324,229,112082,1,0,0:0:0:0:
458,334,112316,1,0,0:0:0:0:
416,176,112551,6,0,P|352:112|304:112,1,122.500001168251
416,224,113019,2,0,P|416:288|320:336,1,122.500001168251
224,336,113488,2,0,P|144:304|128:224,1,122.500001168251
96,128,113957,2,0,P|144:80|240:112,1,122.500001168251
176,224,114426,2,0,P|272:208|304:144,1,122.500001168251
304,48,114894,2,0,P|368:80|400:144,1,122.500001168251
416,272,115363,2,0,P|400:304|368:320,1,61.2500005841255
304,336,115598,1,0,0:0:0:0:
160,288,115832,1,0,0:0:0:0:
331,133,116066,6,0,P|363:133|395:117,1,61.2500005841255
352,64,116535,2,0,P|320:64|288:80,1,61.2500005841255
331,133,117004,2,0,P|363:133|395:117,1,61.2500005841255
352,64,118410,2,0,P|320:64|288:80,1,61.2500005841255
331,133,118879,2,0,P|363:133|395:117,1,61.2500005841255
352,64,119348,1,0,0:0:0:0:
288,192,119582,1,0,0:0:0:0:
208,64,119816,5,0,0:0:0:0:
352,64,120051,2,0,P|410:103|410:178,1,122.500001168251
379,293,120519,2,0,P|319:241|327:162,1,122.500001168251
352,64,120988,2,0,P|310:49|208:80,1,122.500001168251
96,136,121457,2,0,L|96:280,1,122.500001168251
192,136,121926,2,0,L|208:280,1,122.500001168251
288,136,122394,2,0,L|320:264,1,122.500001168251
460,158,122863,1,0,0:0:0:0:
345,29,123098,1,0,0:0:0:0:
213,138,123332,1,0,0:0:0:0:
81,28,123566,1,0,0:0:0:0:
80,184,123801,6,0,P|144:248|192:248,1,122.500001168251
80,136,124269,2,0,P|80:72|176:24,1,122.500001168251
272,24,124738,2,0,P|352:56|368:136,1,122.500001168251
400,232,125207,2,0,P|352:280|256:248,1,122.500001168251
320,136,125676,2,0,P|224:152|192:216,1,122.500001168251
192,312,126144,2,0,P|128:280|96:216,1,122.500001168251
80,88,126613,2,0,P|96:56|128:40,1,61.2500005841255
192,24,126848,1,0,0:0:0:0:
336,72,127082,1,0,0:0:0:0:
416,192,127316,1,0,0:0:0:0:
368,336,127551,6,0,L|240:336,1,105.000004005432
112,272,128019,2,0,L|240:272,1,105.000004005432
368,208,128488,2,0,L|224:208,1,105.000004005432
112,144,128957,2,0,L|256:144,1,105.000004005432
368,80,129426,2,0,L|224:80,1,105.000004005432
96,80,129894,2,0,P|64:128|64:192,1,105.000004005432
80,336,130363,2,0,P|128:256|176:240,1,105.000004005432
304,240,130832,5,0,0:0:0:0:
304,240,131066,2,0,P|336:240|384:224,1,70
327,168,131535,2,0,P|295:168|247:184,1,70
304,240,132004,2,0,P|336:240|384:224,1,70
327,168,133410,2,0,P|307:142|265:114,1,70
255,191,133879,2,0,P|274:216|316:244,1,70
