osu file format v14

[General]
AudioFilename: audio.mp3
AudioLeadIn: 0
PreviewTime: 164485
Countdown: 0
SampleSet: Soft
StackLeniency: 0.7
Mode: 0
LetterboxInBreaks: 0
WidescreenStoryboard: 0

[Editor]
Bookmarks: 21942,43885,65828,81942,87771,109714,131657,153600,164571,186514,202971,207085
DistanceSpacing: 0.7
BeatDivisor: 4
GridSize: 4
TimelineZoom: 1

[Metadata]
Title:Why We Lose
TitleUnicode:Why We Lose
Artist:CARTOON feat. Coleman Trapp
ArtistUnicode:CARTOON feat. Coleman Trapp
Creator:LukerMaster
Version:It
Source:
Tags:
BeatmapID:1414378
BeatmapSetID:668574

[Difficulty]
HPDrainRate:5.5
CircleSize:6
OverallDifficulty:9
ApproachRate:9.3
SliderMultiplier:1.8
SliderTickRate:1

[Events]
//Background and Video events
0,0,"bg.jpg",0,0
//Break Periods
//Storyboard Layer 0 (Background)
//Storyboard Layer 1 (Fail)
//Storyboard Layer 2 (Pass)
//Storyboard Layer 3 (Foreground)
//Storyboard Sound Samples

[TimingPoints]
0,342.857142857143,4,1,0,100,1,0
0,-200,4,2,0,20,0,0
21942,-200,4,3,2,40,0,0
41142,-200,4,2,0,20,0,0
43885,-133.333333333333,4,2,0,70,0,0
65828,-200,4,2,0,50,0,0
83657,-166.666666666667,4,3,0,60,0,0
84342,-142.857142857143,4,3,0,70,0,0
87771,-100,4,3,2,90,0,0
132342,-200,4,2,2,60,0,0
152228,-800,4,2,2,60,0,0
153600,-142.857142857143,4,2,2,70,0,0
159771,-142.857142857143,4,3,2,70,0,0
163200,-142.857142857143,4,3,2,90,0,0
164571,-83.3333333333333,4,3,2,100,0,1
175542,-76.9230769230769,4,3,2,100,0,1
181028,-90.9090909090909,4,3,2,100,0,1
186514,-83.3333333333333,4,3,2,100,0,1
207085,-220,4,2,2,80,0,0
207171,-220,4,2,2,5,0,0

[Colours]
Combo1 : 255,0,255
Combo2 : 255,255,255
Combo3 : 0,255,255
Combo4 : 128,0,255

[HitObjects]
380,176,0,6,0,P|388:220|288:296,1,180
216,244,1200,2,0,P|160:236|124:248,1,90
64,316,1885,1,0,0:0:0:0:
64,316,2057,1,0,0:0:0:0:
48,144,2400,1,0,0:0:0:0:
104,84,2742,6,0,P|156:100|232:64,1,135
292,24,3428,2,0,L|272:168,1,135
252,280,4285,1,0,0:0:0:0:
360,176,4628,1,0,0:0:0:0:
360,176,4800,1,0,0:0:0:0:
212,192,5142,2,0,P|176:200|152:192,1,45
100,188,5485,6,0,P|120:248|100:328,1,135
184,288,6171,2,0,L|324:316,1,135
408,340,7028,1,0,0:0:0:0:
452,280,7371,1,0,0:0:0:0:
452,280,7542,1,0,0:0:0:0:
492,364,7885,1,0,0:0:0:0:
376,280,8228,6,0,P|368:240|400:148,1,135
464,100,8914,2,0,L|316:116,1,135
236,128,9771,1,0,0:0:0:0:
156,32,10114,1,0,0:0:0:0:
156,32,10285,1,0,0:0:0:0:
280,48,10628,2,0,P|324:52|344:48,1,45
396,28,10971,6,0,P|416:96|352:188,1,180,4|0,0:0|0:0,0:0:0:0:
276,272,12171,2,0,P|224:260|176:276,1,90
88,336,12857,2,0,P|96:292|88:276,1,45
56,92,13371,2,0,P|52:136|60:152,1,45
52,216,13714,6,0,P|104:196|128:116,1,135
120,36,14400,2,0,P|140:88|220:112,1,135
324,68,15257,1,0,0:0:0:0:
440,112,15600,2,0,L|448:168,1,45
352,236,16114,2,0,L|360:292,1,45
256,352,16457,6,0,L|116:336,1,135
56,272,17142,2,0,L|196:256,1,135
300,312,18000,1,0,0:0:0:0:
420,284,18342,2,0,P|424:308|416:340,1,45
360,184,18857,1,0,0:0:0:0:
360,184,19200,6,0,P|312:196|232:168,1,135
164,240,19885,2,0,L|144:104,1,135
56,72,20742,1,0,0:0:0:0:
12,156,21085,1,0,0:0:0:0:
12,156,21257,1,0,0:0:0:0:
52,252,21942,6,0,B|116:240|116:240|196:256,1,135,4|0,0:0|0:0,0:0:0:0:
248,324,22628,2,0,P|280:328|304:324,1,45,4|0,0:0|0:0,0:0:0:0:
352,256,22971,2,0,P|374:252|396:253,1,45
456,328,23314,2,0,B|484:264|484:264|468:192,1,135,4|0,0:0|0:0,0:0:0:0:
440,116,24000,2,0,P|424:148|376:96,1,135,4|0,0:0|0:0,0:0:0:0:
432,16,24685,2,0,P|380:4|300:28,1,135,4|0,0:0|0:0,0:0:0:0:
248,104,25371,2,0,P|208:116|196:116,1,45,4|0,0:0|0:0,0:0:0:0:
132,196,25714,6,0,L|152:152,1,45
101,29,26057,2,0,L|110:73,1,45,4|0,0:0|0:0,0:0:0:0:
223,146,26400,2,0,L|189:115,1,45
55,122,26742,2,0,L|99:127,1,45,4|0,0:0|0:0,0:0:0:0:
205,43,27085,2,0,L|165:65,1,45
56,192,27428,6,0,L|208:208,1,135,4|0,0:0|0:0,0:0:0:0:
292,336,28114,2,0,L|280:280,1,45,4|0,0:0|0:0,0:0:0:0:
260,116,28457,2,0,L|248:172,1,45
184,312,28800,2,0,L|224:280,1,45,4|0,0:0|0:0,0:0:0:0:
304,208,29142,2,0,L|360:200,1,45
96,148,29485,2,0,L|236:160,1,135,4|0,0:0|0:0,0:0:0:0:
280,44,30171,6,0,L|416:104,1,135,4|0,0:0|0:0,0:0:0:0:
508,168,30857,2,0,P|492:200|492:224,1,45,4|0,0:0|0:0,0:0:0:0:
432,316,31200,2,0,P|429:280|417:259,1,45
400,188,31542,2,0,P|344:212|260:184,1,135,4|0,0:0|0:0,0:0:0:0:
188,160,32228,2,0,L|180:212,1,45,4|0,0:0|0:0,0:0:0:0:
88,184,32571,2,0,L|96:228,1,45
4,168,32914,6,0,L|0:304,1,135,4|0,0:0|0:0,0:0:0:0:
88,332,33600,2,0,P|128:336|144:332,1,45,4|0,0:0|0:0,0:0:0:0:
208,240,33942,2,0,P|168:236|152:240,1,45
276,344,34285,2,0,L|288:296,1,45,4|0,0:0|0:0,0:0:0:0:
424,200,34628,2,0,L|412:248,1,45
368,340,34971,2,0,L|332:200,1,135,4|0,0:0|0:0,0:0:0:0:
380,136,35657,2,0,B|332:152|332:152|244:136,1,135,4|0,0:0|0:0,0:0:0:0:
164,88,36342,2,0,L|212:80,1,45,4|0,0:0|0:0,0:0:0:0:
56,36,36685,2,0,L|8:28,1,45
76,148,37028,6,0,P|72:184|76:208,1,45,4|0,0:0|0:0,0:0:0:0:
136,304,37371,2,0,L|180:300,1,45
216,200,37714,2,0,L|256:180,1,45,4|0,0:0|0:0,0:0:0:0:
364,256,38057,2,0,L|420:252,1,45
356,92,38400,2,0,L|460:0,1,135,4|0,0:0|0:0,0:0:0:0:
492,80,39085,6,0,P|452:92|440:88,1,45,4|0,0:0|0:0,0:0:0:0:
344,24,39428,2,0,P|304:12|292:16,1,45
212,96,39771,2,0,L|156:88,1,45,4|0,0:0|0:0,0:0:0:0:
72,8,40114,2,0,L|16:16,1,45
16,136,40457,2,0,P|20:188|100:224,1,135,4|0,0:0|0:0,0:0:0:0:
144,192,41142,6,0,P|176:184|292:276,1,180
256,348,42342,2,0,P|300:356|348:332,1,90
400,228,43028,1,0,0:0:0:0:
416,224,43200,5,0,1:0:0:0:
468,332,43371,1,0,1:0:0:0:
460,80,43885,6,0,P|392:44|272:100,1,202.500007724762,6|0,0:0|0:0,0:0:0:0:
316,184,44571,2,0,P|256:196|200:148,1,135.000005149842,2|0,0:0|0:0,0:0:0:0:
144,72,45085,2,0,P|96:60|64:64,1,67.5000025749208,2|0,0:0|0:0,0:0:0:0:
96,212,45428,2,0,P|144:224|176:220,1,67.5000025749208,2|0,0:0|0:0,0:0:0:0:
276,184,45771,1,0,0:0:0:0:
376,252,45942,2,0,L|368:344,2,67.5000025749208,2|0|0,0:0|0:0|0:0,0:0:0:0:
452,144,46628,6,0,P|388:160|276:92,1,202.500007724762,6|0,0:0|0:0,0:0:0:0:
168,36,47314,2,0,P|128:28|40:80,1,135.000005149842,2|0,0:0|0:0,0:0:0:0:
72,212,47828,2,0,P|80:252|64:292,1,67.5000025749208,2|0,0:0|0:0,0:0:0:0:
124,124,48171,2,0,P|157:146|174:186,1,67.5000025749208
212,280,48514,1,0,0:0:0:0:
328,240,48685,2,0,L|336:316,2,67.5000025749208,2|0|0,0:0|0:0|0:0,0:0:0:0:
416,128,49371,6,0,P|440:164|440:268,1,135.000005149842,4|0,0:0|0:0,0:0:0:0:
168,332,50057,2,0,P|144:296|144:192,1,135.000005149842
224,160,50571,2,0,L|228:236,1,67.5000025749208
348,244,50914,2,0,L|352:320,1,67.5000025749208
240,348,51257,1,0,0:0:0:0:
136,284,51428,2,0,P|120:232|120:212,2,67.5000025749208
296,288,52114,6,0,L|504:284,1,202.500007724762,4|0,0:0|0:0,0:0:0:0:
272,224,52800,2,0,L|406:221,1,135.000005149842
244,340,53314,2,0,P|280:356|312:360,1,67.5000025749208
148,292,53657,2,0,P|184:276|216:272,1,67.5000025749208
80,352,54000,1,0,0:0:0:0:
24,280,54171,2,0,L|36:212,2,67.5000025749208
120,208,54857,6,0,P|124:152|32:48,1,202.500007724762,6|0,0:0|0:0,0:0:0:0:
16,132,55542,2,0,P|72:128|124:68,1,135.000005149842,2|0,0:0|0:0,0:0:0:0:
232,24,56057,2,0,L|304:32,1,67.5000025749208,2|0,0:0|0:0,0:0:0:0:
368,136,56400,2,0,L|440:128,1,67.5000025749208,2|0,0:0|0:0,0:0:0:0:
272,112,56742,1,0,0:0:0:0:
244,232,56914,2,0,L|260:312,2,67.5000025749208,2|0|0,0:0|0:0|0:0,0:0:0:0:
176,160,57600,6,0,P|96:168|48:284,1,202.500007724762,6|0,0:0|0:0,0:0:0:0:
160,268,58285,2,0,P|212:284|280:244,1,135.000005149842,2|0,0:0|0:0,0:0:0:0:
376,168,58800,2,0,L|392:244,1,67.5000025749208,2|0,0:0|0:0,0:0:0:0:
492,80,59142,2,0,L|478:146,1,67.5000025749208,2|0,0:0|0:0,0:0:0:0:
392,52,59485,1,0,0:0:0:0:
272,84,59657,2,0,L|196:76,2,67.5000025749208,2|0|0,0:0|0:0|0:0,0:0:0:0:
352,160,60342,6,0,L|328:368,1,202.500007724762,4|0,0:0|0:0,0:0:0:0:
232,224,61028,2,0,L|248:376,1,135.000005149842
144,264,61542,2,0,P|152:312|140:344,1,67.5000025749208
96,136,61885,2,0,P|88:184|100:216,1,67.5000025749208
76,296,62228,1,0,0:0:0:0:
156,196,62400,2,0,L|228:204,2,67.5000025749208
236,300,63085,6,0,L|444:280,1,202.500007724762,4|0,0:0|0:0,0:0:0:0:
508,172,63771,2,0,P|488:256|508:312,1,135.000005149842
384,372,64285,2,0,P|392:328|384:296,1,67.5000025749208
316,200,64628,2,0,P|308:244|316:276,1,67.5000025749208
248,368,64971,1,0,0:0:0:0:
144,304,65142,2,0,L|72:316,2,67.5000025749208
200,248,65828,6,0,P|208:204|172:112,1,135,4|0,0:0|0:0,0:0:0:0:
120,80,66514,2,0,P|164:52|212:64,1,90
284,104,67200,2,0,L|340:96,1,45
316,24,67542,2,0,L|372:32,1,45
408,96,67885,2,0,L|392:152,2,45
480,212,68571,6,0,L|296:220,1,180
108,208,69942,2,0,P|112:244|120:264,1,45
184,168,70285,2,0,P|180:204|172:224,1,45
92,157,70628,2,0,L|76:108,2,45
228,84,71314,6,0,P|168:76|92:160,1,180
116,308,72685,2,0,P|152:332|216:332,1,90
316,200,73371,2,0,P|280:196|256:200,1,45
368,280,73714,2,0,P|396:257|410:237,1,45
440,160,74057,2,0,L|420:352,2,180,4|0|0,0:0|0:0|0:0,0:0:0:0:
256,40,75942,1,0,0:0:0:0:
256,40,76114,2,0,P|208:48|192:44,1,45
124,32,76457,2,0,L|132:84,1,45
59,145,76800,6,0,L|104:152,3,45
136,212,77485,2,0,L|196:204,1,45
236,164,77828,2,0,P|272:180|296:184,1,45
336,152,78171,2,0,P|340:196|308:240,2,90
304,88,79028,1,0,0:0:0:0:
304,88,79200,2,0,L|356:80,1,45
416,48,79542,6,0,P|408:96|432:140,1,90
480,184,80057,1,0,0:0:0:0:
480,184,80228,2,0,L|464:236,3,45
444,292,80914,2,0,P|408:280|388:280,1,45
340,320,81257,2,0,P|302:312|285:302,1,45
248,256,81600,2,0,L|196:260,1,45
164,320,81942,2,0,L|112:308,1,45
88,244,82285,6,0,P|84:204|112:156,1,90
160,112,82800,1,0,0:0:0:0:
160,112,82971,2,0,L|204:96,3,45
248,48,83657,2,0,L|312:56,3,53.9999983520508
348,108,84342,2,0,L|420:100,3,62.9999980773926
480,68,85028,5,0,0:0:0:0:
473,82,85113,1,0,0:0:0:0:
468,97,85199,1,0,0:0:0:0:
465,112,85285,1,0,0:0:0:0:
463,128,85370,1,0,0:0:0:0:
464,144,85456,1,0,0:0:0:0:
467,159,85542,1,0,0:0:0:0:
471,174,85628,1,0,0:0:0:0:
476,188,85714,5,0,0:0:0:0:
487,217,85799,1,0,0:0:0:0:
489,248,85885,1,0,0:0:0:0:
480,278,85971,1,0,0:0:0:0:
463,304,86056,1,0,0:0:0:0:
438,324,86142,1,0,0:0:0:0:
409,334,86228,1,0,0:0:0:0:
377,335,86314,1,0,0:0:0:0:
347,325,86399,1,0,1:0:0:0:
332,304,87771,6,0,P|256:288|228:292,1,90,4|0,0:0|0:0,0:0:0:0:
164,336,88114,1,8,0:0:0:0:
112,184,88285,1,0,0:0:0:0:
72,356,88457,2,0,P|92:304|88:256,1,90,2|0,0:2|0:0,0:0:0:0:
32,104,88800,1,8,0:0:0:0:
176,212,88971,2,0,P|220:216|272:196,1,90
212,0,89314,2,0,P|168:7|123:40,1,90,0|8,0:0|0:0,0:0:0:0:
88,184,89657,1,0,0:0:0:0:
192,72,89828,2,0,P|240:68|292:84,1,90
420,140,90171,2,0,P|468:144|520:128,1,90,8|0,0:0|0:0,0:0:0:0:
460,32,90514,5,4,0:0:0:0:
428,212,90685,1,0,0:0:0:0:
336,72,90857,1,8,0:0:0:0:
384,280,91028,1,0,0:0:0:0:
412,140,91200,2,0,L|396:44,1,90,2|0,0:2|0:0,0:0:0:0:
304,176,91542,1,8,0:0:0:0:
160,132,91714,2,0,P|212:128|256:144,1,90
8,220,92057,2,0,P|60:224|104:208,1,90,0|8,0:0|0:0,0:0:0:0:
100,92,92400,1,0,0:0:0:0:
196,204,92571,2,0,L|184:296,2,90,0|0|8,0:0|0:0|0:0,0:0:0:0:
216,48,93085,1,0,0:0:0:0:
316,188,93257,6,0,L|420:180,1,90,4|0,0:0|0:0,0:0:0:0:
492,168,93600,1,8,0:0:0:0:
376,280,93771,1,0,0:0:0:0:
292,264,93942,2,0,L|192:248,1,90
144,320,94285,1,8,0:0:0:0:
72,268,94457,2,0,P|56:316|64:364,1,90
124,132,94800,2,0,P|140:180|132:228,1,90,0|8,0:0|0:0,0:0:0:0:
144,308,95142,1,0,0:0:0:0:
260,348,95314,2,0,L|348:332,2,90,0|0|8,0:0|0:0|0:0,0:0:0:0:
352,256,95828,1,0,0:0:0:0:
448,328,96000,6,0,P|436:280|444:240,1,90,4|0,0:0|0:0,0:0:0:0:
504,168,96342,1,8,0:0:0:0:
504,168,96514,1,0,0:0:0:0:
388,216,96685,2,0,L|296:220,1,90
144,244,97028,1,8,0:0:0:0:
320,304,97200,1,0,0:0:0:0:
172,320,97371,2,0,P|116:320|88:300,1,90
116,172,97714,2,0,P|172:172|200:192,1,90,8|0,0:0|0:0,0:0:0:0:
260,296,98057,6,0,P|280:332|316:300,1,90
312,188,98400,1,8,0:0:0:0:
380,328,98571,6,0,P|396:324|436:328,1,45,2|0,2:0|2:0,2:0:0:0:
452,372,98742,6,0,L|468:184,1,180,4|8,0:0|0:0,0:0:0:0:
324,120,99257,1,0,0:0:0:0:
372,264,99428,2,0,P|384:208|372:160,1,90,2|0,0:2|0:0,0:0:0:0:
256,80,99771,1,8,0:0:0:0:
140,184,99942,2,0,P|92:160|40:156,1,90
124,32,100285,2,0,P|177:38|227:24,1,90,0|8,0:0|0:0,0:0:0:0:
336,0,100628,1,0,0:0:0:0:
432,160,100800,2,0,L|328:148,1,90
72,108,101142,2,0,L|176:120,1,90,8|0,0:0|0:0,0:0:0:0:
240,264,101485,6,0,P|260:196|256:160,1,90,4|0,0:0|0:0,0:0:0:0:
228,56,101828,1,8,0:0:0:0:
148,192,102000,1,0,0:0:0:0:
320,112,102171,2,0,L|412:80,1,90,2|0,0:2|0:0,0:0:0:0:
160,104,102514,1,8,0:0:0:0:
376,164,102685,2,0,L|472:152,1,90
152,96,103028,2,0,L|56:84,1,90,0|8,0:0|0:0,0:0:0:0:
180,232,103371,1,0,0:0:0:0:
308,100,103542,2,0,P|316:64|304:4,2,90,0|0|8,0:0|0:0|0:0,0:0:0:0:
136,168,104057,5,0,0:0:0:0:
272,240,104228,2,0,P|328:232|376:248,1,90,12|0,0:0|0:0,0:0:0:0:
432,300,104571,1,8,0:0:0:0:
356,360,104742,1,0,0:0:0:0:
420,216,104914,2,0,P|456:208|516:224,1,90
480,344,105257,1,8,0:0:0:0:
352,184,105428,2,0,P|348:228|368:276,1,90
276,360,105771,2,0,P|273:315|247:271,1,90,0|8,0:0|0:0,0:0:0:0:
124,188,106114,1,0,0:0:0:0:
164,348,106285,2,0,L|180:248,1,90
52,200,106628,2,0,L|68:300,1,90
216,156,106971,5,8,0:0:0:0:
36,104,107142,1,0,0:0:0:0:
192,76,107314,1,0,0:0:0:0:
120,192,107485,1,8,0:0:0:0:
160,0,107657,1,0,0:0:0:0:
292,136,107828,1,0,0:0:0:0:
104,64,108000,2,0,B|60:52|60:52|12:56,1,90,8|0,0:0|0:0,0:0:0:0:
296,64,108342,2,0,B|337:44|337:44|385:40,1,90,8|0,0:0|0:0,0:0:0:0:
464,172,108685,1,0,0:0:0:0:
252,136,108857,1,0,0:0:0:0:
388,120,109028,6,0,P|392:152|388:172,1,45
352,216,109200,1,4,0:0:0:0:
368,52,109371,1,0,0:0:0:0:
408,280,109542,6,0,P|372:276|348:284,1,45,2|0,2:0|2:0,2:0:0:0:
312,312,109714,5,4,0:0:0:0:
252,200,109885,2,0,B|240:144|240:144|248:100,1,90,0|8,0:0|0:0,0:0:0:0:
168,192,110228,1,0,0:0:0:0:
168,192,110400,1,0,0:0:0:0:
320,160,110571,2,0,P|372:152|412:160,1,90,0|8,0:0|0:0,0:0:0:0:
372,252,110914,2,0,P|424:257|460:275,1,90
388,352,111257,5,0,0:0:0:0:
192,264,111428,1,8,0:0:0:0:
328,212,111600,1,0,0:0:0:0:
312,360,111771,1,0,0:0:0:0:
228,200,111942,1,0,0:0:0:0:
140,320,112114,2,0,B|188:332|188:332|236:324,1,90,8|0,0:0|0:0,0:0:0:0:
284,148,112457,5,4,0:0:0:0:
340,208,112628,2,0,L|328:300,1,90,0|8,0:0|0:0,0:0:0:0:
192,172,112971,1,0,0:0:0:0:
192,172,113142,1,0,0:0:0:0:
352,136,113314,2,0,P|400:128|448:140,1,90,0|8,0:0|0:0,0:0:0:0:
236,56,113657,2,0,P|188:48|140:60,1,90
36,208,114000,5,0,0:0:0:0:
72,60,114171,1,8,0:0:0:0:
120,240,114342,1,0,0:0:0:0:
16,104,114514,1,0,0:0:0:0:
220,164,114685,1,0,0:0:0:0:
44,304,114857,2,0,B|36:256|36:256|52:200,1,90,8|0,0:0|0:0,0:0:0:0:
168,112,115200,5,4,0:0:0:0:
148,264,115371,2,0,P|136:196|144:164,1,90,0|8,0:0|0:0,0:0:0:0:
272,56,115714,1,0,0:0:0:0:
272,56,115885,1,0,0:0:0:0:
392,148,116057,2,0,L|368:240,1,90,0|8,0:0|0:0,0:0:0:0:
200,212,116400,2,0,L|224:304,1,90
344,344,116742,5,0,0:0:0:0:
132,260,116914,1,8,0:0:0:0:
308,132,117085,1,0,0:0:0:0:
260,348,117257,1,0,0:0:0:0:
204,156,117428,1,0,0:0:0:0:
416,76,117600,2,0,B|436:124|436:124|436:172,1,90,8|0,0:0|0:0,0:0:0:0:
332,292,117942,5,4,0:0:0:0:
164,300,118114,2,0,P|152:256|164:204,1,90,0|8,0:0|0:0,0:0:0:0:
324,132,118457,1,0,0:0:0:0:
324,132,118628,1,0,0:0:0:0:
252,264,118800,2,0,L|244:360,1,90,0|8,0:0|0:0,0:0:0:0:
252,96,119142,2,0,L|260:192,1,90
168,88,119485,5,0,0:0:0:0:
348,144,119657,1,8,0:0:0:0:
152,172,119828,1,0,0:0:0:0:
364,64,120000,1,0,0:0:0:0:
92,120,120171,1,0,0:0:0:0:
328,224,120342,2,0,L|432:216,1,90,8|0,0:0|0:0,0:0:0:0:
228,308,120685,5,4,0:0:0:0:
172,256,120857,2,0,P|160:216|168:156,1,90,0|8,0:0|0:0,0:0:0:0:
336,100,121200,1,0,0:0:0:0:
336,100,121371,1,0,0:0:0:0:
260,56,121542,2,0,P|212:48|168:56,1,90,0|8,0:0|0:0,0:0:0:0:
420,104,121885,2,0,P|465:86|499:58,1,90
296,184,122228,5,0,0:0:0:0:
368,16,122400,1,8,0:0:0:0:
392,240,122571,1,0,0:0:0:0:
148,160,122742,1,0,0:0:0:0:
364,172,122914,1,0,0:0:0:0:
160,252,123085,2,0,B|116:248|116:248|64:260,1,90,8|0,0:0|0:0,0:0:0:0:
212,344,123428,5,4,0:0:0:0:
260,224,123600,2,0,L|268:128,1,90,0|8,0:0|0:0,0:0:0:0:
140,40,123942,1,0,0:0:0:0:
140,40,124114,1,0,0:0:0:0:
84,160,124285,2,0,P|144:172|192:160,1,90,0|8,0:0|0:0,0:0:0:0:
408,24,124628,2,0,P|346:27|303:51,1,90
256,196,124971,5,0,0:0:0:0:
224,48,125142,1,8,0:0:0:0:
336,196,125314,1,0,0:0:0:0:
176,288,125485,1,0,0:0:0:0:
256,112,125657,1,0,0:0:0:0:
360,268,125828,2,0,L|344:364,1,90,8|0,0:0|0:0,0:0:0:0:
208,196,126171,5,4,0:0:0:0:
324,128,126342,2,0,P|376:116|404:92,1,90,0|8,0:0|0:0,0:0:0:0:
152,64,126685,1,0,0:0:0:0:
152,64,126857,2,0,P|100:76|72:100,1,90,4|0,0:0|0:0,0:0:0:0:
76,256,127200,1,8,0:0:0:0:
224,148,127371,1,0,0:0:0:0:
16,156,127542,5,4,0:0:0:0:
188,232,127714,1,0,0:0:0:0:
352,144,127885,2,0,B|364:200|364:200|360:248,1,90,8|0,0:0|0:0,0:0:0:0:
156,304,128228,5,4,0:0:0:0:
276,156,128400,1,0,0:0:0:0:
432,268,128571,2,0,B|444:212|444:212|440:164,1,90,8|0,0:0|0:0,0:0:0:0:
356,72,128914,5,4,0:0:0:0:
356,72,129085,1,4,0:0:0:0:
160,116,129257,1,8,0:0:0:0:
336,176,129428,1,4,0:0:0:0:
280,24,129600,1,4,0:0:0:0:
216,240,129771,1,4,0:0:0:0:
152,12,129942,1,8,0:0:0:0:
256,192,130114,12,2,131657,2:0:0:0:
304,52,132342,6,0,P|388:36|420:124,1,180
324,216,133371,2,0,P|316:252|316:276,1,45
320,332,133714,2,0,B|328:356|340:368|340:368|260:340|196:352,1,180,0|2,0:0|0:0,0:0:0:0:
72,288,135428,6,0,P|64:252|64:228,1,45
92,176,135771,2,0,P|140:192|144:116,1,135
116,68,136457,2,0,P|168:56|224:116,1,135
244,176,137142,2,0,P|276:196|368:160,1,135,2|0,0:0|0:0,0:0:0:0:
392,104,137828,2,0,L|404:52,1,45
460,120,138171,2,0,L|472:172,1,45
416,208,138514,2,0,P|408:240|492:288,1,135
468,232,139200,2,0,P|420:272|480:356,2,180,0|2|0,0:0|0:0|0:0,0:0:0:0:
480,112,140914,2,0,L|432:96,1,45
340,56,141257,2,0,L|436:32,1,90
376,120,141942,2,0,B|356:168|356:168|364:220,1,90
376,296,142628,6,0,P|312:272|200:316,1,180,2|0,0:0|0:0,0:0:0:0:
100,324,143485,1,0,0:0:0:0:
96,316,143657,2,0,P|92:288|96:256,1,45
156,200,144000,2,0,P|160:228|156:260,1,45
88,184,144342,2,0,L|80:132,1,45
24,92,144685,2,0,P|64:68|144:108,1,135
200,164,145371,2,0,P|240:176|360:116,1,180,2|0,0:0|0:0,0:0:0:0:
464,4,146400,2,0,P|476:36|480:56,1,45
460,172,146742,2,0,P|448:140|444:120,1,45
360,12,147085,2,0,L|368:64,1,45
364,240,147428,2,0,L|356:188,1,45
264,4,147771,2,0,P|256:48|260:64,1,45
260,248,148114,6,0,P|236:192|248:108,1,135,2|0,0:0|0:0,0:0:0:0:
320,40,148800,2,0,P|276:48|220:28,1,90
56,12,149485,2,0,P|60:48|68:68,1,45
48,144,149828,2,0,P|61:177|74:194,1,45
52,272,150171,2,0,P|96:308|176:320,1,135
232,280,150857,2,0,P|284:268|408:304,1,180,2|0,0:0|0:0,0:0:0:0:
456,360,151885,1,0,0:0:0:0:
436,236,152228,6,0,P|424:188|432:148,1,90
460,80,153771,5,0,0:0:0:0:
380,40,153942,2,0,L|304:52,3,62.9999980773926
276,132,154628,2,0,L|200:116,1,62.9999980773926
140,56,154971,2,0,P|100:64|72:80,1,62.9999980773926
120,192,155314,2,0,P|136:148|132:128,1,62.9999980773926
1,144,155657,2,0,L|64:148,3,62.9999980773926
196,200,156342,6,0,B|264:204|264:204|328:184,1,125.999996154785,4|0,0:0|0:0,0:0:0:0:
408,96,156857,1,0,0:0:0:0:
440,216,157028,2,0,L|420:280,3,62.9999980773926
372,328,157714,2,0,P|352:292|352:264,1,62.9999980773926
488,168,158057,2,0,P|498:128|490:101,1,62.9999980773926
388,40,158400,2,0,L|328:56,1,62.9999980773926
240,144,158742,2,0,L|168:128,1,62.9999980773926
88,44,159085,2,0,P|56:84|60:164,1,125.999996154785,4|0,0:0|0:0,0:0:0:0:
128,256,159600,1,0,0:0:0:0:
48,348,159771,2,0,L|116:360,3,62.9999980773926
240,332,160457,6,0,P|280:324|312:328,1,62.9999980773926
152,248,160800,2,0,P|112:240|80:244,1,62.9999980773926
368,192,161142,2,0,P|408:184|440:188,1,62.9999980773926
100,84,161485,2,0,P|60:76|28:80,1,62.9999980773926
20,292,161828,5,4,0:2:0:0:
55,275,161913,1,0,0:0:0:0:
94,269,161999,1,0,0:0:0:0:
133,274,162085,1,0,0:0:0:0:
170,288,162170,1,0,0:0:0:0:
206,302,162257,1,0,0:0:0:0:
245,306,162343,1,0,0:0:0:0:
284,300,162429,1,0,0:0:0:0:
320,284,162514,5,0,0:0:0:0:
350,253,162599,1,0,0:0:0:0:
362,212,162685,1,0,0:0:0:0:
353,171,162771,1,0,0:0:0:0:
325,138,162856,1,0,0:0:0:0:
285,124,162942,1,0,0:0:0:0:
242,131,163028,1,0,0:0:0:0:
209,157,163114,1,0,0:0:0:0:
192,197,163199,1,0,1:0:0:0:
56,76,164571,6,0,P|108:48|248:108,1,215.999993408203,4|8,0:0|0:0,0:0:0:0:
264,256,165085,1,0,0:0:0:0:
356,168,165257,2,0,B|364:112|364:112|344:52,1,107.999996704102
176,160,165600,1,8,0:0:0:0:
340,240,165771,2,0,L|456:224,1,107.999996704102
284,108,166114,2,8,L|168:92,1,107.999996704102,0|8,0:0|0:0,0:0:0:0:
72,208,166457,1,0,0:0:0:0:
113,29,166628,1,0,0:0:0:0:
184,198,166799,1,0,0:0:0:0:
27,103,166971,1,8,0:0:0:0:
210,87,167142,1,0,0:0:0:0:
88,248,167314,6,0,P|72:196|84:140,1,107.999996704102,4|0,0:0|0:0,0:0:0:0:
180,20,167657,1,8,0:0:0:0:
244,200,167828,1,0,0:0:0:0:
80,64,168000,2,0,B|132:80|132:80|196:80,1,107.999996704102
292,20,168342,1,8,0:0:0:0:
192,152,168514,2,0,P|256:136|300:156,1,107.999996704102
396,40,168857,2,0,P|460:56|504:36,1,107.999996704102,0|8,0:0|0:0,0:0:0:0:
404,212,169200,1,0,0:0:0:0:
312,52,169371,1,0,0:0:0:0:
308,268,169542,1,0,0:0:0:0:
380,124,169714,1,8,0:0:0:0:
240,168,169885,1,0,0:0:0:0:
360,220,170057,6,0,P|416:228|468:204,1,107.999996704102,4|0,0:0|0:0,0:0:0:0:
480,124,170400,1,8,0:0:0:0:
480,124,170571,1,0,0:0:0:0:
284,208,170742,2,0,L|304:320,1,107.999996704102
392,356,171085,1,8,0:0:0:0:
232,304,171257,2,0,P|176:296|124:312,1,107.999996704102
8,236,171600,2,0,P|64:244|116:228,1,107.999996704102,0|8,0:0|0:0,0:0:0:0:
132,160,171942,1,0,0:0:0:0:
180,268,172114,1,0,0:0:0:0:
48,172,172285,1,0,0:0:0:0:
208,128,172457,2,0,P|256:148|312:124,1,107.999996704102,8|0,0:0|0:0,0:0:0:0:
360,56,172800,6,0,P|344:128|360:168,1,107.999996704102,4|0,0:0|0:0,0:0:0:0:
440,248,173142,1,8,0:0:0:0:
424,120,173314,1,0,0:0:0:0:
340,256,173485,2,0,L|356:372,1,107.999996704102
392,196,173828,1,8,0:0:0:0:
272,304,174000,2,0,P|224:324|164:312,1,107.999996704102
212,232,174342,2,0,P|164:212|104:224,1,107.999996704102,0|8,0:0|0:0,0:0:0:0:
60,336,174685,1,0,0:0:0:0:
32,156,174857,1,0,0:0:0:0:
120,284,175028,1,0,0:0:0:0:
4,236,175200,1,0,0:0:0:0:
100,148,175371,6,0,P|104:112|96:88,1,53.9999983520508,2|0,2:0|2:0,2:0:0:0:
56,52,175542,6,0,P|104:36|280:72,1,233.999989288331,4|8,0:0|0:0,0:0:0:0:
388,200,176057,1,0,0:0:0:0:
260,336,176228,2,0,P|196:348|132:328,1,116.999994644165
80,164,176571,1,8,0:0:0:0:
244,160,176742,2,0,B|204:288,1,116.999994644165
20,104,177085,2,0,L|140:88,1,116.999994644165,0|8,0:0|0:0,0:0:0:0:
360,120,177428,1,0,0:0:0:0:
136,236,177600,2,0,P|80:216|44:172,1,116.999994644165
200,56,177942,2,0,P|256:76|292:120,1,116.999994644165,8|0,0:0|0:0,0:0:0:0:
360,232,178285,6,0,L|384:112,1,116.999994644165,4|0,0:0|0:0,0:0:0:0:
504,16,178628,1,8,0:0:0:0:
292,52,178800,1,0,0:0:0:0:
496,168,178971,2,0,P|424:184|368:176,1,116.999994644165
224,72,179314,1,8,0:0:0:0:
52,144,179485,2,0,P|48:204|72:260,1,116.999994644165
364,312,179828,2,0,P|368:252|344:196,1,116.999994644165,0|8,0:0|0:0,0:0:0:0:
120,100,180171,1,0,0:0:0:0:
216,328,180342,1,0,0:0:0:0:
252,56,180514,1,0,0:0:0:0:
101,203,180685,1,8,0:0:0:0:
303,261,180857,1,0,0:0:0:0:
180,76,181028,6,0,L|196:176,1,99.0000030212403,4|0,0:0|0:0,0:0:0:0:
224,328,181371,1,8,0:0:0:0:
284,180,181542,1,0,0:0:0:0:
344,328,181714,2,0,L|380:232,1,99.0000030212403
412,152,182057,1,8,0:0:0:0:
492,320,182228,2,0,P|480:272|448:228,1,99.0000030212403
328,168,182571,2,0,P|282:147|245:108,1,99.0000030212403,0|8,0:0|0:0,0:0:0:0:
192,240,182914,1,0,0:0:0:0:
112,148,183085,6,0,B|100:92|100:92|112:40,1,99.0000030212403
252,304,183428,2,0,B|264:248|264:248|252:196,1,99.0000030212403,8|0,0:0|0:0,0:0:0:0:
220,48,183771,5,8,0:0:0:0:
176,192,183942,1,0,0:0:0:0:
176,192,184114,1,0,0:0:0:0:
336,100,184285,1,8,0:0:0:0:
148,84,184457,1,0,0:0:0:0:
148,84,184628,1,0,0:0:0:0:
280,216,184800,5,8,0:0:0:0:
256,32,184971,1,0,0:0:0:0:
236,176,185142,1,8,0:0:0:0:
352,24,185314,1,0,0:0:0:0:
352,24,185485,1,0,0:0:0:0:
188,40,185657,1,8,0:0:0:0:
416,112,185828,1,0,0:0:0:0:
416,112,186000,1,4,0:0:0:0:
128,136,186171,5,8,0:0:0:0:
264,200,186342,2,0,L|328:208,1,49.5000015106202,2|0,2:0|2:0,2:0:0:0:
384,232,186514,6,0,L|164:264,1,215.999993408203,4|8,0:0|0:0,0:0:0:0:
32,140,187028,1,0,0:0:0:0:
216,160,187200,1,0,0:0:0:0:
200,348,187371,1,0,0:0:0:0:
28,236,187542,2,0,P|76:204|144:212,1,107.999996704102,8|0,0:0|0:0,0:0:0:0:
336,332,187885,2,0,P|389:330|432:300,1,107.999996704102
380,84,188228,1,8,0:0:0:0:
364,256,188400,1,0,0:0:0:0:
444,48,188571,1,0,0:0:0:0:
496,264,188742,1,0,0:0:0:0:
436,124,188914,1,8,0:0:0:0:
428,312,189085,1,0,0:0:0:0:
364,160,189257,6,0,B|288:128|232:200|148:152,1,215.999993408203,4|8,0:0|0:0,0:0:0:0:
96,44,189771,1,0,0:0:0:0:
36,228,189942,1,0,0:0:0:0:
12,68,190114,1,0,0:0:0:0:
112,200,190285,2,0,P|176:228|232:232,1,107.999996704102,8|0,0:0|0:0,0:0:0:0:
392,200,190628,2,0,L|520:168,1,107.999996704102
232,328,190971,2,0,L|104:296,1,107.999996704102,8|0,0:0|0:0,0:0:0:0:
408,276,191314,1,0,0:0:0:0:
184,172,191485,1,0,0:0:0:0:
360,120,191657,1,8,0:0:0:0:
168,176,191828,1,0,0:0:0:0:
412,200,192000,6,0,P|440:148|368:12,1,215.999993408203,4|8,0:0|0:0,0:0:0:0:
160,60,192514,1,0,0:0:0:0:
340,116,192685,1,0,0:0:0:0:
180,140,192857,1,0,0:0:0:0:
304,192,193028,2,0,P|248:216|192:196,1,107.999996704102,8|0,0:0|0:0,0:0:0:0:
104,52,193371,1,0,0:0:0:0:
144,268,193542,1,0,0:0:0:0:
232,72,193714,1,8,0:0:0:0:
200,312,193885,1,0,0:0:0:0:
76,144,194057,2,0,B|132:136|132:136|192:152,1,107.999996704102
308,256,194400,2,0,B|364:264|364:264|424:248,1,107.999996704102,8|0,0:0|0:0,0:0:0:0:
444,104,194742,5,4,0:0:0:0:
488,252,194914,1,0,0:0:0:0:
400,168,195085,1,8,0:0:0:0:
444,316,195257,1,0,0:0:0:0:
488,168,195428,1,0,0:0:0:0:
400,252,195599,1,0,0:0:0:0:
360,124,195771,1,8,0:0:0:0:
332,304,195942,1,0,0:0:0:0:
420,164,196114,2,0,P|428:108|300:84,1,215.999993408203,0|8,0:0|0:0,0:0:0:0:
196,228,196628,1,0,0:0:0:0:
124,152,196800,2,0,P|184:128|244:136,1,107.999996704102
276,312,197142,2,0,P|216:336|156:328,1,107.999996704102,8|0,0:0|0:0,0:0:0:0:
48,300,197485,6,0,B|96:252|-12:132|76:80,1,215.999993408203,4|8,0:0|0:0,0:0:0:0:
236,20,198000,1,0,0:0:0:0:
312,84,198171,2,0,P|324:144|308:200,1,107.999996704102
144,132,198514,1,8,0:0:0:0:
388,104,198685,1,0,0:0:0:0:
240,232,198857,2,0,L|124:208,1,107.999996704102
236,24,199200,2,0,L|352:48,1,107.999996704102,8|0,0:0|0:0,0:0:0:0:
320,260,199542,1,0,0:0:0:0:
176,104,199714,1,0,0:0:0:0:
400,116,199885,1,8,0:0:0:0:
160,100,200057,1,0,0:0:0:0:
404,184,200228,6,0,L|388:292,1,107.999996704102,4|0,0:0|0:0,0:0:0:0:
232,164,200571,2,0,L|248:56,1,107.999996704102,8|0,0:0|0:0,0:0:0:0:
366,110,200914,1,0,0:0:0:0:
161,153,201085,1,0,0:0:0:0:
352,239,201257,1,8,0:0:0:0:
247,57,201428,1,0,0:0:0:0:
226,266,201600,2,0,P|168:264|116:240,1,107.999996704102
28,88,201942,2,0,P|86:90|138:114,1,107.999996704102,8|0,0:0|0:0,0:0:0:0:
344,164,202285,2,0,P|397:170|449:157,1,107.999996704102
392,84,202628,1,8,0:0:0:0:
272,208,202800,1,0,0:0:0:0:
444,276,202971,5,4,0:0:0:0:
272,140,203142,1,0,0:0:0:0:
92,272,203314,2,0,B|76:212|76:212|88:164,1,107.999996704102,8|0,0:0|0:0,0:0:0:0:
368,124,203657,1,4,0:0:0:0:
208,280,203828,1,0,0:0:0:0:
24,136,204000,2,0,B|8:196|8:196|20:244,1,107.999996704102,8|0,0:0|0:0,0:0:0:0:
124,332,204342,5,4,0:0:0:0:
304,160,204514,1,0,0:0:0:0:
92,32,204685,2,0,P|80:88|96:136,1,107.999996704102,8|0,0:0|0:0,0:0:0:0:
204,360,205028,1,4,0:0:0:0:
24,188,205200,1,0,0:0:0:0:
236,60,205371,2,0,P|248:116|232:164,1,107.999996704102,8|0,0:0|0:0,0:0:0:0:
88,220,205714,5,4,0:0:0:0:
88,220,205885,1,4,0:0:0:0:
368,180,206057,1,8,0:0:0:0:
120,152,206228,1,4,0:0:0:0:
192,324,206400,1,4,0:0:0:0:
260,116,206571,1,4,0:0:0:0:
16,176,206742,1,8,0:0:0:0:
498,180,207085,6,0,P|256:146|13:180,1,490.909090909091,2|0,0:0|0:0,0:0:0:0:
