osu file format v14

[General]
AudioFilename: audio.mp3
AudioLeadIn: 0
PreviewTime: 52536
Countdown: 0
SampleSet: Soft
StackLeniency: 0.7
Mode: 0
LetterboxInBreaks: 0
WidescreenStoryboard: 0

[Editor]
Bookmarks: 30661
DistanceSpacing: 1.4
BeatDivisor: 8
GridSize: 4
TimelineZoom: 2

[Metadata]
Title:Kiss Me (TV Size)
TitleUnicode:Kiss Me (TV Size)
Artist:CAROLE & TUESDAY (CV: Nai Br.XX & Celeina Ann)
ArtistUnicode:CAROLE & TUESDAY (CV: Nai Br.XX & Celeina Ann)
Creator:-Mikan
Version:Harmony
Source:CAROLE & TUESDAY
Tags:Mocaotic evaotic キャロル & チューズデイ and anime english pop op opening
BeatmapID:2628926
BeatmapSetID:1264917

[Difficulty]
HPDrainRate:5
CircleSize:4.2
OverallDifficulty:7.5
ApproachRate:8.5
SliderMultiplier:1.6
SliderTickRate:1

[Events]
//Background and Video events
0,0,"a.jpg",0,0
Video,320,"anime.avi"
//Break Periods
//Storyboard Layer 0 (Background)
//Storyboard Layer 1 (Fail)
//Storyboard Layer 2 (Pass)
//Storyboard Layer 3 (Foreground)
//Storyboard Layer 4 (Overlay)
//Storyboard Sound Samples

[TimingPoints]
661,625,4,2,1,50,1,0
661,-200,4,2,1,50,0,0
10036,-166.666666666667,4,2,1,50,0,0
10661,-100,4,2,1,60,0,0
11598,-83.3333333333333,4,2,1,60,0,0
12848,-100,4,2,1,60,0,0
13161,-50,4,2,1,60,0,0
14098,-125,4,2,1,60,0,0
15661,-100,4,2,1,60,0,0
16598,-111.111111111111,4,2,1,60,0,0
18161,-66.6666666666667,4,2,1,60,0,0
19098,-100,4,2,1,60,0,0
20036,-133.333333333333,4,2,1,60,0,0
20661,-100,4,2,1,60,0,0
23161,-50,4,2,1,60,0,0
23473,-66.6666666666667,4,2,1,60,0,0
24098,-200,4,2,1,60,0,0
25661,-100,4,2,1,60,0,0
26598,-66.6666666666667,4,2,1,60,0,0
27119,-133.333333333333,4,2,1,60,0,0
27536,-50,4,2,1,60,0,0
28161,-66.6666666666667,4,2,1,60,0,0
29098,-100,4,2,1,60,0,0
30036,-76.9230769230769,4,2,1,60,0,0
30661,-100,4,2,1,70,0,0
31286,-66.6666666666667,4,2,1,70,0,0
32015,-100,4,2,1,70,0,0
33161,-66.6666666666667,4,2,1,70,0,0
33786,-55.5555555555556,4,2,1,70,0,0
34098,-100,4,2,1,70,0,0
36286,-66.6666666666667,4,2,1,70,0,0
37119,-100,4,2,1,70,0,0
37536,-76.9230769230769,4,2,1,70,0,0
38161,-100,4,2,1,70,0,0
38786,-66.6666666666667,4,2,1,70,0,0
40348,-133.333333333333,4,2,1,70,0,0
40661,-76.9230769230769,4,2,1,70,0,0
41286,-100,4,2,1,70,0,0
42536,-50,4,2,1,70,0,0
43161,-100,4,2,1,70,0,0
43786,-66.6666666666667,4,2,1,70,0,0
45036,-100,4,2,1,70,0,0
45661,-125,4,2,1,70,0,0
49098,-90.9090909090909,4,2,1,70,0,0
53161,-66.6666666666667,4,2,1,80,0,1
53786,-40,4,2,1,80,0,1
54411,-100,4,2,1,80,0,1
54723,-80,4,2,1,80,0,1
55036,-40,4,2,1,80,0,1
55973,-100,4,2,1,80,0,1
56286,-50,4,2,1,80,0,1
56598,-66.6666666666667,4,2,1,80,0,1
57223,-50,4,2,1,80,0,1
57536,-33.3333333333333,4,2,1,80,0,1
58161,-66.6666666666667,4,2,1,80,0,1
58786,-50,4,2,1,80,0,1
59411,-100,4,2,1,80,0,1
60348,-50,4,2,1,80,0,1
60661,-40,4,2,1,80,0,1
62223,-100,4,2,1,80,0,1
62536,-33.3333333333333,4,2,1,80,0,1
63161,-66.6666666666667,4,2,1,80,0,1
63786,-40,4,2,1,80,0,1
65036,-33.3333333333333,4,2,1,80,0,1
65661,-100,4,2,1,80,0,1
66286,-50,4,2,1,80,0,1
66598,-100,4,2,1,80,0,1
67536,-50,4,2,1,80,0,1
67848,-133.333333333333,4,2,1,80,0,1
68161,-66.6666666666667,4,2,1,80,0,1
69411,-50,4,2,1,80,0,1
70036,-100,4,2,1,80,0,1
70661,-50,4,2,1,80,0,1
71911,-33.3333333333333,4,2,1,80,0,1
72692,-66.6666666666667,4,2,1,80,0,1
73161,-100,4,2,1,60,0,0
73786,-111.111111111111,4,2,1,60,0,0
74411,-125,4,2,1,55,0,0
75661,-166.666666666667,4,2,1,50,0,0
76911,-166.666666666667,4,2,1,5,0,0
78161,-66.6666666666667,4,2,1,70,0,0
78786,-50,4,2,1,70,0,0
79411,-66.6666666666667,4,2,1,70,0,0
80036,-50,4,2,1,70,0,0
80661,-100,4,2,1,70,0,0
81286,-66.6666666666667,4,2,1,70,0,0
81911,-50,4,2,1,70,0,0
82327,-100,4,2,1,70,0,0
82536,-66.6666666666667,4,2,1,70,0,0
83161,-100,4,2,1,70,0,0
83786,-66.6666666666667,4,2,1,70,0,0
85556,-158.730158730159,4,2,1,60,0,0
88056,-158.730158730159,4,2,1,5,0,0

[Colours]
Combo1 : 128,128,128
Combo2 : 183,255,255
Combo3 : 255,255,166
Combo4 : 255,157,157
Combo5 : 255,198,140
Combo6 : 192,192,192

[HitObjects]
95,300,661,70,0,P|89:324|87:344,2,40,2|0|0,0:0|0:0|3:0,0:0:0:0:
40,252,1520,5,2,0:0:0:0:
63,183,1832,69,2,0:0:0:0:
136,165,2145,5,2,0:0:0:0:
168,142,2457,69,2,0:0:0:0:
168,142,2536,1,2,0:0:0:0:
161,101,2770,5,2,0:0:0:0:
74,51,3082,69,2,0:0:0:0:
69,57,3161,2,0,P|77:87|79:98,1,40,2|0,0:0|0:0,0:0:0:0:
217,181,3786,5,0,3:0:0:0:
217,181,4098,2,0,P|262:181|319:237,1,120,2|0,0:0|3:0,0:0:0:0:
472,70,5661,70,0,P|475:44|479:25,2,40,2|0|0,0:0|0:0|3:0,0:0:0:0:
414,118,6520,5,2,0:0:0:0:
341,115,6832,69,2,0:0:0:0:
316,45,7145,5,2,0:0:0:0:
284,67,7457,69,2,0:0:0:0:
284,67,7536,1,2,0:0:0:0:
247,66,7770,5,2,0:0:0:0:
184,23,8082,69,0,0:0:0:0:
179,30,8161,2,0,P|150:32|135:36,1,40,2|0,0:0|0:0,0:0:0:0:
414,118,8786,5,0,3:0:0:0:
414,118,9098,2,0,P|400:167|391:223,1,106.666666666667,2|0,0:0|0:0,0:0:0:0:
305,333,10036,22,2,P|300:305|312:330,1,79.9999975585938,2|0,3:1|0:0,0:1:0:0:
407,288,10661,70,0,B|365:302|328:273|345:258|298:225|252:251,1,160,0|2,1:0|3:2,0:0:0:0:
40,229,11494,1,2,0:0:0:0:
47,226,11598,2,0,B|167:269|161:425|22:426|90:286|144:279,1,287.999991210938,2|8,1:2|0:1,0:0:0:0:
257,50,12848,6,0,B|259:24|259:24|242:-15,1,53.3333333333333,2|0,0:0|0:0,0:0:0:0:
180,37,13161,2,0,L|203:204,2,160,2|2|0,1:2|0:0|3:0,0:0:0:0:
430,340,14098,70,0,B|457:218|457:218|419:229|391:215,1,192,2|0,1:2|3:0,0:0:0:0:
391,215,15661,6,0,P|376:154|392:127,1,80,0|2,1:0|0:0,0:0:0:0:
501,12,16286,2,0,L|488:85,1,53.3333333333333,2|2,3:2|0:0,0:0:0:0:
499,79,16598,70,0,B|448:102|401:61|434:36|377:7|319:27,1,191.999994140625,2|0,1:2|0:0,0:0:0:0:
329,23,17536,1,8,0:1:0:0:
201,195,17744,5,2,0:0:0:0:
192,191,17848,2,0,L|204:126,1,47.9999985351563,2|0,0:0|0:0,0:0:0:0:
112,221,18161,2,0,P|77:249|90:336,2,120.000004577637,2|2|0,1:2|0:0|3:0,0:0:0:0:
328,132,19098,70,0,P|367:139|399:142,1,53.3333333333333,2|0,1:2|0:0,0:0:0:0:
462,167,19411,2,0,B|413:177|413:177|389:203|389:203|327:216,1,133.333333333333,2|0,0:0|0:0,0:0:0:0:
152,345,20036,6,2,P|180:360|219:352,1,60.0000022888185,2|2,3:1|0:0,0:1:0:0:
220,344,20661,70,0,P|209:284|191:205,1,133.333333333333,2|2,1:2|0:0,0:0:0:0:
233,147,21286,2,0,B|243:137|243:137|257:139|257:139|247:150|247:150|233:149,1,53.3333333333333,0|0,3:2|0:0,0:0:0:0:
136,129,21598,6,0,B|266:122|204:213|336:206,1,213.333333333333,2|2,1:2|0:0,0:0:0:0:
323,206,22536,1,8,0:1:0:0:
477,71,22848,2,0,B|486:45|486:45|473:14,1,53.3333333333333,2|0,0:0|0:0,0:0:0:0:
403,50,23161,70,0,L|423:179,1,106.666666666667,2|0,1:2|0:0,0:0:0:0:
512,220,23473,2,0,B|451:219|468:263|398:264,1,120.000004577637,2|0,0:0|3:0,0:0:0:0:
403,263,24098,6,0,P|374:312|409:365,1,120,2|0,1:2|3:0,0:0:0:0:
185,320,25661,70,0,L|116:339,2,60,2|2|2,1:2|0:0|0:0,0:0:0:0:
247,363,26286,1,0,3:0:0:0:
86,162,26598,6,0,L|70:285,1,120.000004577637,2|2,1:2|0:0,0:0:0:0:
158,133,27119,2,0,P|173:106|165:66,1,60.0000022888185,2|0,0:0|0:0,0:0:0:0:
158,66,27536,70,0,B|101:72|101:72|98:76|98:76|22:85,2,120,8|2|2,0:1|0:0|0:0,0:0:0:0:
32,76,28161,6,0,B|77:47|126:71|140:106|140:106|154:141|191:165|248:141,1,240.000009155274,0|2,1:0|3:2,0:0:0:0:
511,340,29098,70,0,B|450:307|356:336|362:415|428:383|428:323,1,213.333333333333,2|0,1:2|0:0,0:0:0:0:
368,275,30036,2,2,P|358:230|336:189,1,86.6666626993817,10|0,0:1|1:0,0:1:0:0:
503,0,30556,21,2,0:0:0:0:
512,7,30661,2,0,L|498:92,1,80,4|0,1:0|1:0,0:0:0:0:
400,145,31181,1,2,0:0:0:0:
337,98,31286,2,0,B|268:102|297:152|208:147,1,120.000004577637,8|2,0:0|1:2,0:0:0:0:
126,55,31806,1,2,0:0:0:0:
204,0,32015,6,0,L|211:59,2,53.3333333333333,2|2|0,0:0|0:0|1:0,0:0:0:0:
204,0,32536,1,10,0:0:0:0:
33,108,32744,70,0,P|13:88|37:104,1,80,0|2,1:0|0:0,0:0:0:0:
126,55,33161,6,0,B|118:112|118:112|119:119|119:119|109:186,1,120.000004577637,2|2,1:2|0:0,0:0:0:0:
20,253,33681,1,2,0:0:0:0:
81,297,33786,2,0,P|122:261|223:294,2,143.999995605469,10|0|2,0:0|1:0|0:0,0:0:0:0:
81,297,34723,69,2,0:0:0:0:
262,173,34931,1,2,0:0:0:0:
210,120,35036,6,0,L|202:85,1,26.6666666666667,10|0,0:0|0:0,0:0:0:0:
363,222,35296,2,0,B|390:230|390:230|393:235|393:235|425:244,1,66.6666666666667,2|0,1:2|0:0,0:0:0:0:
454,241,35661,70,0,P|444:287|437:336,1,80,0|0,1:0|1:0,0:0:0:0:
339,384,36181,1,2,0:0:0:0:
285,332,36286,2,0,P|236:316|171:367,1,120.000004577637,10|0,0:0|1:0,0:0:0:0:
37,258,36806,1,2,0:0:0:0:
99,168,37015,5,2,0:0:0:0:
110,173,37119,2,0,L|120:254,1,80,2|0,0:0|1:0,0:0:0:0:
28,334,37536,2,0,P|12:302|22:261,1,69.3333301595054,10|0,0:0|1:0,0:0:0:0:
37,258,37848,1,2,0:0:0:0:
179,348,38161,70,0,L|276:364,1,80,0|0,1:0|0:0,0:0:0:0:
331,310,38681,1,2,0:0:0:0:
275,261,38786,2,0,P|265:210|248:162,1,80.0000030517579,10|0,0:0|0:0,0:0:0:0:
374,53,39098,6,0,L|359:122,1,40.000001525879,2|0,1:2|0:0,0:0:0:0:
415,149,39306,2,0,P|346:127|293:121,2,120.000004577637,2|2|0,0:0|1:2|1:0,0:0:0:0:
482,230,40036,70,2,P|498:206|477:224,1,80.0000030517579,8|0,0:2|1:0,0:1:0:0:
425,275,40348,2,0,P|431:300|433:327,1,40.000001525879,2|0,0:0|0:0,0:0:0:0:
505,383,40661,5,0,1:0:0:0:
326,246,40973,2,0,L|234:269,1,69.3333301595054,2|0,1:2|0:0,0:0:0:0:
255,277,41286,1,10,0:0:0:0:
421,162,41494,1,2,0:0:0:0:
415,149,41598,1,0,1:0:0:0:
479,96,41806,70,0,P|484:58|496:9,2,80,2|2|2,0:0|0:0|1:2,0:0:0:0:
415,149,42536,6,0,B|378:149|350:131|371:113|334:92|287:105,1,120,10|0,0:0|1:0,0:0:0:0:
309,101,43056,1,2,0:0:0:0:
225,75,43161,70,0,P|235:117|239:153,1,80,0|2,1:0|0:0,0:0:0:0:
114,313,43681,1,2,0:0:0:0:
151,250,43786,2,0,P|215:242|260:291,1,120.000004577637,8|2,0:0|1:2,0:0:0:0:
421,162,44306,6,0,P|357:151|309:215,2,120.000004577637,2|2|2,0:0|0:0|1:2,0:0:0:0:
476,218,45036,70,0,L|515:209,1,26.6666666666667,10|0,0:0|0:0,0:0:0:0:
335,114,45296,1,0,1:0:0:0:
335,114,45556,5,2,0:0:0:0:
395,65,45661,2,0,P|388:30|379:-2,2,64,0|2|2,1:0|1:2|3:2,0:0:0:0:
171,259,46598,70,0,B|126:268|74:232|107:208|45:172|-13:201,1,192,2|2,0:0|0:0,0:0:0:0:
138,51,47744,1,2,0:0:0:0:
65,25,48056,5,2,0:0:0:0:
174,127,48161,2,0,P|159:185|156:205,2,64,2|2|2,0:0|0:0|3:2,0:0:0:0:
14,267,49098,70,0,B|96:320|92:426|20:413|22:355|84:322,1,234.666673828125,2|0,0:0|0:0,0:0:0:0:
153,267,50036,22,0,P|195:284|229:293,1,58.6666684570313,8|0,0:0|0:0,0:0:0:0:
326,343,50661,1,0,1:0:0:0:
254,379,50973,1,0,1:0:0:0:
423,222,51286,5,8,0:0:0:0:
349,186,51598,69,0,1:0:0:0:
376,282,52119,1,0,1:0:0:0:
404,375,52431,1,0,1:0:0:0:
485,323,52536,54,0,L|451:319,1,29.3333342285157,10|0,0:0|0:0,0:0:0:0:
281,197,52796,2,0,P|322:201|354:178,1,73.3333355712891,0|0,1:0|0:0,0:0:0:0:
422,86,53161,54,0,P|432:42|454:5,1,60.0000022888184,4|2,1:0|0:0,0:0:0:0:
368,0,53473,1,2,3:2:0:0:
492,137,53629,1,2,0:0:0:0:
207,287,53786,6,0,L|-5:259,1,200,14|0,0:0|3:2,0:0:0:0:
95,356,54254,5,2,0:0:0:0:
268,198,54411,2,0,P|287:159|271:102,1,80,2|0,1:2|3:0,0:0:0:0:
223,78,54879,5,2,0:0:0:0:
323,256,55036,2,0,B|372:279|427:242|394:222|445:174|509:210,2,200,14|2|0,0:0|3:2|1:0,0:0:0:0:
88,21,55869,37,2,0:0:0:0:
97,29,55973,2,0,L|87:98,1,53.3333333333333,2|0,3:2|0:0,0:0:0:0:
3,227,56286,2,0,P|-18:169|54:137,1,106.666666666667,10|0,0:0|0:0,0:0:0:0:
14,148,56598,6,0,P|78:162|111:173,1,80.0000030517579,2|2,3:2|0:0,0:0:0:0:
145,221,56911,1,0,1:0:0:0:
368,0,57119,1,2,0:0:0:0:
361,19,57223,2,0,P|303:34|249:42,1,106.666666666667,2|0,3:2|0:0,0:0:0:0:
145,221,57536,6,0,B|278:143|280:-80|113:-25|82:54|186:139|266:146,1,400.00001525879,14|0,0:0|0:0,0:0:0:0:
291,175,58161,6,0,P|351:192|368:210,1,60.0000022888184,2|2,1:2|0:0,0:0:0:0:
434,141,58473,1,2,3:2:0:0:
366,77,58629,37,2,0:0:0:0:
512,319,58786,2,0,B|475:311|432:337|450:356|409:388|358:379,1,160,14|0,0:0|3:0,0:0:0:0:
265,326,59254,5,2,0:0:0:0:
347,189,59411,2,0,L|366:290,1,80,0|0,1:0|3:0,0:0:0:0:
479,93,59931,5,2,0:0:0:0:
414,56,60036,2,0,P|377:75|349:77,1,53.3333333333333,10|0,0:0|0:0,0:0:0:0:
303,123,60348,2,0,P|233:105|208:44,1,106.666666666667,2|0,3:2|0:0,0:0:0:0:
154,5,60661,6,0,B|166:104|166:104|170:109|170:109|183:213,1,200,2|2,1:2|3:2,0:0:0:0:
9,382,61286,2,0,B|16:319|16:319|19:316|19:316|27:250,1,133.333333333333,10|0,0:0|0:0,0:0:0:0:
18,240,61598,1,2,3:2:0:0:
134,349,61806,37,2,0:0:0:0:
192,300,61911,2,0,B|238:293|262:323|250:329|275:361|334:353,1,133.333333333333,2|0,1:2|0:0,0:0:0:0:
446,259,62223,2,0,B|448:233|448:233|436:197,1,53.3333333333333,2|0,3:2|0:0,0:0:0:0:
355,142,62536,6,0,L|386:386,1,240.000009155274,14|0,0:0|3:0,0:0:0:0:
385,380,63056,5,2,0:0:0:0:
454,341,63161,2,0,P|489:345|538:366,1,60.0000022888184,4|2,1:0|0:0,0:0:0:0:
264,208,63473,1,2,3:2:0:0:
355,142,63629,5,2,0:0:0:0:
249,319,63786,2,0,P|178:332|129:354,1,100,14|2,0:0|0:0,0:0:0:0:
512,240,64098,38,0,P|503:158|435:207,2,200,2|0|0,3:2|1:0|3:0,0:0:0:0:
416,69,64879,5,2,0:0:0:0:
260,246,65036,2,0,B|199:269|137:210|193:183|121:127|47:166,1,240.000009155274,14|0,0:0|3:0,0:0:0:0:
15,228,65504,5,2,0:0:0:0:
222,116,65661,2,0,L|206:26,1,80,2|0,1:2|3:0,0:0:0:0:
136,0,66129,5,2,0:0:0:0:
360,232,66286,2,0,L|341:360,1,106.666666666667,14|0,0:0|0:0,0:0:0:0:
429,382,66598,38,0,P|446:366|426:381,1,80,2|0,3:2|1:0,0:0:0:0:
260,246,67119,5,2,0:0:0:0:
248,240,67223,2,0,B|217:241|217:241|184:258,1,53.3333333333333,2|0,3:2|0:0,0:0:0:0:
38,334,67536,6,0,P|84:321|143:365,1,106.666666666667,10|0,0:0|0:0,0:0:0:0:
144,337,67848,2,0,L|153:381,1,40.000001525879,2|0,3:2|0:0,0:0:0:0:
15,228,68161,6,0,L|28:158,1,60.0000022888184,2|2,1:2|0:0,0:0:0:0:
2,94,68473,1,2,3:2:0:0:
142,190,68629,1,2,0:0:0:0:
82,26,68786,38,0,L|97:106,1,60.0000022888184,14|2,0:0|0:0,0:0:0:0:
25,169,69098,1,2,3:2:0:0:
184,62,69254,1,2,0:0:0:0:
311,232,69411,6,0,B|360:238|396:212|367:196|413:164|472:180,1,160,2|0,1:2|3:0,0:0:0:0:
505,235,69879,5,2,0:0:0:0:
315,157,70036,2,0,P|296:122|302:83,1,80,10|0,0:0|3:0,0:0:0:0:
457,1,70504,5,2,0:0:0:0:
462,9,70582,1,2,0:0:0:0:
469,17,70661,2,0,L|452:184,1,160,2|2,1:2|3:2,0:0:0:0:
505,235,71129,37,2,0:0:0:0:
215,364,71286,2,0,P|279:317|370:368,1,160,14|2,0:0|3:2,0:0:0:0:
413,384,71754,5,2,0:0:0:0:
188,258,71911,2,0,B|224:104|224:104|179:141|111:112,2,240.000009155274,4|2|8,1:2|3:2|0:0,0:0:0:0:
108,332,72692,6,0,B|75:368|33:346|33:346|70:350|89:323,1,120.000004577637,2|2,0:0|0:0,0:0:0:0:
188,258,73161,6,0,L|329:290,1,120,2|0,0:0|0:0,0:0:0:0:
361,232,73786,2,0,P|398:192|377:120,1,107.999996704102,2|0,0:0|0:0,0:0:0:0:
453,265,74411,38,0,P|464:314|476:378,1,96,2|0,0:0|0:0,0:0:0:0:
472,358,75036,1,2,0:0:0:0:
279,181,75348,2,0,L|294:143,1,32,2|0,0:0|0:0,0:0:0:0:
243,88,75661,6,0,B|143:90|185:166|73:166,1,191.999994140625,2|0,0:0|0:0,0:0:0:0:
76,165,78161,6,0,L|67:259,1,80.0000030517579,2|0,1:2|0:0,0:0:0:0:
76,253,78473,1,0,3:0:0:0:
153,328,78681,1,2,0:0:0:0:
164,316,78786,2,0,B|261:309|213:380|330:370,1,160,10|0,0:0|3:0,0:0:0:0:
434,252,79306,5,2,0:0:0:0:
447,248,79411,2,0,P|461:205|433:158,1,80.0000030517579,2|0,1:2|0:0,0:0:0:0:
338,103,79723,2,0,L|354:188,1,80.0000030517579,0|0,3:0|0:0,0:0:0:0:
234,296,80036,38,0,B|174:336|56:347|39:200|151:252|153:338,1,266.666666666667,10|2,0:0|0:0,0:0:0:0:
152,327,80661,1,2,1:2:0:0:
72,155,80973,6,0,L|82:85,1,53.3333333333333,0|0,3:0|0:0,0:0:0:0:
23,0,81286,2,0,P|0:33|10:93,1,80.0000030517579,10|0,0:0|0:0,0:0:0:0:
10,81,81598,1,0,3:0:0:0:
156,37,81806,5,2,0:0:0:0:
165,27,81911,2,0,B|215:15|245:53|226:67|267:96|312:79,1,160,2|0,1:2|3:0,0:0:0:0:
317,68,82327,2,0,L|311:43,1,26.6666666666667,2|0,0:0|3:0,0:0:0:0:
507,109,82536,6,0,P|423:100|351:211,1,200.000007629395,10|2,0:0|0:0,0:0:0:0:
410,236,83161,38,0,P|466:254|480:264,1,53.3333333333333,2|0,1:2|0:0,0:0:0:0:
476,243,83473,1,0,3:0:0:0:
341,340,83681,1,2,0:0:0:0:
326,330,83786,2,0,P|260:340|192:363,1,120.000004577637,10|0,0:0|3:0,0:0:0:0:
18,276,84306,5,2,0:0:0:0:
18,276,84411,1,2,1:2:0:0:
73,219,84619,1,2,0:0:0:0:
73,219,84723,2,0,L|62:179,2,40.000001525879,0|2|0,3:0|0:0|3:0,0:0:0:0:
149,259,85036,2,0,P|159:187|170:133,1,120.000004577637,10|0,0:0|3:0,0:0:0:0:
0,91,85556,6,0,B|37:58|47:24|47:24|84:22|105:-1|105:-1|139:19|175:17|175:17|152:32|151:61|124:111|64:96|39:86|17:96,1,403.199987695313,2|0,0:0|0:0,0:0:0:0:
