osu file format v14

[General]
AudioFilename: audio.mp3
AudioLeadIn: 0
PreviewTime: 52536
Countdown: 0
SampleSet: Soft
StackLeniency: 0.7
Mode: 0
LetterboxInBreaks: 0
WidescreenStoryboard: 1

[Editor]
Bookmarks: 30661
DistanceSpacing: 1.4
BeatDivisor: 12
GridSize: 4
TimelineZoom: 2

[Metadata]
Title:Kiss Me (TV Size)
TitleUnicode:Kiss Me (TV Size)
Artist:CAROLE & TUESDAY (CV: Nai Br.XX & Celeina Ann)
ArtistUnicode:CAROLE & TUESDAY (CV: Nai Br.XX & Celeina Ann)
Creator:-Mikan
Version:Hard
Source:CAROLE & TUESDAY
Tags:Mocaotic evaotic キャロル & チューズデイ and anime english pop op opening
BeatmapID:2629398
BeatmapSetID:1264917

[Difficulty]
HPDrainRate:5
CircleSize:4
OverallDifficulty:7
ApproachRate:7.5
SliderMultiplier:1.5
SliderTickRate:1

[Events]
//Background and Video events
0,0,"a.jpg",0,0
Video,320,"anime.avi"
//Break Periods
//Storyboard Layer 0 (Background)
//Storyboard Layer 1 (Fail)
//Storyboard Layer 2 (Pass)
//Storyboard Layer 3 (Foreground)
//Storyboard Layer 4 (Overlay)
//Storyboard Sound Samples

[TimingPoints]
661,625,4,2,1,50,1,0
661,-142.857142857143,4,2,1,50,0,0
10036,-125,4,2,1,50,0,0
10661,-100,4,2,1,60,0,0
11598,-83.3333333333333,4,2,1,60,0,0
12848,-100,4,2,1,60,0,0
13161,-100,4,2,1,60,0,0
14098,-100,4,2,1,60,0,0
15661,-100,4,2,1,60,0,0
16598,-100,4,2,1,60,0,0
18161,-100,4,2,1,60,0,0
19098,-100,4,2,1,60,0,0
20036,-100,4,2,1,60,0,0
20661,-100,4,2,1,60,0,0
23161,-100,4,2,1,60,0,0
23473,-100,4,2,1,60,0,0
24098,-100,4,2,1,60,0,0
25661,-100,4,2,1,60,0,0
26598,-100,4,2,1,60,0,0
27119,-100,4,2,1,60,0,0
27536,-100,4,2,1,60,0,0
28161,-100,4,2,1,60,0,0
29098,-100,4,2,1,60,0,0
30036,-100,4,2,1,60,0,0
30661,-100,4,2,1,70,0,0
31286,-100,4,2,1,70,0,0
32015,-100,4,2,1,70,0,0
33161,-100,4,2,1,70,0,0
33786,-100,4,2,1,70,0,0
34098,-100,4,2,1,70,0,0
36286,-100,4,2,1,70,0,0
37119,-100,4,2,1,70,0,0
37536,-100,4,2,1,70,0,0
38161,-100,4,2,1,70,0,0
38786,-100,4,2,1,70,0,0
40348,-100,4,2,1,70,0,0
40661,-100,4,2,1,70,0,0
41286,-100,4,2,1,70,0,0
42536,-100,4,2,1,70,0,0
43161,-100,4,2,1,70,0,0
43786,-100,4,2,1,70,0,0
45036,-100,4,2,1,70,0,0
45661,-100,4,2,1,70,0,0
49098,-100,4,2,1,70,0,0
53161,-76.9230769230769,4,2,1,80,0,1
53786,-76.9230769230769,4,2,1,80,0,1
54411,-76.9230769230769,4,2,1,80,0,1
54723,-76.9230769230769,4,2,1,80,0,1
55036,-76.9230769230769,4,2,1,80,0,1
55973,-76.9230769230769,4,2,1,80,0,1
56286,-76.9230769230769,4,2,1,80,0,1
56598,-76.9230769230769,4,2,1,80,0,1
57223,-76.9230769230769,4,2,1,80,0,1
57536,-76.9230769230769,4,2,1,80,0,1
58161,-76.9230769230769,4,2,1,80,0,1
58786,-76.9230769230769,4,2,1,80,0,1
59411,-76.9230769230769,4,2,1,80,0,1
60348,-76.9230769230769,4,2,1,80,0,1
60661,-76.9230769230769,4,2,1,80,0,1
62223,-76.9230769230769,4,2,1,80,0,1
62536,-76.9230769230769,4,2,1,80,0,1
63161,-76.9230769230769,4,2,1,80,0,1
63786,-76.9230769230769,4,2,1,80,0,1
65036,-76.9230769230769,4,2,1,80,0,1
65661,-76.9230769230769,4,2,1,80,0,1
66286,-76.9230769230769,4,2,1,80,0,1
66598,-76.9230769230769,4,2,1,80,0,1
67536,-76.9230769230769,4,2,1,80,0,1
67848,-76.9230769230769,4,2,1,80,0,1
68161,-76.9230769230769,4,2,1,80,0,1
69411,-76.9230769230769,4,2,1,80,0,1
70036,-76.9230769230769,4,2,1,80,0,1
70661,-76.9230769230769,4,2,1,80,0,1
71911,-76.9230769230769,4,2,1,80,0,1
72692,-76.9230769230769,4,2,1,80,0,1
73161,-100,4,2,1,60,0,0
73786,-100,4,2,1,60,0,0
74411,-100,4,2,1,55,0,0
75661,-100,4,2,1,50,0,0
76911,-100,4,2,1,5,0,0
78161,-100,4,2,1,70,0,0
78786,-100,4,2,1,70,0,0
79411,-100,4,2,1,70,0,0
80036,-100,4,2,1,70,0,0
80661,-100,4,2,1,70,0,0
81286,-100,4,2,1,70,0,0
81911,-100,4,2,1,70,0,0
82327,-100,4,2,1,70,0,0
82536,-100,4,2,1,70,0,0
83161,-100,4,2,1,70,0,0
83786,-100,4,2,1,70,0,0
85556,-100,4,2,1,60,0,0
88056,-100,4,2,1,5,0,0

[Colours]
Combo1 : 128,128,128
Combo2 : 183,255,255
Combo3 : 255,255,166
Combo4 : 255,157,157
Combo5 : 255,198,140
Combo6 : 192,192,192

[HitObjects]
23,348,661,70,0,P|57:332|84:331,1,52.4999983978272,2|0,0:0|0:0,0:0:0:0:
155,375,1286,1,0,3:0:0:0:
231,351,1520,2,0,L|288:364,1,52.4999983978272,2|2,0:0|0:0,0:0:0:0:
179,287,2145,2,0,P|171:264|177:234,1,52.4999983978272,2|2,0:0|0:0,0:0:0:0:
175,236,2536,1,2,0:0:0:0:
248,198,2770,2,0,L|253:138,1,52.4999983978272,2|2,0:0|0:0,0:0:0:0:
252,145,3161,6,0,P|216:129|199:126,1,52.4999983978272,2|0,0:0|0:0,0:0:0:0:
148,52,3786,1,0,3:0:0:0:
227,4,4098,2,0,B|331:-11|279:55|382:43,1,157.499995193482,2|0,0:0|3:0,0:0:0:0:
512,166,5661,70,0,P|505:198|502:223,1,52.4999983978272,2|0,0:0|0:0,0:0:0:0:
431,283,6286,1,0,3:0:0:0:
372,230,6520,2,0,L|361:168,1,52.4999983978272,2|2,0:0|0:0,0:0:0:0:
339,299,7145,2,0,P|316:313|285:310,1,52.4999983978272,2|2,0:0|0:0,0:0:0:0:
291,312,7536,1,2,0:0:0:0:
235,269,7770,2,0,L|176:265,1,52.4999983978272,2|2,0:0|0:0,0:0:0:0:
182,265,8161,6,0,P|168:289|161:321,1,52.4999983978272,2|0,0:0|0:0,0:0:0:0:
94,374,8786,1,0,3:0:0:0:
24,316,9098,2,0,P|14:270|-18:184,1,131.249995994568,2|0,0:0|0:0,0:0:0:0:
4,174,10036,6,2,P|28:154|20:100,1,90,2|0,3:1|0:0,0:1:0:0:
0,60,10661,6,0,P|64:73|161:78,1,150,0|2,1:0|3:2,0:0:0:0:
229,68,11598,2,0,B|264:50|272:20|272:20|239:119|232:222,1,269.999991760254,2|8,1:2|0:1,0:0:0:0:
275,289,12848,1,2,0:0:0:0:
349,259,13161,70,0,P|400:274|421:293,2,75,2|2|0,1:2|0:0|3:0,0:0:0:0:
275,289,14098,2,0,P|223:354|96:318,1,225,2|0,1:2|3:0,0:0:0:0:
275,149,15661,6,0,P|353:164|433:184,1,150,0|2,1:0|3:2,0:0:0:0:
492,144,16598,2,0,B|453:97|455:37|455:37|422:78|348:78,1,225,2|8,1:2|0:1,0:0:0:0:
296,31,17848,1,2,0:0:0:0:
231,76,18161,70,0,P|180:102|156:96,2,75,2|2|0,1:2|0:0|3:0,0:0:0:0:
296,31,19098,2,0,P|265:195|263:219,1,187.5,2|0,1:2|0:0,0:0:0:0:
237,238,20036,6,2,P|216:212|133:217,1,112.5,2|0,3:1|0:0,0:1:0:0:
127,237,20661,70,0,P|138:274|143:321,2,75,2|0|0,1:2|0:0|3:2,0:0:0:0:
60,188,21598,2,0,P|82:120|222:146,1,225,2|8,1:2|0:1,0:0:0:0:
286,88,22848,6,0,L|276:43,1,37.5,2|0,0:0|0:0,0:0:0:0:
307,111,23161,2,0,L|396:127,2,75,2|2|0,1:2|0:0|3:0,0:0:0:0:
254,197,24098,2,0,L|30:247,1,225,2|0,1:2|3:0,0:0:0:0:
134,82,25661,70,0,P|139:43|107:11,2,75,2|0|0,1:2|0:0|3:0,0:0:0:0:
195,133,26598,2,0,P|226:108|226:63,2,75,2|2|0,1:2|0:0|0:0,0:0:0:0:
126,185,27536,2,0,P|182:180|228:222,1,112.5,8|2,0:1|0:0,0:0:0:0:
215,241,28161,6,0,B|303:239|270:299|358:295,1,150,0|2,1:0|3:2,0:0:0:0:
472,244,29098,2,0,P|500:215|461:241,1,150,2|0,1:2|0:0,0:0:0:0:
356,215,30036,2,2,P|346:175|334:149,1,62.5,10|0,0:1|1:0,0:1:0:0:
509,0,30661,6,0,L|490:85,1,75,4|0,1:0|1:0,0:0:0:0:
404,126,31181,1,2,0:0:0:0:
399,112,31286,2,0,P|365:86|319:86,1,75,8|2,0:0|1:2,0:0:0:0:
260,25,31911,2,0,P|224:62|135:60,1,125,0|0,0:0|1:0,0:0:0:0:
145,53,32536,2,0,L|81:64,1,50,10|0,0:0|1:0,0:0:0:0:
0,182,33161,6,0,P|38:186|80:198,1,75,2|2,1:2|0:0,0:0:0:0:
129,252,33681,1,2,0:0:0:0:
120,262,33786,2,0,L|131:324,1,50,10|0,0:0|0:0,0:0:0:0:
119,323,34098,2,0,P|155:360|256:346,1,150,0|2,1:0|0:0,0:0:0:0:
321,285,34931,69,2,0:0:0:0:
303,275,35036,2,0,P|312:226|317:214,1,62.5,10|2,0:0|1:2,0:0:0:0:
145,53,35661,6,0,P|156:94|165:143,1,75,0|0,1:0|1:0,0:0:0:0:
285,163,36286,2,0,P|309:162|334:152,1,50,10|0,0:0|0:0,0:0:0:0:
340,136,36598,1,0,1:0:0:0:
410,87,36806,2,0,P|454:86|500:139,1,100,2|0,0:0|0:0,0:0:0:0:
463,203,37431,69,0,1:0:0:0:
473,210,37536,2,0,L|484:290,1,75,10|2,0:0|0:0,0:0:0:0:
387,348,38161,2,0,B|322:342|348:292|261:300,1,125,0|2,1:0|0:0,0:0:0:0:
266,312,38786,1,10,0:0:0:0:
154,253,39098,1,2,1:2:0:0:
137,328,39306,2,0,P|108:350|60:347,1,75,2|2,0:0|1:2,0:0:0:0:
0,265,39931,1,0,1:0:0:0:
10,259,40036,2,2,L|76:277,1,62.5,8|0,0:2|1:0,0:1:0:0:
162,125,40661,6,0,L|143:39,2,75,0|2|10,1:0|1:2|0:0,0:0:0:0:
94,182,41494,1,2,0:0:0:0:
83,196,41598,2,0,P|47:208|6:181,1,75,0|0,1:0|0:0,0:0:0:0:
154,253,42223,1,0,0:0:0:0:
92,309,42431,1,2,1:2:0:0:
82,318,42536,2,0,L|96:377,1,56.25,10|0,0:0|1:0,0:0:0:0:
276,299,43161,70,0,P|279:250|287:208,1,75,0|2,1:0|0:0,0:0:0:0:
222,173,43681,1,2,0:0:0:0:
206,164,43786,2,0,P|197:135|202:109,1,50,8|0,0:0|0:0,0:0:0:0:
218,101,44098,2,0,L|366:125,1,150,2|0,1:2|0:0,0:0:0:0:
449,86,44931,1,2,1:2:0:0:
437,79,45036,2,0,L|425:18,1,62.5,10|0,0:0|1:0,0:0:0:0:
512,178,45661,6,0,L|499:266,1,75,0|2,1:0|1:2,0:0:0:0:
425,320,46286,1,2,3:2:0:0:
333,270,46598,2,0,B|252:276|285:330|190:339,1,150,2|0,0:0|0:0,0:0:0:0:
113,295,47431,69,0,0:0:0:0:
102,287,47536,2,0,L|113:354,1,50,2|2,0:0|0:0,0:0:0:0:
29,229,48056,1,2,0:0:0:0:
17,216,48161,2,0,L|31:127,2,75,2|2|2,0:0|0:0|3:2,0:0:0:0:
132,148,49098,6,0,B|220:142|187:98|276:98,1,150,2|0,0:0|0:0,0:0:0:0:
379,59,49931,1,0,0:0:0:0:
373,43,50036,2,0,P|336:25|315:28,1,50,8|0,0:0|0:0,0:0:0:0:
217,169,50661,5,0,1:0:0:0:
239,246,50973,1,0,1:0:0:0:
132,148,51286,5,8,0:0:0:0:
299,188,51598,1,0,1:0:0:0:
182,316,52119,1,0,1:0:0:0:
110,276,52431,37,0,1:0:0:0:
99,286,52536,2,0,P|68:297|33:287,1,62.5,10|0,0:0|1:0,0:0:0:0:
275,348,53161,6,0,P|335:348|380:381,1,97.4999955368044,4|2,1:0|3:2,0:0:0:0:
450,325,53629,1,2,0:0:0:0:
369,258,53786,2,0,P|366:232|382:202,1,48.7499977684022,14|0,0:0|0:0,0:0:0:0:
485,191,54098,2,0,P|497:165|490:126,1,48.7499977684022,0|2,3:2|0:0,0:0:0:0:
423,68,54411,38,0,B|366:72|392:104|315:103,1,97.4999955368044,6|0,1:2|3:0,0:0:0:0:
265,25,54879,1,2,0:0:0:0:
183,93,55036,2,0,L|202:198,2,97.4999955368044,14|2|0,0:0|3:2|1:0,0:0:0:0:
56,24,55973,5,2,3:2:0:0:
18,96,56181,1,2,0:0:0:0:
28,104,56286,2,0,L|99:91,1,64.9999970245363,10|0,0:0|0:0,0:0:0:0:
104,103,56598,2,0,L|90:208,1,97.4999955368044,2|0,3:2|1:0,0:0:0:0:
12,332,57119,1,2,0:0:0:0:
1,323,57223,2,0,P|4:286|26:263,1,64.9999970245363,2|0,3:2|0:0,0:0:0:0:
36,263,57536,2,0,L|160:288,1,97.4999955368044,14|2,0:0|0:0,0:0:0:0:
242,363,58161,6,0,P|290:325|350:347,1,97.4999955368044,2|2,1:2|3:2,0:0:0:0:
403,384,58629,1,2,0:0:0:0:
469,317,58786,2,0,P|480:278|472:257,1,48.7499977684022,14|0,0:0|0:0,0:0:0:0:
400,236,59098,2,0,P|380:200|359:191,1,48.7499977684022,0|2,3:0|0:0,0:0:0:0:
492,177,59411,6,0,P|511:118|491:80,1,97.4999955368044,0|0,1:0|3:0,0:0:0:0:
428,14,59879,1,0,0:0:0:0:
348,77,60036,2,0,P|312:94|259:84,1,48.7499977684022,10|0,0:0|0:0,0:0:0:0:
240,154,60348,2,0,P|194:150|161:118,1,64.9999970245363,2|0,3:2|0:0,0:0:0:0:
163,120,60661,38,0,L|177:218,1,97.4999955368044,2|2,1:2|3:2,0:0:0:0:
0,373,61286,2,0,L|14:275,1,97.4999955368044,10|2,0:0|3:2,0:0:0:0:
91,285,61806,1,2,0:0:0:0:
99,298,61911,2,0,P|128:318|170:313,1,64.9999970245363,2|0,1:2|0:0,0:0:0:0:
168,309,62223,1,2,3:2:0:0:
249,349,62431,1,2,0:0:0:0:
253,336,62536,2,0,P|295:312|361:331,1,97.4999955368044,14|0,0:0|3:0,0:0:0:0:
264,215,63161,6,0,P|250:191|250:149,1,48.7499977684022,4|2,1:0|0:0,0:0:0:0:
163,151,63473,2,0,P|170:124|199:94,1,48.7499977684022,2|2,3:2|0:0,0:0:0:0:
273,84,63786,1,14,0:0:0:0:
273,84,63942,1,2,0:0:0:0:
196,16,64098,6,0,P|139:4|87:-2,2,97.4999955368044,2|0|0,3:2|1:0|3:0,0:0:0:0:
273,84,64879,1,2,0:0:0:0:
360,30,65036,2,0,P|415:34|444:107,1,97.4999955368044,14|0,0:0|3:0,0:0:0:0:
503,177,65556,5,2,0:0:0:0:
491,185,65661,2,0,L|510:292,1,97.4999955368044,2|0,1:2|3:0,0:0:0:0:
442,367,66129,1,2,0:0:0:0:
348,316,66286,2,0,P|306:308|275:322,1,48.7499977684022,14|0,0:0|0:0,0:0:0:0:
239,261,66598,2,0,P|186:289|166:343,2,97.4999955368044,2|0|2,3:2|1:0|3:2,0:0:0:0:
371,133,67536,38,0,P|356:78|350:15,1,97.4999955368044,10|2,0:0|3:2,0:0:0:0:
266,11,68004,1,0,0:0:0:0:
215,80,68161,2,0,P|162:104|138:95,1,48.7499977684022,2|2,1:2|0:0,0:0:0:0:
163,180,68473,2,0,P|108:159|97:136,1,48.7499977684022,2|2,3:2|0:0,0:0:0:0:
60,223,68786,2,0,P|36:170|44:146,1,48.7499977684022,14|2,0:0|0:0,0:0:0:0:
0,113,69098,1,2,3:2:0:0:
163,180,69411,6,0,P|202:211|252:212,1,97.4999955368044,2|0,1:2|3:0,0:0:0:0:
304,272,69879,1,2,0:0:0:0:
371,230,70036,2,0,L|359:359,1,97.4999955368044,10|0,0:0|3:0,0:0:0:0:
489,382,70661,6,0,L|477:253,1,97.4999955368044,2|2,1:2|3:2,0:0:0:0:
512,199,71129,1,2,0:0:0:0:
429,139,71286,2,0,P|420:111|425:81,1,48.7499977684022,14|0,0:0|0:0,0:0:0:0:
342,66,71598,2,0,P|355:39|380:22,1,48.7499977684022,2|2,3:2|0:0,0:0:0:0:
249,105,71911,6,0,P|198:96|124:93,2,97.4999955368044,4|2|8,1:2|3:2|0:0,0:0:0:0:
297,171,72692,2,0,P|328:208|399:201,1,97.4999955368044,2|2,0:0|0:0,0:0:0:0:
429,139,73161,37,2,0:0:0:0:
275,339,73786,5,2,0:0:0:0:
84,213,74411,5,2,0:0:0:0:
232,31,75036,5,2,0:0:0:0:
168,73,75348,2,0,P|160:112|168:129,1,37.5,2|0,0:0|0:0,0:0:0:0:
219,157,75661,2,0,B|282:189|306:339|236:351|148:320|256:241|293:230,1,300,2|0,0:0|0:0,0:0:0:0:
288,231,78161,38,0,P|332:238|366:250,1,75,2|0,1:2|3:0,0:0:0:0:
457,170,78681,1,2,0:0:0:0:
445,157,78786,2,0,P|404:169|381:171,1,50,10|0,0:0|0:0,0:0:0:0:
381,161,79098,1,0,3:0:0:0:
295,89,79411,6,0,P|285:20|273:-10,1,75,2|0,1:2|3:0,0:0:0:0:
204,4,79931,1,0,0:0:0:0:
191,16,80036,2,0,P|151:58|57:34,1,150,10|2,0:0|1:2,0:0:0:0:
0,131,80973,5,0,3:0:0:0:
71,190,81181,1,0,0:0:0:0:
57,197,81286,2,0,L|51:261,1,50,10|0,0:0|0:0,0:0:0:0:
42,255,81598,1,0,3:0:0:0:
115,329,81911,6,0,P|173:319|213:317,1,75,2|0,1:2|3:0,0:0:0:0:
268,357,82431,1,0,3:0:0:0:
280,345,82536,2,0,B|269:278|269:278|261:269|261:269|248:189,1,150,10|2,0:0|1:2,0:0:0:0:
325,139,83473,37,0,3:0:0:0:
257,71,83681,1,2,0:0:0:0:
267,58,83786,2,0,L|189:78,1,75,10|0,0:0|3:0,0:0:0:0:
115,132,84306,1,2,0:0:0:0:
123,142,84411,2,0,B|54:138|78:88|7:88,1,125,2|0,1:2|3:0,0:0:0:0:
2,100,85036,1,10,0:0:0:0:
250,201,85556,5,2,0:0:0:0:
256,192,85661,12,0,88056,0:0:0:0:
