osu file format v14

[General]
AudioFilename: audio.mp3
AudioLeadIn: 0
PreviewTime: 52536
Countdown: 0
SampleSet: Soft
StackLeniency: 0.7
Mode: 0
LetterboxInBreaks: 0
WidescreenStoryboard: 1

[Editor]
Bookmarks: 15661,30661
DistanceSpacing: 1.7
BeatDivisor: 12
GridSize: 4
TimelineZoom: 2

[Metadata]
Title:Kiss Me (TV Size)
TitleUnicode:Kiss Me (TV Size)
Artist:CAROLE & TUESDAY (CV: Nai Br.XX & Celeina Ann)
ArtistUnicode:CAROLE & TUESDAY (CV: Nai Br.XX & Celeina Ann)
Creator:-Mikan
Version:Easy
Source:CAROLE & TUESDAY
Tags:Mocaotic evaotic キャロル & チューズデイ and anime english pop op opening
BeatmapID:2633293
BeatmapSetID:1264917

[Difficulty]
HPDrainRate:3
CircleSize:3
OverallDifficulty:2.5
ApproachRate:3.5
SliderMultiplier:0.96
SliderTickRate:1

[Events]
//Background and Video events
0,0,"a.jpg",0,0
Video,320,"anime.avi"
//Break Periods
//Storyboard Layer 0 (Background)
//Storyboard Layer 1 (Fail)
//Storyboard Layer 2 (Pass)
//Storyboard Layer 3 (Foreground)
//Storyboard Layer 4 (Overlay)
//Storyboard Sound Samples

[TimingPoints]
661,625,4,2,1,50,1,0
661,-100,4,2,1,50,0,0
10661,-100,4,2,1,60,0,0
30661,-100,4,2,1,70,0,0
53161,-100,4,2,1,80,0,1
73161,-100,4,2,1,60,0,0
74411,-100,4,2,1,55,0,0
75661,-100,4,2,1,50,0,0
76911,-100,4,2,1,5,0,0
78161,-100,4,2,1,70,0,0
85556,-100,4,2,1,60,0,0
88056,-100,4,2,1,5,0,0

[Colours]
Combo1 : 128,128,128
Combo2 : 183,255,255
Combo3 : 255,255,166
Combo4 : 255,157,157
Combo5 : 255,198,140
Combo6 : 192,192,192

[HitObjects]
32,104,10661,6,0,B|84:100|69:134|136:130,1,96,0|2,1:0|3:2,0:0:0:0:
189,83,11598,2,0,P|217:72|287:151,1,144,2|8,1:2|0:1,0:0:0:0:
433,216,13161,6,0,P|402:293|399:314,1,96,2|0,1:2|3:0,0:0:0:0:
329,345,14098,1,2,1:2:0:0:
85,314,15036,1,0,3:0:0:0:
199,197,15661,70,0,P|183:136|181:96,1,96,0|2,1:0|3:2,0:0:0:0:
123,45,16598,2,0,B|80:36|80:36|55:122|55:122|51:138,1,144,2|8,1:2|0:1,0:0:0:0:
192,216,18161,6,0,P|239:198|293:197,1,96,2|0,1:2|3:0,0:0:0:0:
350,246,19098,1,2,1:2:0:0:
481,39,20036,2,2,P|442:45|426:53,1,48,2|2,3:1|0:0,0:1:0:0:
356,22,20661,70,0,P|318:51|260:43,1,96,2|0,1:2|3:2,0:0:0:0:
201,7,21598,2,0,P|156:8|130:98,1,144,2|8,1:2|0:1,0:0:0:0:
14,210,23161,6,0,L|28:311,1,96,2|0,1:2|3:0,0:0:0:0:
91,355,24098,1,2,1:2:0:0:
330,302,25036,1,0,3:0:0:0:
486,348,25661,70,0,L|474:248,1,96,2|0,1:2|3:0,0:0:0:0:
496,174,26598,2,0,B|416:171|451:126|351:123,1,144,2|8,1:2|0:1,0:0:0:0:
234,24,28161,6,0,P|205:47|140:45,1,96,0|2,1:0|3:2,0:0:0:0:
74,83,29098,2,0,L|92:184,1,96,2|0,1:2|0:0,0:0:0:0:
20,219,30036,1,10,0:1:0:0:
140,328,30661,6,0,P|183:316|194:316,1,48,4|0,1:0|1:0,0:0:0:0:
253,269,31286,1,8,0:0:0:0:
205,202,31598,2,0,L|221:99,1,96,2|2,1:2|0:0,0:0:0:0:
282,55,32536,1,10,0:0:0:0:
388,181,33161,2,0,P|419:196|443:196,1,48,2|2,1:2|0:0,0:0:0:0:
484,259,33786,1,10,0:0:0:0:
439,326,34098,2,0,L|449:377,2,48,0|2|2,1:0|0:0|0:0,0:0:0:0:
357,317,35036,1,10,0:0:0:0:
200,362,35661,6,0,L|187:304,1,48,0|0,1:0|1:0,0:0:0:0:
110,294,36286,1,10,0:0:0:0:
119,213,36598,2,0,L|98:118,1,96,0|0,1:0|0:0,0:0:0:0:
118,40,37536,1,10,0:0:0:0:
268,103,38161,2,0,B|320:97|301:69|356:68,1,96,0|10,1:0|0:0,0:0:0:0:
428,33,39098,2,0,L|412:141,1,96,2|0,1:2|0:0,0:0:0:0:
474,182,40036,1,8,0:2:0:0:
387,320,40661,70,0,P|361:337|331:341,1,48,0|2,1:0|1:2,0:0:0:0:
275,297,41286,1,10,0:0:0:0:
212,348,41598,2,0,B|162:344|178:312|120:303,1,96,0|0,1:0|0:0,0:0:0:0:
49,323,42536,1,10,0:0:0:0:
19,162,43161,2,0,P|28:121|36:63,1,96,0|8,1:0|0:0,0:0:0:0:
108,29,44098,2,0,B|153:42|153:42|156:52|156:52|202:62,1,96,2|0,1:2|0:0,0:0:0:0:
264,17,45036,1,10,0:0:0:0:
411,86,45661,6,0,L|470:66,2,48,0|2|2,1:0|1:2|3:2,0:0:0:0:
358,147,46598,2,0,L|382:294,1,144,2|2,0:0|0:0,0:0:0:0:
233,358,48161,2,0,B|178:349|197:323|139:317,1,96,2|2,0:0|3:2,0:0:0:0:
70,344,49098,2,0,P|46:289|105:230,1,144,2|8,0:0|0:0,0:0:0:0:
245,165,50661,5,0,1:0:0:0:
189,105,50973,1,0,1:0:0:0:
207,25,51286,1,8,0:0:0:0:
286,7,51598,2,0,L|366:19,1,80,0|0,1:0|1:0,0:0:0:0:
473,3,52536,54,0,P|478:32|478:46,1,40,10|0,0:0|1:0,0:0:0:0:
432,125,53161,2,0,P|392:130|351:175,1,96,4|14,1:0|0:0,0:0:0:0:
352,249,54098,1,0,3:2:0:0:
272,267,54411,2,0,L|286:369,2,96,6|14|0,1:2|0:0|1:0,0:0:0:0:
198,231,55973,5,2,3:2:0:0:
128,274,56286,2,0,P|74:268|69:268,1,48,10|2,0:0|3:2,0:0:0:0:
25,207,56911,2,0,P|21:169|14:150,1,48,0|2,1:0|3:2,0:0:0:0:
68,95,57536,1,14,0:0:0:0:
215,25,58161,38,0,P|252:37|270:39,1,48,2|2,1:2|3:2,0:0:0:0:
313,100,58786,2,0,P|289:137|228:148,1,96,14|0,0:0|1:0,0:0:0:0:
173,196,59723,1,0,3:0:0:0:
102,154,60036,2,0,L|47:164,1,48,10|2,0:0|3:2,0:0:0:0:
5,227,60661,2,0,L|25:329,1,96,2|10,1:2|0:0,0:0:0:0:
94,360,61598,1,2,3:2:0:0:
158,309,61911,1,2,1:2:0:0:
313,357,62536,6,0,P|351:344|367:344,1,48,14|0,0:0|3:0,0:0:0:0:
440,346,63161,2,0,P|477:325|483:273,1,96,4|14,1:0|0:0,0:0:0:0:
440,205,64098,2,0,L|340:227,1,96,2|0,3:2|3:0,0:0:0:0:
283,173,65036,2,0,L|294:122,1,48,14|0,0:0|3:0,0:0:0:0:
243,61,65661,5,2,1:2:0:0:
100,140,66286,2,0,L|109:199,1,48,14|2,0:0|3:2,0:0:0:0:
47,243,66911,2,0,L|30:344,1,96,0|10,1:0|0:0,0:0:0:0:
99,381,67848,1,2,3:2:0:0:
170,342,68161,6,0,P|201:333|229:332,1,48,2|2,1:2|3:2,0:0:0:0:
297,342,68786,2,0,P|333:354|352:356,1,48,14|2,0:0|3:2,0:0:0:0:
417,323,69411,2,0,L|403:228,1,96,2|10,1:2|0:0,0:0:0:0:
440,69,70661,38,0,L|451:14,1,48,2|2,1:2|3:2,0:0:0:0:
368,7,71286,2,0,L|311:16,1,48,14|2,0:0|3:2,0:0:0:0:
263,72,71911,2,0,B|215:66|234:35|165:32,1,96,4|8,1:2|0:0,0:0:0:0:
96,38,72848,1,0,0:0:0:0:
26,83,73161,6,0,L|39:184,2,96,2|2|2,0:0|0:0|0:0,0:0:0:0:
176,19,75036,2,0,P|209:25|233:28,1,48,2|2,0:0|0:0,0:0:0:0:
274,90,75661,2,0,B|389:102|340:27|465:39,1,192,2|0,0:0|0:0,0:0:0:0:
316,335,78161,6,0,P|280:325|256:321,1,48,2|0,1:2|3:0,0:0:0:0:
189,308,78786,2,0,P|139:349|109:352,1,96,10|2,0:0|1:2,0:0:0:0:
36,315,79723,1,0,3:0:0:0:
82,247,80036,2,0,L|56:144,1,96,10|2,0:0|1:2,0:0:0:0:
185,51,81286,6,0,P|234:66|243:67,1,48,10|0,0:0|3:0,0:0:0:0:
278,131,81911,2,0,L|263:189,1,48,2|0,1:2|3:0,0:0:0:0:
199,225,82536,2,0,L|218:330,1,96,10|2,0:0|1:2,0:0:0:0:
368,378,83786,38,0,P|411:366|420:365,1,48,10|0,0:0|3:0,0:0:0:0:
481,319,84411,1,2,1:2:0:0:
426,258,84723,1,0,3:0:0:0:
475,193,85036,2,0,L|453:107,1,80,10|2,0:0|0:0,0:0:0:0:
256,192,85661,12,0,88056,0:0:0:0:
