osu file format v14

[General]
AudioFilename: audio.mp3
AudioLeadIn: 1
PreviewTime: 62903
Countdown: 0
SampleSet: None
StackLeniency: 0.7
Mode: 0
LetterboxInBreaks: 0
WidescreenStoryboard: 1

[Editor]
Bookmarks: 48009,87140,116096,153488,196966,206096
DistanceSpacing: 1.3
BeatDivisor: 4
GridSize: 8
TimelineZoom: 1

[Metadata]
Title:Lambo Diablo GT
TitleUnicode:Lambo Diablo GT
Artist:CAPO feat. Nimo
ArtistUnicode:CAPO feat. Nimo
Creator:5teven
Version:Hard
Source:
Tags:nimo, capo, lambo, diablo, gt, deutsch, german,rap, hip-hop,stream
BeatmapID:1667776
BeatmapSetID:794027

[Difficulty]
HPDrainRate:5
CircleSize:5
OverallDifficulty:5
ApproachRate:9
SliderMultiplier:1.4
SliderTickRate:1

[Events]
//Background and Video events
0,0,"background.png",0,0
//Break Periods
//Storyboard Layer 0 (Background)
//Storyboard Layer 1 (Fail)
//Storyboard Layer 2 (Pass)
//Storyboard Layer 3 (Foreground)
//Storyboard Sound Samples

[TimingPoints]
66792.5241949465,521.739130434783,4,2,0,100,1,0
133575,521.739130434783,4,2,0,100,1,0
133575,-100,4,2,0,100,0,1
141993,-100,4,2,0,100,0,0
150270,-100,4,2,0,100,0,1
166966,-100,4,2,0,100,0,0
166966,-100,4,2,0,100,0,0

[HitObjects]
352,88,9,6,0,B|152:88|152:88|152:176|152:176|272:176|368:136|376:264|376:336|136:288|136:288,1,700
128,320,3140,1,0,0:0:0:0:
112,312,3662,1,0,0:0:0:0:
72,192,4183,1,0,0:0:0:0:
80,160,4705,1,0,0:0:0:0:
168,96,5227,1,0,0:0:0:0:
200,80,5749,1,0,0:0:0:0:
320,104,6270,1,0,0:0:0:0:
344,112,6792,1,0,0:0:0:0:
376,224,7314,1,0,0:0:0:0:
368,256,7836,1,0,0:0:0:0:
264,304,8357,1,0,0:0:0:0:
232,296,8879,1,0,0:0:0:0:
152,200,9401,1,0,0:0:0:0:
144,168,9922,1,0,0:0:0:0:
200,80,10444,1,0,0:0:0:0:
232,64,10966,1,0,0:0:0:0:
104,96,12531,5,0,0:0:0:0:
224,80,12966,1,0,0:0:0:0:
352,112,13314,1,0,0:0:0:0:
360,120,13575,1,0,0:0:0:0:
104,288,14705,5,0,0:0:0:0:
224,304,15140,1,0,0:0:0:0:
352,272,15488,1,0,0:0:0:0:
360,264,15749,1,0,0:0:0:0:
256,192,16705,12,0,21662,0:0:0:0:
80,160,22575,5,0,0:0:0:0:
128,192,22966,1,0,0:0:0:0:
152,200,23096,1,0,0:0:0:0:
224,200,23357,1,0,0:0:0:0:
248,192,23749,1,0,0:0:0:0:
256,192,24792,12,0,27009,0:0:0:0:
256,192,27662,12,0,29227,0:0:0:0:
256,192,30401,12,0,31314,0:0:0:0:
96,96,33401,5,0,0:0:0:0:
120,88,33922,1,0,0:0:0:0:
184,200,34444,1,0,0:0:0:0:
208,176,34966,1,0,0:0:0:0:
304,296,35488,1,0,0:0:0:0:
328,280,36009,1,0,0:0:0:0:
184,176,36531,1,0,0:0:0:0:
192,168,37053,1,0,0:0:0:0:
80,104,37575,1,0,0:0:0:0:
96,80,38096,1,0,0:0:0:0:
96,128,38618,1,0,0:0:0:0:
56,88,39140,1,0,0:0:0:0:
112,56,39662,6,0,P|184:104|184:104,1,70
224,128,40314,1,0,0:0:0:0:
248,144,40444,1,0,0:0:0:0:
312,144,40705,1,0,0:0:0:0:
376,120,41096,1,0,0:0:0:0:
432,176,41357,5,0,0:0:0:0:
424,208,41488,1,0,0:0:0:0:
408,240,41618,1,0,0:0:0:0:
384,264,41749,1,0,0:0:0:0:
312,296,42009,1,0,0:0:0:0:
280,304,42140,1,0,0:0:0:0:
248,296,42270,1,0,0:0:0:0:
432,176,43444,5,0,0:0:0:0:
424,208,43575,1,0,0:0:0:0:
408,240,43705,1,0,0:0:0:0:
384,264,43836,1,0,0:0:0:0:
312,296,44096,1,0,0:0:0:0:
280,304,44227,1,0,0:0:0:0:
248,296,44357,1,0,0:0:0:0:
200,56,45270,5,0,0:0:0:0:
280,72,45662,1,0,0:0:0:0:
296,88,45792,1,0,0:0:0:0:
312,112,45922,1,0,0:0:0:0:
320,144,46053,1,0,0:0:0:0:
312,176,46183,1,0,0:0:0:0:
272,224,46444,1,0,0:0:0:0:
216,88,47618,5,0,0:0:0:0:
296,112,48009,1,0,0:0:0:0:
328,136,48140,1,0,0:0:0:0:
352,168,48270,1,0,0:0:0:0:
360,208,48401,1,0,0:0:0:0:
336,288,48792,1,0,0:0:0:0:
272,304,49053,2,0,B|192:288|96:208|80:136|72:104,1,280
152,136,50618,5,0,0:0:0:0:
176,168,51140,1,0,0:0:0:0:
256,144,51662,1,0,0:0:0:0:
320,168,52183,1,0,0:0:0:0:
368,208,52705,1,0,0:0:0:0:
280,256,53227,2,0,B|184:240|104:208|104:136|104:136,1,210
104,96,54270,5,0,0:0:0:0:
224,136,54531,1,0,0:0:0:0:
224,232,54922,1,0,0:0:0:0:
344,288,55183,1,0,0:0:0:0:
152,64,56096,1,0,0:0:0:0:
344,96,56357,1,0,0:0:0:0:
152,160,56749,1,0,0:0:0:0:
344,208,57009,1,0,0:0:0:0:
152,248,57401,1,0,0:0:0:0:
96,128,58444,5,0,0:0:0:0:
128,112,58575,1,0,0:0:0:0:
160,104,58705,1,0,0:0:0:0:
192,104,58836,1,0,0:0:0:0:
224,112,58966,1,0,0:0:0:0:
288,152,59357,1,0,0:0:0:0:
288,168,59488,5,0,0:0:0:0:
256,184,59619,1,0,0:0:0:0:
224,192,59749,1,0,0:0:0:0:
192,192,59880,1,0,0:0:0:0:
160,184,60010,1,0,0:0:0:0:
96,160,60401,1,0,0:0:0:0:
96,96,61053,2,0,B|304:176|304:176|288:168,1,210
360,200,62357,5,0,0:0:0:0:
424,224,62618,1,0,0:0:0:0:
312,288,63140,1,0,0:0:0:0:
280,264,63270,1,0,0:0:0:0:
256,232,63401,1,0,0:0:0:0:
248,192,63531,1,0,0:0:0:0:
256,152,63662,1,0,0:0:0:0:
296,88,63922,5,0,0:0:0:0:
320,88,64053,1,0,0:0:0:0:
344,96,64183,1,0,0:0:0:0:
368,112,64314,1,0,0:0:0:0:
392,128,64444,1,0,0:0:0:0:
416,152,64575,1,0,0:0:0:0:
424,176,64705,1,0,0:0:0:0:
432,232,64966,1,0,0:0:0:0:
400,280,65227,1,0,0:0:0:0:
344,296,65488,1,0,0:0:0:0:
288,280,65749,1,0,0:0:0:0:
232,208,66009,1,0,0:0:0:0:
224,192,66140,1,0,0:0:0:0:
224,168,66270,1,0,0:0:0:0:
224,96,66531,5,0,0:0:0:0:
200,104,66662,1,0,0:0:0:0:
176,120,66792,1,0,0:0:0:0:
160,136,66922,1,0,0:0:0:0:
152,168,67053,1,0,0:0:0:0:
160,232,67314,1,0,0:0:0:0:
168,256,67444,1,0,0:0:0:0:
192,280,67575,1,0,0:0:0:0:
216,288,67705,1,0,0:0:0:0:
248,280,67836,1,0,0:0:0:0:
384,232,68357,5,0,0:0:0:0:
392,208,68488,1,0,0:0:0:0:
392,176,68618,1,0,0:0:0:0:
384,152,68749,1,0,0:0:0:0:
368,128,68879,1,0,0:0:0:0:
136,144,69140,5,0,0:0:0:0:
128,168,69270,1,0,0:0:0:0:
136,200,69401,1,0,0:0:0:0:
216,280,69662,5,0,0:0:0:0:
240,288,69792,1,0,0:0:0:0:
272,280,69922,1,0,0:0:0:0:
360,200,70183,5,0,0:0:0:0:
376,168,70314,1,0,0:0:0:0:
360,144,70444,1,0,0:0:0:0:
280,72,70705,5,0,0:0:0:0:
256,56,70836,1,0,0:0:0:0:
224,72,70966,1,0,0:0:0:0:
144,160,71227,5,0,0:0:0:0:
128,184,71357,1,0,0:0:0:0:
144,216,71488,1,0,0:0:0:0:
112,80,72401,5,0,0:0:0:0:
192,104,72792,1,0,0:0:0:0:
232,112,72922,1,0,0:0:0:0:
272,120,73053,1,0,0:0:0:0:
352,144,73444,1,0,0:0:0:0:
376,216,73705,1,0,0:0:0:0:
360,232,73836,1,0,0:0:0:0:
296,248,74096,1,0,0:0:0:0:
224,232,74488,1,0,0:0:0:0:
160,192,74749,5,0,0:0:0:0:
144,168,74879,1,0,0:0:0:0:
136,136,75009,1,0,0:0:0:0:
144,104,75140,1,0,0:0:0:0:
160,80,75270,1,0,0:0:0:0:
184,64,75401,1,0,0:0:0:0:
208,56,75531,1,0,0:0:0:0:
240,56,75662,1,0,0:0:0:0:
320,72,76575,5,0,0:0:0:0:
328,80,76705,1,0,0:0:0:0:
368,144,76966,1,0,0:0:0:0:
384,168,77096,1,0,0:0:0:0:
368,200,77227,1,0,0:0:0:0:
312,264,77488,1,0,0:0:0:0:
288,272,77618,1,0,0:0:0:0:
256,264,77749,1,0,0:0:0:0:
96,120,78662,5,0,0:0:0:0:
80,144,78792,1,0,0:0:0:0:
112,224,79053,1,0,0:0:0:0:
136,232,79183,1,0,0:0:0:0:
168,224,79314,1,0,0:0:0:0:
240,152,79575,1,0,0:0:0:0:
272,136,79705,1,0,0:0:0:0:
304,136,79836,1,0,0:0:0:0:
384,160,80618,5,0,0:0:0:0:
264,264,80749,1,0,0:0:0:0:
152,160,80879,1,0,0:0:0:0:
376,208,82314,5,0,0:0:0:0:
368,200,82444,1,0,0:0:0:0:
320,144,82705,1,0,0:0:0:0:
264,120,82966,1,0,0:0:0:0:
200,96,83227,1,0,0:0:0:0:
168,104,83357,1,0,0:0:0:0:
136,120,83488,1,0,0:0:0:0:
128,200,84009,1,0,0:0:0:0:
192,224,84270,1,0,0:0:0:0:
224,216,84400,1,0,0:0:0:0:
256,200,84531,1,0,0:0:0:0:
288,128,85053,1,0,0:0:0:0:
320,112,85184,1,0,0:0:0:0:
352,104,85314,1,0,0:0:0:0:
416,128,85575,1,0,0:0:0:0:
400,216,86096,5,0,0:0:0:0:
384,224,86227,1,0,0:0:0:0:
312,224,86488,1,0,0:0:0:0:
296,216,86618,1,0,0:0:0:0:
232,168,86879,1,0,0:0:0:0:
200,152,87009,1,0,0:0:0:0:
176,168,87140,1,0,0:0:0:0:
120,208,87401,1,0,0:0:0:0:
112,216,87531,1,0,0:0:0:0:
112,232,87662,1,0,0:0:0:0:
200,296,88314,1,0,0:0:0:0:
224,304,88444,1,0,0:0:0:0:
256,304,88575,1,0,0:0:0:0:
280,296,88705,1,0,0:0:0:0:
280,88,89357,1,0,0:0:0:0:
256,80,89487,1,0,0:0:0:0:
224,80,89618,1,0,0:0:0:0:
200,88,89748,1,0,0:0:0:0:
88,144,90531,5,0,0:0:0:0:
96,208,90792,1,0,0:0:0:0:
104,216,90922,1,0,0:0:0:0:
192,240,91183,1,0,0:0:0:0:
216,256,91314,1,0,0:0:0:0:
248,240,91444,1,0,0:0:0:0:
296,168,91705,1,0,0:0:0:0:
320,144,91836,1,0,0:0:0:0:
320,112,91966,1,0,0:0:0:0:
296,88,92096,1,0,0:0:0:0:
224,48,92357,1,0,0:0:0:0:
136,80,92879,1,0,0:0:0:0:
120,112,93009,1,0,0:0:0:0:
128,144,93140,1,0,0:0:0:0:
144,168,93270,1,0,0:0:0:0:
168,192,93401,1,0,0:0:0:0:
304,136,93922,5,0,0:0:0:0:
328,152,94053,1,0,0:0:0:0:
344,176,94183,1,0,0:0:0:0:
352,208,94314,1,0,0:0:0:0:
304,296,94705,1,0,0:0:0:0:
272,288,94836,1,0,0:0:0:0:
240,264,94966,1,0,0:0:0:0:
192,192,95227,1,0,0:0:0:0:
152,104,95488,1,0,0:0:0:0:
136,88,95618,1,0,0:0:0:0:
112,72,95749,1,0,0:0:0:0:
88,64,95879,1,0,0:0:0:0:
56,72,96009,1,0,0:0:0:0:
64,176,96662,5,0,0:0:0:0:
120,240,96922,1,0,0:0:0:0:
136,248,97053,1,0,0:0:0:0:
160,248,97183,1,0,0:0:0:0:
184,240,97314,1,0,0:0:0:0:
256,176,97575,1,0,0:0:0:0:
336,128,97966,1,0,0:0:0:0:
352,120,98096,1,0,0:0:0:0:
440,104,98357,1,0,0:0:0:0:
384,248,100183,5,0,0:0:0:0:
256,256,101227,1,0,0:0:0:0:
128,184,102270,1,0,0:0:0:0:
168,80,103314,1,0,0:0:0:0:
248,72,104096,1,0,0:0:0:0:
352,192,104227,1,0,0:0:0:0:
256,320,104357,1,0,0:0:0:0:
248,312,105140,1,0,0:0:0:0:
144,208,105270,1,0,0:0:0:0:
248,64,105401,1,0,0:0:0:0:
296,296,105922,1,0,0:0:0:0:
272,312,106183,1,0,0:0:0:0:
232,312,106314,1,0,0:0:0:0:
208,296,106444,1,0,0:0:0:0:
128,232,107488,1,0,0:0:0:0:
112,128,108531,5,0,0:0:0:0:
112,128,108662,1,0,0:0:0:0:
224,56,108922,1,0,0:0:0:0:
224,56,109053,1,0,0:0:0:0:
352,64,109575,1,0,0:0:0:0:
368,72,109705,1,0,0:0:0:0:
384,88,109836,1,0,0:0:0:0:
400,112,109966,1,0,0:0:0:0:
408,136,110096,1,0,0:0:0:0:
344,248,110618,1,0,0:0:0:0:
320,240,110749,1,0,0:0:0:0:
288,224,110879,1,0,0:0:0:0:
264,192,111009,1,0,0:0:0:0:
240,184,111140,1,0,0:0:0:0:
160,160,111401,1,0,0:0:0:0:
128,144,111531,1,0,0:0:0:0:
112,112,111662,1,0,0:0:0:0:
152,56,111922,1,0,0:0:0:0:
232,56,112183,1,0,0:0:0:0:
256,64,112314,1,0,0:0:0:0:
280,80,112444,1,0,0:0:0:0:
296,104,112575,1,0,0:0:0:0:
304,128,112705,1,0,0:0:0:0:
296,224,113488,5,0,0:0:0:0:
192,224,113749,1,0,0:0:0:0:
168,200,113879,1,0,0:0:0:0:
160,168,114009,1,0,0:0:0:0:
160,80,114270,1,0,0:0:0:0:
248,80,114531,1,0,0:0:0:0:
272,96,114662,1,0,0:0:0:0:
288,128,114792,1,0,0:0:0:0:
288,224,115053,1,0,0:0:0:0:
256,192,116096,12,0,117401,0:0:0:0:
256,192,117922,5,0,0:0:0:0:
168,144,118966,1,0,0:0:0:0:
224,80,119488,1,0,0:0:0:0:
328,152,120009,1,0,0:0:0:0:
320,264,120531,1,0,0:0:0:0:
232,296,121053,1,0,0:0:0:0:
144,232,121575,1,0,0:0:0:0:
152,136,122096,1,0,0:0:0:0:
224,88,122618,1,0,0:0:0:0:
352,128,122879,1,0,0:0:0:0:
360,144,123009,1,0,0:0:0:0:
352,256,123531,1,0,0:0:0:0:
240,240,123792,1,0,0:0:0:0:
216,224,123922,1,0,0:0:0:0:
200,192,124053,1,0,0:0:0:0:
192,160,124183,1,0,0:0:0:0:
192,80,124575,1,0,0:0:0:0:
272,80,124836,5,0,0:0:0:0:
296,88,124966,1,0,0:0:0:0:
320,104,125096,1,0,0:0:0:0:
336,128,125227,1,0,0:0:0:0:
336,208,125488,1,0,0:0:0:0:
344,240,125618,1,0,0:0:0:0:
360,264,125749,1,0,0:0:0:0:
456,208,126662,1,0,0:0:0:0:
400,272,126922,1,0,0:0:0:0:
376,304,127053,1,0,0:0:0:0:
344,320,127183,1,0,0:0:0:0:
256,320,127575,1,0,0:0:0:0:
256,192,128357,12,8,131749,0:0:0:0:
152,184,133575,5,0,0:0:0:0:
336,128,134096,1,0,0:0:0:0:
272,296,134618,1,0,0:0:0:0:
152,168,135140,1,0,0:0:0:0:
336,144,135662,1,0,0:0:0:0:
264,328,136183,1,0,0:0:0:0:
160,184,136705,1,0,0:0:0:0:
336,152,137227,1,0,0:0:0:0:
256,64,137662,6,0,B|208:40|160:64|160:64,1,93.3333333333333
96,112,138270,1,0,0:0:0:0:
64,184,138792,1,0,0:0:0:0:
120,272,139314,1,0,0:0:0:0:
192,224,139836,1,0,0:0:0:0:
216,208,140357,1,0,0:0:0:0:
248,192,140879,1,0,0:0:0:0:
304,136,141401,6,0,P|320:120|312:128,6,17.5
352,64,142183,1,0,0:0:0:0:
328,48,142270,1,0,0:0:0:0:
296,40,142357,1,0,0:0:0:0:
240,88,142705,1,0,0:0:0:0:
248,128,142879,1,0,0:0:0:0:
304,160,143227,1,0,0:0:0:0:
336,168,143401,1,0,0:0:0:0:
368,184,143749,1,0,0:0:0:0:
432,272,144183,6,0,B|360:328|360:328|304:272|304:272,2,163.333333333333
432,272,145662,2,0,P|376:224|320:192,1,116.666666666667
336,208,146270,2,0,B|144:248|112:144|152:48|152:48,1,303.333333333333
168,72,148183,5,0,0:0:0:0:
400,144,148444,1,0,0:0:0:0:
152,208,148705,1,0,0:0:0:0:
376,280,148966,1,0,0:0:0:0:
144,232,149227,1,0,0:0:0:0:
376,168,149488,1,0,0:0:0:0:
168,96,149749,1,0,0:0:0:0:
128,232,150009,1,0,0:0:0:0:
112,144,150270,5,0,0:0:0:0:
176,96,150531,1,0,0:0:0:0:
256,80,150792,1,0,0:0:0:0:
352,112,151053,1,0,0:0:0:0:
400,192,151314,1,0,0:0:0:0:
352,280,151575,1,0,0:0:0:0:
264,304,151836,1,0,0:0:0:0:
192,256,152096,1,0,0:0:0:0:
208,168,152357,1,0,0:0:0:0:
288,136,152618,1,0,0:0:0:0:
392,216,152879,1,0,0:0:0:0:
480,240,153314,2,0,P|408:200|408:200,3,70
288,112,154444,6,0,B|282:109|322:125|330:165,1,70
336,224,154966,2,0,B|338:218|322:258|282:266,1,70
224,272,155488,2,0,B|229:274|189:258|181:218,1,70
176,160,156009,2,0,B|173:165|189:125|229:117,1,70
288,112,156531,2,0,B|282:109|322:125|330:165,1,70
336,224,157053,2,0,B|338:218|322:258|282:266,1,70
224,272,157575,2,0,B|229:274|189:258|181:218,1,70
176,160,158096,2,0,B|173:165|189:125|229:117,1,70
424,136,158879,5,0,0:0:0:0:
400,144,159140,1,0,0:0:0:0:
368,152,159314,1,0,0:0:0:0:
328,160,159575,1,0,0:0:0:0:
288,152,159749,1,0,0:0:0:0:
248,144,159922,1,0,0:0:0:0:
208,144,160183,1,0,0:0:0:0:
176,152,160705,2,0,B|224:192|224:192|208:232|208:232|280:192|280:192|256:232|256:232|296:264|296:264,1,280
352,304,162792,5,0,0:0:0:0:
104,240,163053,1,0,0:0:0:0:
352,192,163314,1,0,0:0:0:0:
112,104,163575,1,0,0:0:0:0:
344,184,163836,1,0,0:0:0:0:
120,240,164096,1,0,0:0:0:0:
344,320,164357,1,0,0:0:0:0:
256,192,164749,12,12,166966,0:0:0:0:
64,48,168531,5,0,0:0:0:0:
168,88,169575,1,0,0:0:0:0:
176,176,170096,1,0,0:0:0:0:
176,176,170227,1,0,0:0:0:0:
176,176,170357,1,0,0:0:0:0:
240,208,170618,1,0,0:0:0:0:
400,72,171662,1,0,0:0:0:0:
304,160,172444,1,0,0:0:0:0:
304,160,172575,1,0,0:0:0:0:
304,160,172705,1,0,0:0:0:0:
336,256,172966,1,0,0:0:0:0:
168,120,173749,1,0,0:0:0:0:
232,176,174270,1,0,0:0:0:0:
232,176,174401,1,0,0:0:0:0:
232,176,174531,1,0,0:0:0:0:
280,232,174792,1,0,0:0:0:0:
352,288,175836,5,0,0:0:0:0:
400,192,176879,1,0,0:0:0:0:
304,104,177922,1,0,0:0:0:0:
160,88,178444,1,0,0:0:0:0:
160,88,178575,1,0,0:0:0:0:
160,88,178705,1,0,0:0:0:0:
128,184,178966,1,0,0:0:0:0:
392,248,179488,5,0,0:0:0:0:
128,208,180009,1,0,0:0:0:0:
400,176,180531,1,0,0:0:0:0:
120,176,181053,1,0,0:0:0:0:
432,176,181575,1,0,0:0:0:0:
128,192,182096,1,0,0:0:0:0:
56,144,183140,5,0,0:0:0:0:
64,168,183270,1,0,0:0:0:0:
80,192,183401,1,0,0:0:0:0:
104,216,183532,1,0,0:0:0:0:
128,224,183662,1,0,0:0:0:0:
224,248,184183,5,0,0:0:0:0:
248,240,184313,1,0,0:0:0:0:
272,216,184444,1,0,0:0:0:0:
288,192,184575,1,0,0:0:0:0:
296,168,184705,1,0,0:0:0:0:
336,96,185227,5,0,0:0:0:0:
360,104,185357,1,0,0:0:0:0:
384,128,185488,1,0,0:0:0:0:
400,152,185619,1,0,0:0:0:0:
408,176,185749,1,0,0:0:0:0:
152,112,187575,5,0,0:0:0:0:
248,176,187705,1,0,0:0:0:0:
256,272,187836,1,0,0:0:0:0:
168,256,188488,5,0,0:0:0:0:
240,176,188618,1,0,0:0:0:0:
352,216,188749,1,0,0:0:0:0:
408,120,189662,5,0,0:0:0:0:
344,224,189792,1,0,0:0:0:0:
400,328,189922,1,0,0:0:0:0:
192,96,192009,5,0,0:0:0:0:
376,208,193053,5,0,0:0:0:0:
176,288,194096,5,0,0:0:0:0:
112,192,194879,5,0,0:0:0:0:
136,200,195009,1,0,0:0:0:0:
168,208,195140,1,0,0:0:0:0:
240,216,195401,1,0,0:0:0:0:
312,208,195662,1,0,0:0:0:0:
344,192,195792,1,0,0:0:0:0:
360,168,195922,1,0,0:0:0:0:
360,128,196053,1,0,0:0:0:0:
344,96,196183,1,0,0:0:0:0:
200,88,196966,5,0,0:0:0:0:
136,96,197227,1,0,0:0:0:0:
112,104,197357,1,0,0:0:0:0:
88,120,197488,1,0,0:0:0:0:
72,144,197618,1,0,0:0:0:0:
48,232,197748,1,0,0:0:0:0:
136,304,198009,1,0,0:0:0:0:
160,296,198140,1,0,0:0:0:0:
192,280,198270,1,0,0:0:0:0:
240,184,198661,1,0,0:0:0:0:
72,64,199836,5,0,0:0:0:0:
80,88,199966,1,0,0:0:0:0:
96,112,200097,1,0,0:0:0:0:
120,136,200228,1,0,0:0:0:0:
144,144,200358,1,0,0:0:0:0:
200,152,200878,5,0,0:0:0:0:
232,168,201008,1,0,0:0:0:0:
256,192,201139,1,0,0:0:0:0:
280,216,201270,1,0,0:0:0:0:
312,232,201400,1,0,0:0:0:0:
368,232,201922,5,0,0:0:0:0:
392,224,202052,1,0,0:0:0:0:
416,200,202183,1,0,0:0:0:0:
432,176,202314,1,0,0:0:0:0:
440,152,202444,1,0,0:0:0:0:
256,80,203488,5,0,0:0:0:0:
256,152,204270,5,0,0:0:0:0:
344,240,204401,1,0,0:0:0:0:
256,344,204531,1,0,0:0:0:0:
248,336,205314,1,0,0:0:0:0:
184,232,205444,1,0,0:0:0:0:
256,128,205575,1,0,0:0:0:0:
256,120,206096,1,0,0:0:0:0:
256,184,206357,1,0,0:0:0:0:
256,192,206488,1,0,0:0:0:0:
256,200,206618,1,0,0:0:0:0:
88,64,208575,2,0,B|152:88|168:88|160:88,1,70
216,112,209227,1,0,0:0:0:0:
408,152,209618,2,0,B|338:170|322:170|330:170,1,70
264,192,210270,1,0,0:0:0:0:
88,120,210662,2,0,B|152:144|168:144|160:144,1,70
224,168,211314,1,0,0:0:0:0:
256,216,211836,2,0,B|256:136|256:136|368:136|368:136|368:232|368:232|368:232|368:232,1,280
368,224,213401,5,0,0:0:0:0:
352,160,213662,1,0,0:0:0:0:
280,152,213922,1,0,0:0:0:0:
272,176,214053,1,0,0:0:0:0:
256,200,214183,1,0,0:0:0:0:
192,256,214444,1,0,0:0:0:0:
160,264,214705,1,0,0:0:0:0:
128,256,214836,1,0,0:0:0:0:
96,200,214966,1,0,0:0:0:0:
120,144,215357,1,0,0:0:0:0:
256,192,217053,12,0,218618,0:0:0:0:
256,192,219140,12,0,219922,0:0:0:0:
256,192,221227,12,0,222009,0:0:0:0:
256,192,223314,12,0,224096,0:0:0:0:
112,88,225401,5,0,0:0:0:0:
136,96,225531,1,0,0:0:0:0:
216,128,225792,1,0,0:0:0:0:
304,160,226183,1,0,0:0:0:0:
416,184,227488,1,0,0:0:0:0:
392,192,227618,1,0,0:0:0:0:
312,224,227879,1,0,0:0:0:0:
224,256,228270,1,0,0:0:0:0:
104,304,229575,1,0,0:0:0:0:
112,280,229705,1,0,0:0:0:0:
144,200,229966,1,0,0:0:0:0:
176,112,230357,1,0,0:0:0:0:
232,48,231662,1,0,0:0:0:0:
256,56,231792,1,0,0:0:0:0:
336,88,232053,1,0,0:0:0:0:
424,120,232444,1,0,0:0:0:0:
120,104,233749,1,0,0:0:0:0:
392,304,234531,1,0,0:0:0:0:
272,296,235836,5,0,0:0:0:0:
280,272,235966,1,0,0:0:0:0:
272,192,236227,1,0,0:0:0:0:
232,112,236618,1,0,0:0:0:0:
144,80,237922,1,0,0:0:0:0:
120,88,238052,1,0,0:0:0:0:
72,168,238313,1,0,0:0:0:0:
48,264,238704,1,0,0:0:0:0:
256,192,240009,12,4,242096,0:0:0:0:
256,192,243662,12,4,244966,0:0:0:0:
256,192,245879,12,4,247053,0:0:0:0:
256,192,248096,12,4,249140,0:0:0:0:
