osu file format v14

[General]
AudioFilename: audio.mp3
AudioLeadIn: 0
PreviewTime: 248851
Countdown: 0
SampleSet: Soft
StackLeniency: 0.3
Mode: 0
LetterboxInBreaks: 0
WidescreenStoryboard: 1

[Editor]
Bookmarks: 1544,21237,31083,40929,50775,70468,90160,109852,128313,138159,150467,170159,189852,209544,229236,248928,258774,273543,293236,312928,327697
DistanceSpacing: 0.3
BeatDivisor: 4
GridSize: 32
TimelineZoom: 2.5

[Metadata]
Title:Carmina (Extended Mix)
TitleUnicode:Carmina (Extended Mix)
Artist:CANVAS feat. Quimaer
ArtistUnicode:CANVAS feat. Quimär
Creator:Realazy
Version:Apotheosis
Source:beatmania IIDX 26 Rootage
Tags:SYMPHONIC TRANCECORE RoughSketch Quimar uno NiActivity NUE 蜃気楼の図書館 electronic instrumental
BeatmapID:3311391
BeatmapSetID:1621918

[Difficulty]
HPDrainRate:5
CircleSize:4.2
OverallDifficulty:9
ApproachRate:9.6
SliderMultiplier:1.95
SliderTickRate:1

[Events]
//Background and Video events
0,0,"73950357.jpg",0,0
//Break Periods
2,249127,257650
//Storyboard Layer 0 (Background)
//Storyboard Layer 1 (Fail)
//Storyboard Layer 2 (Pass)
//Storyboard Layer 3 (Foreground)
//Storyboard Layer 4 (Overlay)
//Storyboard Sound Samples

[TimingPoints]
315,307.692307692308,4,2,1,50,1,0
315,-166.666666666667,4,2,1,50,0,0
11391,-133.333333333333,4,2,1,60,0,0
21161,-133.333333333333,4,2,1,5,0,0
21238,-111.111111111111,4,2,1,60,0,0
31084,-100,4,2,1,70,0,0
31468,-100,4,2,1,5,0,0
31545,-80,4,2,1,70,0,0
32699,-80,4,2,1,5,0,0
32776,-80,4,2,1,70,0,0
33930,-80,4,2,1,5,0,0
34007,-80,4,2,1,70,0,0
34776,-66.6666666666667,4,2,1,70,0,0
34930,-66.6666666666667,4,2,1,5,0,0
35007,-66.6666666666667,4,2,1,70,0,0
35161,-66.6666666666667,4,2,1,5,0,0
35238,-66.6666666666667,4,2,1,70,0,0
36007,-100,4,2,1,70,0,0
36391,-100,4,2,1,5,0,0
36468,-80,4,2,1,70,0,0
37622,-80,4,2,1,5,0,0
37699,-80,4,2,1,70,0,0
38853,-80,4,2,1,5,0,0
38930,-80,4,2,1,70,0,0
39699,-100,4,2,1,80,0,0
40930,-80,4,2,1,80,0,0
41007,-80,4,2,1,60,0,0
43084,-50,4,2,1,60,0,0
43238,-50,4,2,1,80,0,0
43391,-80,4,2,1,80,0,0
43468,-80,4,2,1,60,0,0
45238,-57.1428571428571,4,2,1,60,0,0
45391,-57.1428571428571,4,2,1,5,0,0
45468,-57.1428571428571,4,2,1,60,0,0
45622,-57.1428571428571,4,2,1,5,0,0
45699,-57.1428571428571,4,2,1,60,0,0
45776,-57.1428571428571,4,2,1,5,0,0
45853,-80,4,2,1,80,0,0
45930,-80,4,2,1,60,0,0
47084,-80,4,2,1,80,0,0
47161,-80,4,2,1,60,0,0
48315,-80,4,2,1,90,0,0
50775,-66.6666666666667,4,2,1,80,0,0
51006,-80,4,2,1,80,0,0
55698,-66.6666666666667,4,2,1,80,0,0
55929,-80,4,2,1,80,0,0
56929,-66.6666666666667,4,2,1,80,0,0
57160,-80,4,2,1,80,0,0
58160,-57.1428571428571,4,2,1,80,0,0
58468,-133.333333333333,4,2,1,80,0,0
58621,-57.1428571428571,4,2,1,80,0,0
58929,-133.333333333333,4,2,1,80,0,0
59391,-100,4,2,1,80,0,0
60007,-100,4,2,1,70,0,0
60621,-66.6666666666667,4,2,1,80,0,0
60852,-80,4,2,1,80,0,0
63083,-66.6666666666667,4,2,1,80,0,0
63314,-80,4,2,1,80,0,0
64314,-66.6666666666667,4,2,1,80,0,0
64545,-80,4,2,1,80,0,0
64929,-200,4,2,1,80,0,0
65545,-133.333333333333,4,2,1,70,0,0
68006,-66.6666666666667,4,2,1,80,0,0
69237,-100,4,2,1,80,0,0
70468,-151.515151515152,4,2,1,80,0,0
71237,-50,4,2,1,80,0,0
71698,-151.515151515152,4,2,1,80,0,0
72467,-50,4,2,1,80,0,0
72929,-151.515151515152,4,2,1,80,0,0
73698,-50,4,2,1,80,0,0
74160,-133.333333333333,4,2,1,80,0,0
74929,-100,4,2,1,80,0,0
75391,-151.515151515152,4,2,1,80,0,0
76160,-50,4,2,1,80,0,0
76621,-151.515151515152,4,2,1,80,0,0
77390,-50,4,2,1,80,0,0
77852,-151.515151515152,4,2,1,80,0,0
78621,-50,4,2,1,80,0,0
79083,-133.333333333333,4,2,1,80,0,0
79852,-100,4,2,1,80,0,0
80315,-100,4,2,1,70,0,0
80775,-133.333333333333,4,2,1,70,0,0
85237,-100,4,2,1,70,0,0
85698,-133.333333333333,4,2,1,70,0,0
87698,-100,4,2,1,70,0,0
88160,-133.333333333333,4,2,1,70,0,0
88929,-200,4,2,1,60,0,0
90160,-66.6666666666667,4,2,1,80,0,0
90391,-80,4,2,1,80,0,0
94314,-66.6666666666667,4,2,1,80,0,0
95314,-80,4,2,1,80,0,0
96006,-66.6666666666667,4,2,1,80,0,0
96545,-80,4,2,1,80,0,0
96929,-133.333333333333,4,2,1,80,0,0
97545,-57.1428571428571,4,2,1,80,0,0
97852,-133.333333333333,4,2,1,80,0,0
98006,-57.1428571428571,4,2,1,80,0,0
98314,-133.333333333333,4,2,1,80,0,0
98776,-100,4,2,1,80,0,0
99393,-100,4,2,1,70,0,0
100006,-66.6666666666667,4,2,1,80,0,0
100237,-80,4,2,1,80,0,0
102160,-57.1428571428571,4,2,1,80,0,0
102468,-66.6666666666667,4,2,1,80,0,0
102699,-80,4,2,1,80,0,0
103699,-66.6666666666667,4,2,1,80,0,0
103930,-80,4,2,1,80,0,0
104314,-57.1428571428571,4,2,1,80,0,0
104930,-133.333333333333,4,2,1,70,0,0
107391,-66.6666666666667,4,2,1,80,0,0
108621,-100,4,2,1,80,0,0
109852,307.692307692308,3,2,1,60,1,0
109852,-133.333333333333,3,2,1,60,0,0
113236,-80,3,2,1,60,0,0
113544,-133.333333333333,3,2,1,60,0,0
115082,-100,3,2,1,60,0,0
117236,-133.333333333333,3,2,1,60,0,0
118775,-100,3,2,1,60,0,0
119082,-133.333333333333,3,2,1,60,0,0
120005,-79.9999999999999,3,2,1,60,0,0
120569,-79.9999999999999,3,2,1,5,0,0
120621,-79.9999999999999,3,2,1,60,0,0
120929,307.692307692308,4,2,1,70,1,0
125852,-66.6666666666667,4,2,1,70,0,0
128005,-50,4,2,1,80,0,0
128236,-50,4,2,1,5,0,0
128313,-100,4,2,1,60,0,0
132621,-400,4,2,1,60,0,0
133236,-100,4,2,1,60,0,0
136544,-100,4,2,1,5,0,0
136621,-100,4,2,1,60,0,0
136852,-100,4,2,1,5,0,0
136929,-100,4,2,1,60,0,0
138160,-100,4,2,1,70,0,0
143082,-100,4,2,1,60,0,0
143391,-400,4,2,1,60,0,0
144314,-80,4,2,1,70,0,0
144621,-400,4,2,1,70,0,0
145237,-100,4,2,1,70,0,0
145545,-66.6666666666667,4,2,1,80,0,0
146775,-66.6666666666667,4,2,1,90,0,0
148006,-200,4,2,1,40,0,0
148314,-133.333333333333,4,2,1,50,0,0
148621,-100,4,2,1,60,0,0
148929,-80,4,2,1,70,0,0
149237,-66.6666666666667,4,2,1,80,0,0
149544,-66.6666666666667,4,2,1,70,0,0
149698,-66.6666666666667,4,2,1,90,0,0
150468,-80,4,2,1,90,0,0
150775,-66.6666666666667,4,2,1,90,0,0
151237,-80,4,2,1,90,0,0
151698,-111.111111111111,4,2,1,90,0,0
152160,-80,4,2,1,90,0,0
152775,-80,4,2,1,90,0,0
153698,-66.6666666666667,4,2,1,90,0,0
155391,-80,4,2,1,90,0,0
155698,-66.6666666666667,4,2,1,90,0,0
156160,-80,4,2,1,90,0,0
156621,-111.111111111111,4,2,1,90,0,0
157083,-80,4,2,1,90,0,0
157852,-66.6666666666667,4,2,1,90,0,0
158468,-57.1428571428571,4,2,1,90,0,0
160314,-80,4,2,1,90,0,0
161545,-50,4,2,1,90,0,0
162314,-200,4,2,1,90,0,0
162775,-66.6666666666667,4,2,1,90,0,0
164083,-57.1428571428571,4,2,1,90,0,0
164775,-50,4,2,1,90,0,0
165237,-80,4,2,1,90,0,0
165698,-66.6666666666667,4,2,1,90,0,0
166314,-57.1428571428571,4,2,1,90,0,0
167698,-50,4,2,1,90,0,0
168160,-80,4,2,1,90,0,0
168775,-50,4,2,1,90,0,0
168929,-57.1428571428571,4,2,1,90,0,0
168980,-57.1428571428571,4,2,1,60,0,0
169237,-66.6666666666667,4,2,1,80,0,0
169287,-66.6666666666667,4,2,1,50,0,0
169545,-80,4,2,1,70,0,0
169595,-80,4,2,1,40,0,0
169852,-100,4,2,1,60,0,0
169903,-100,4,2,1,30,0,0
170159,-133.333333333333,4,2,1,70,0,0
180005,-66.6666666666667,4,2,1,80,0,0
180313,-133.333333333333,4,2,1,80,0,0
181236,-80,4,2,1,80,0,0
181544,-100,4,2,1,80,0,0
188621,-57.1428571428571,4,2,1,90,0,0
189852,-66.6666666666667,4,2,1,90,0,0
209544,-57.1428571428571,4,2,1,90,0,0
210775,-80,4,2,1,90,0,0
214159,-57.1428571428571,4,2,1,90,0,0
214467,-80,4,2,1,90,0,0
219390,-80,4,2,2,90,0,0
229236,307.692307692308,3,2,1,60,1,0
229236,-133.333333333333,3,2,1,60,0,0
232620,-79.9999999999999,3,2,1,60,0,0
232928,-133.333333333333,3,2,1,60,0,0
234466,-79.9999999999999,3,2,1,60,0,0
236620,-133.333333333333,3,2,1,60,0,0
238159,-100,3,2,1,60,0,0
238466,-133.333333333333,3,2,1,60,0,0
239389,-79.9999999999999,3,2,1,60,0,0
239953,-79.9999999999999,3,2,1,5,0,0
240005,-79.9999999999999,3,2,1,60,0,0
240313,307.692307692308,4,2,1,70,1,0
245236,-66.6666666666667,4,2,1,70,0,0
248620,-50,4,2,1,80,0,0
258159,-80,4,2,1,80,0,0
258774,-100,4,2,1,80,0,0
264005,-400,4,2,1,80,0,0
264928,-100,4,2,1,80,0,0
265236,-400,4,2,1,80,0,0
265851,-100,4,2,1,80,0,0
266159,-66.6666666666667,4,2,1,80,0,0
271082,-200,4,2,1,40,0,0
271389,-133.333333333333,4,2,1,50,0,0
271697,-100,4,2,1,60,0,0
272005,-80,4,2,1,70,0,0
272313,-66.6666666666667,4,2,1,80,0,0
272620,-66.6666666666667,4,2,1,70,0,0
272774,-66.6666666666667,4,2,1,90,0,0
273543,-100,4,2,1,90,0,0
273774,-66.6666666666667,4,2,1,90,0,0
274774,-57.1428571428571,4,2,1,90,0,0
276005,-66.6666666666667,4,2,1,90,0,0
276697,-57.1428571428571,4,2,1,90,0,0
278466,-66.6666666666667,4,2,1,90,0,0
278928,-57.1428571428571,4,2,1,90,0,0
279697,-80,4,2,1,90,0,0
280159,-66.6666666666667,4,2,1,90,0,0
281543,-57.1428571428571,4,2,1,90,0,0
283389,-66.6666666666667,4,2,1,90,0,0
284620,-50,4,2,1,90,0,0
285389,-200,4,2,1,90,0,0
285851,-66.6666666666667,4,2,1,90,0,0
287159,-50,4,2,1,90,0,0
288313,-80,4,2,1,90,0,0
288774,-66.6666666666667,4,2,1,90,0,0
289389,-57.1428571428571,4,2,1,90,0,0
290774,-50,4,2,1,90,0,0
291236,-80,4,2,1,90,0,0
291851,-50,4,2,1,90,0,0
292005,-80,4,2,1,90,0,0
292056,-80,4,2,1,60,0,0
292466,-80,4,2,1,90,0,0
293236,-66.6666666666667,4,2,1,90,0,0
294466,-80,4,2,1,90,0,0
294928,-66.6666666666667,4,2,1,90,0,0
295389,-57.1428571428571,4,2,1,90,0,0
295697,-66.6666666666667,4,2,1,90,0,0
296928,-80,4,2,1,90,0,0
297389,-66.6666666666667,4,2,1,90,0,0
297851,-57.1428571428571,4,2,1,90,0,0
299851,-66.6666666666667,4,2,1,90,0,0
300312,-80,4,2,1,90,0,0
301851,-66.6666666666667,4,2,1,90,0,0
309851,-133.333333333333,4,2,1,90,0,0
310466,-66.6666666666667,4,2,1,90,0,0
312313,-133.333333333333,4,2,1,90,0,0
312928,-100,4,2,1,80,0,0
314774,-50,4,2,1,80,0,0
315389,-100,4,2,1,80,0,0
317236,-50,4,2,1,80,0,0
317851,-100,4,2,1,80,0,0
319697,-50,4,2,1,80,0,0
320313,-100,4,2,1,80,0,0
322005,-250,4,2,1,80,0,0
322774,-250,4,2,1,65,0,0
324005,-250,4,2,1,50,0,0
325236,-250,4,2,1,35,0,0
326466,-250,4,2,1,20,0,0
327697,-250,4,2,1,5,0,0

[Colours]
Combo1 : 137,181,245
Combo2 : 236,173,147
Combo3 : 201,126,118
Combo4 : 241,204,141
Combo5 : 208,98,79
Combo6 : 254,228,129
Combo7 : 255,106,106
Combo8 : 139,225,243

[HitObjects]
111,347,1545,6,0,L|90:231,2,116.999996429443,4|0|2,3:1|0:0|3:0,0:0:0:0:
111,347,2468,5,0,0:0:0:0:
136,212,2622,1,0,3:0:0:0:
161,77,2776,1,0,3:0:0:0:
59,219,3084,1,0,0:0:0:0:
215,298,3391,2,0,L|234:294,10,19.4999994049072,0|0|0|0|0|0|0|0|0|0|0,3:0|3:0|3:0|3:0|3:0|3:0|3:0|3:0|3:0|3:0|3:0,0:0:0:0:
293,348,4007,102,0,P|350:360|406:374,2,116.999996429443,4|0|2,3:1|0:0|3:0,0:0:0:0:
293,348,4930,5,0,0:0:0:0:
422,364,5084,1,0,3:0:0:0:
440,224,5238,1,0,3:0:0:0:
281,340,5545,1,0,3:0:0:0:
242,160,5853,2,0,P|237:132|237:103,1,58.4999982147217
248,101,6161,2,0,P|248:130|254:159,1,58.4999982147217
475,31,6468,102,0,P|419:45|382:89,2,116.999996429443,4|0|2,3:1|0:0|3:0,0:0:0:0:
475,31,7391,5,0,0:0:0:0:
365,99,7545,1,0,3:0:0:0:
271,10,7699,1,0,3:0:0:0:
188,165,8007,1,0,3:0:0:0:
21,100,8315,2,0,L|16:81,10,19.4999994049072,0|0|0|0|0|0|0|0|0|0|0,3:0|3:0|3:0|3:0|3:0|3:0|3:0|3:0|3:0|3:0|3:0,0:0:0:0:
85,29,8930,102,0,P|93:86|102:144,2,116.999996429443,4|0|2,3:1|0:0|3:0,0:0:0:0:
85,29,9853,5,0,0:0:0:0:
123,154,10007,1,0,3:0:0:0:
0,207,10161,1,0,3:0:0:0:
58,277,10315,2,0,P|73:251|77:222,2,58.4999982147217,2|0|0,0:0|0:0|0:0,0:0:0:0:
177,70,10776,101,0,3:0:0:0:
250,118,10930,2,0,P|264:143|268:172,2,58.4999982147217,2|0|0,0:0|0:0|0:0,0:0:0:0:
149,257,11391,6,0,P|215:255|224:321,1,146.250005578995,4|0,1:0|0:0,0:0:0:0:
224,321,11853,1,0,3:0:0:0:
52,362,12007,1,2,3:0:0:0:
52,362,12315,101,0,0:0:0:0:
149,257,12468,1,0,3:0:0:0:
50,180,12622,2,0,P|42:144|35:108,1,73.1250027894975,0|0,3:0|0:0,0:0:0:0:
113,44,12930,2,0,P|120:79|127:115,1,73.1250027894975,0|0,3:0|0:0,0:0:0:0:
260,242,13238,2,0,L|284:246,10,24.3750009298325,0|0|0|0|0|0|0|0|0|0|0,3:0|3:0|3:0|3:0|3:0|3:0|3:0|3:0|3:0|3:0|3:0,0:0:0:0:
335,314,13853,6,0,P|323:241|311:169,1,146.250005578995,4|0,3:1|0:0,0:0:0:0:
296,154,14315,1,0,3:0:0:0:
428,46,14468,1,2,3:0:0:0:
428,46,14776,101,0,0:0:0:0:
313,151,14930,1,0,3:0:0:0:
440,245,15084,2,0,P|450:279|452:316,1,73.1250027894975,0|0,3:0|0:0,0:0:0:0:
370,338,15391,2,0,P|359:303|357:266,1,73.1250027894975,0|0,3:0|0:0,0:0:0:0:
454,125,15699,5,0,0:0:0:0:
475,129,15853,1,0,0:0:0:0:
470,151,16007,1,0,0:0:0:0:
449,146,16161,1,0,0:0:0:0:
311,37,16315,102,0,P|239:53|168:68,1,146.250005578995,4|0,3:1|0:0,0:0:0:0:
151,57,16776,1,0,3:0:0:0:
39,164,16930,1,2,3:0:0:0:
39,164,17238,5,0,0:0:0:0:
147,78,17391,1,0,3:0:0:0:
166,227,17545,2,0,P|171:263|175:299,1,73.1250027894975,0|0,3:0|0:0,0:0:0:0:
86,337,17853,2,0,P|80:300|76:264,1,73.1250027894975,0|0,3:0|0:0,0:0:0:0:
250,144,18161,2,0,L|273:148,9,24.3750009298325,0|0|0|0|0|0|0|0|0|0,3:0|3:0|3:0|3:0|3:0|3:0|3:0|3:0|3:0|3:0,0:0:0:0:
321,85,18776,102,0,P|388:89|397:156,1,146.250005578995,4|0,3:1|0:0,0:0:0:0:
376,163,19238,1,0,3:0:0:0:
483,54,19391,1,2,3:0:0:0:
483,54,19699,5,0,0:0:0:0:
376,163,19853,1,0,3:0:0:0:
489,331,20007,2,0,P|496:295|502:259,1,73.1250027894975,0|0,3:0|0:0,0:0:0:0:
426,234,20315,2,0,P|418:269|412:305,1,73.1250027894975,0|0,3:0|0:0,0:0:0:0:
325,381,20622,54,2,B|332:334|332:334|495:301|495:301|502:257,1,255.937509763241,0|0,3:0|0:0,0:1:0:0:
442,207,21238,70,0,L|268:182,2,175.499994644165,4|0|2,3:1|0:0|3:0,0:0:0:0:
343,68,22007,5,0,0:0:0:0:
257,87,22161,1,2,0:0:0:0:
277,173,22315,1,2,0:0:0:0:
362,153,22468,2,0,L|188:128,2,175.499994644165,2|0|0,3:2|3:0|3:0,0:0:0:0:
482,100,23238,101,0,0:0:0:0:
373,165,23391,1,2,0:0:0:0:
505,243,23545,1,2,0:0:0:0:
364,316,23699,6,0,P|284:310|288:229,2,175.499994644165,4|0|2,3:1|0:0|3:0,0:0:0:0:
249,384,24468,101,0,0:0:0:0:
83,358,24622,1,2,0:0:0:0:
166,371,24776,1,2,0:0:0:0:
0,345,24930,2,0,P|-2:265|77:260,2,175.499994644165,2|0|0,3:2|0:0|0:0,0:0:0:0:
0,345,25853,2,0,P|23:308|17:265,1,87.7499973220826,2|0,0:0|0:0,0:0:0:0:
117,178,26161,6,0,P|203:202|293:222,2,175.499994644165,4|0|2,3:1|0:0|3:0,0:0:0:0:
11,38,26930,101,2,0:0:0:0:
27,118,27084,1,2,0:0:0:0:
22,24,27238,1,2,0:0:0:0:
44,131,27391,2,0,P|127:159|211:182,1,175.499994644165,2|0,3:2|0:0,0:0:0:0:
211,182,28007,2,0,L|217:210,9,29.2499991073609,2|0|0|0|0|0|0|0|0|0,3:2|3:0|3:0|3:0|3:0|3:0|3:0|3:0|3:0|3:0,0:0:0:0:
276,129,28622,6,0,B|332:137|364:100|354:92|383:52|437:65,1,175.499994644165,4|0,3:1|0:0,0:0:0:0:
321,16,29084,1,0,0:0:0:0:
321,16,29238,2,0,P|351:98|377:182,1,175.499994644165,2|0,3:0|3:0,0:0:0:0:
301,296,29699,1,2,3:2:0:0:
448,381,29853,2,0,P|460:338|471:296,1,87.7499973220826,2|0,3:2|0:0,0:0:0:0:
397,264,30161,2,0,P|386:306|373:348,1,87.7499973220826,0|0,3:0|0:0,0:0:0:0:
245,384,30468,101,0,0:0:0:0:
219,377,30622,1,0,0:0:0:0:
226,351,30776,1,0,0:0:0:0:
251,358,30930,1,0,0:0:0:0:
49,291,31084,22,0,B|-20:303|-20:303|147:347,1,243.75,4|0,1:0|0:0,0:0:0:0:
145,328,31545,2,0,L|123:207,1,121.875,4|0,3:1|0:0,0:0:0:0:
65,128,31853,85,2,0:0:0:0:
220,162,32007,1,2,0:0:0:0:
255,6,32161,1,2,0:0:0:0:
159,66,32315,5,2,0:0:0:0:
340,376,32468,6,0,B|359:298|359:298|389:283|389:283|406:216,1,182.8125,4|0,1:0|0:0,0:0:0:0:
410,237,32776,2,0,B|417:263|417:263|505:299,1,121.875,4|0,3:1|0:0,0:0:0:0:
493,195,33084,85,2,0:0:0:0:
431,363,33238,1,2,0:0:0:0:
316,226,33391,1,2,0:0:0:0:
413,260,33545,5,2,0:0:0:0:
303,11,33699,6,0,B|292:71|292:71|410:96,1,182.8125,4|0,1:0|0:0,0:0:0:0:
423,86,34007,2,0,B|435:24|435:24|494:35,1,121.875,4|0,3:1|0:0,0:0:0:0:
492,194,34315,85,2,0:0:0:0:
281,99,34468,1,2,0:0:0:0:
504,27,34622,1,2,0:0:0:0:
276,294,34776,6,0,B|217:283|217:283|201:259|201:259|145:248,1,146.250005578995,4|0,1:0|0:0,0:0:0:0:
136,245,35007,2,0,B|192:234|192:234|208:210|208:210|266:199,1,146.250005578995,4|0,1:0|0:0,0:0:0:0:
278,191,35238,1,4,1:0:0:0:
134,153,35391,5,2,0:0:0:0:
134,153,35545,1,0,0:0:0:0:
58,321,35699,85,2,0:0:0:0:
58,321,35853,1,0,0:0:0:0:
8,81,36007,22,0,B|21:29|21:29|209:0,1,243.75,4|0,1:0|0:0,0:0:0:0:
206,16,36468,2,0,B|174:133,1,121.875,4|0,3:1|0:0,0:0:0:0:
26,268,36776,85,2,0:0:0:0:
88,100,36930,1,2,0:0:0:0:
202,238,37084,1,2,0:0:0:0:
105,202,37238,5,2,0:0:0:0:
312,57,37391,6,0,L|491:93,1,182.8125,4|0,1:0|0:0,0:0:0:0:
495,77,37699,2,0,L|505:17,1,60.9375,4|0,3:1|0:0,0:0:0:0:
385,118,37853,85,2,0:0:0:0:
385,118,38007,1,0,0:0:0:0:
500,253,38161,21,2,0:0:0:0:
500,253,38315,1,0,0:0:0:0:
270,314,38468,101,2,0:0:0:0:
384,375,38622,6,0,B|202:353,1,182.8125,4|0,1:0|0:0,0:0:0:0:
196,342,38930,2,0,B|178:282|178:282|225:246,2,121.875,4|0|0,3:1|0:0|0:0,0:0:0:0:
37,160,39391,86,0,L|49:220,1,60.9375,2|0,3:2|0:0,0:0:0:0:
119,202,39545,2,0,L|107:142,1,60.9375,2|0,3:2|0:0,0:0:0:0:
290,35,39699,6,0,B|348:15|390:101|311:169|212:123|203:47|203:47|112:75|127:185|127:185|177:132|249:139,1,585,6|8,1:2|0:0,0:0:0:0:
245,139,40930,69,6,1:2:0:0:
203,148,41006,1,0,0:0:0:0:
173,176,41083,1,0,0:0:0:0:
160,217,41160,1,0,0:0:0:0:
170,258,41238,2,0,L|228:273,3,60.9375,2|0|0|0,0:0|0:0|0:0|0:0,0:0:0:0:
233,353,41545,2,0,L|165:336,3,60.9375,2|0|0|0,0:0|0:0|0:0|0:0,0:0:0:0:
285,210,41853,5,2,0:0:0:0:
307,212,41929,1,2,0:0:0:0:
330,221,42007,1,2,0:0:0:0:
351,239,42084,1,2,0:0:0:0:
380,259,42161,101,2,0:0:0:0:
424,251,42237,1,0,0:0:0:0:
455,219,42315,1,0,0:0:0:0:
461,175,42391,1,0,0:0:0:0:
439,135,42468,2,0,P|427:106|425:76,3,60.9375,2|0|0|0,0:0|0:0|0:0|0:0,0:0:0:0:
499,58,42776,2,0,P|510:86|512:116,3,60.9375,2|0|0|0,0:0|0:0|0:0|0:0,0:0:0:0:
379,10,43084,5,2,0:0:0:0:
379,10,43161,1,2,0:0:0:0:
379,10,43238,2,0,P|333:21|320:66,1,97.5,6|0,1:2|0:0,0:0:0:0:
393,351,43391,101,6,1:2:0:0:
435,368,43467,1,0,0:0:0:0:
477,353,43544,1,0,0:0:0:0:
496,313,43621,1,0,0:0:0:0:
482,270,43699,2,0,L|422:257,3,60.9375,2|0|0|0,0:0|0:0|0:0|0:0,0:0:0:0:
416,179,44007,2,0,L|475:191,3,60.9375,2|0|0|0,0:0|0:0|0:0|0:0,0:0:0:0:
328,288,44315,5,2,0:0:0:0:
318,301,44391,1,2,0:0:0:0:
298,314,44468,1,2,0:0:0:0:
273,322,44545,1,2,0:0:0:0:
240,324,44622,101,2,0:0:0:0:
194,316,44698,1,0,0:0:0:0:
149,308,44775,1,0,0:0:0:0:
104,300,44852,1,0,0:0:0:0:
59,292,44930,2,0,L|0:279,3,60.9375,2|0|0|0,0:0|0:0|0:0|0:0,0:0:0:0:
192,192,45238,70,0,B|149:210|134:253|134:253|112:214|66:208,1,170.625001627207,6|0,1:2|0:0,0:0:0:0:
50,71,45468,2,0,B|92:53|104:11|104:11|130:49|175:56,1,170.625001627207,6|0,1:2|0:0,0:0:0:0:
126,120,45699,2,0,P|116:147|119:118,1,85.3125008136034,6|0,1:2|0:0,0:0:0:0:
175,29,45853,37,6,1:2:0:0:
219,40,45929,1,0,0:0:0:0:
263,50,46006,1,0,0:0:0:0:
308,58,46083,1,0,0:0:0:0:
354,63,46161,2,0,P|383:55|413:48,3,60.9375,2|0|0|0,0:0|0:0|0:0|0:0,0:0:0:0:
480,93,46468,2,0,P|488:63|496:34,3,60.9375,2|0|0|0,0:0|0:0|0:0|0:0,0:0:0:0:
416,146,46776,5,2,0:0:0:0:
423,175,46852,1,2,0:0:0:0:
430,205,46929,1,2,0:0:0:0:
438,234,47006,1,2,0:0:0:0:
457,258,47084,101,6,1:2:0:0:
412,247,47160,1,0,0:0:0:0:
368,235,47237,1,0,0:0:0:0:
324,224,47314,1,0,0:0:0:0:
280,212,47391,2,0,P|272:182|265:152,3,60.9375,2|0|0|0,0:0|0:0|0:0|0:0,0:0:0:0:
193,181,47699,2,0,P|200:210|207:240,3,60.9375,2|0|0|0,0:0|0:0|0:0|0:0,0:0:0:0:
335,378,48007,5,2,0:0:0:0:
350,381,48084,1,2,0:0:0:0:
373,381,48161,1,2,0:0:0:0:
398,367,48238,1,2,0:0:0:0:
417,337,48315,54,0,P|426:298|436:259,2,81.25,2|2|0,1:2|1:2|1:0,0:0:0:0:
329,238,48622,2,0,P|319:198|310:159,2,81.25,2|2|0,1:2|1:2|1:0,0:0:0:0:
445,122,48930,85,2,1:2:0:0:
512,158,49032,2,0,P|473:146|433:135,1,81.25,2|0,1:2|1:0,0:0:0:0:
295,41,49238,21,2,1:2:0:0:
362,77,49340,2,0,P|323:65|283:54,1,81.25,2|0,1:2|1:0,0:0:0:0:
272,66,49853,85,2,1:2:0:0:
273,106,49955,1,2,1:2:0:0:
305,135,50058,1,2,1:2:0:0:
307,211,50161,21,2,1:2:0:0:
346,209,50263,1,2,1:2:0:0:
375,177,50366,1,2,1:2:0:0:
417,112,50468,86,0,L|452:105,10,20.3125,2|0|0|0|0|0|0|0|0|0|0,1:2|3:0|3:0|3:0|3:0|3:0|3:0|3:0|3:0|0:0|0:0,0:0:0:0:
451,181,50776,6,0,P|380:196|308:211,1,146.250005578995,6|0,1:2|0:0,0:0:0:0:
298,226,51007,2,0,P|291:255|286:285,1,60.9375,2|8,0:0|0:0,0:0:0:0:
427,374,51161,1,2,0:0:0:0:
427,374,51238,2,0,P|483:372|498:317,1,121.875,2|0,0:0|1:0,0:0:0:0:
439,34,51546,101,2,0:0:0:0:
204,81,51699,1,10,0:0:0:0:
448,44,51853,1,2,0:0:0:0:
194,96,52007,2,0,P|134:82|74:70,1,121.875,2|0,1:2|0:0,0:0:0:0:
61,85,52238,2,0,P|53:55|43:26,1,60.9375,2|8,0:0|0:0,0:0:0:0:
10,287,52469,5,2,0:0:0:0:
21,327,52546,1,2,0:0:0:0:
32,367,52623,1,2,1:2:0:0:
110,208,52776,1,2,0:0:0:0:
106,195,52827,1,2,0:0:0:0:
102,182,52878,1,2,0:0:0:0:
99,169,52929,1,10,0:0:0:0:
167,379,53084,1,2,0:0:0:0:
94,155,53238,102,0,P|123:104|182:100,1,121.875,2|0,1:2|0:0,0:0:0:0:
194,93,53469,2,0,P|200:122|207:152,1,60.9375,2|8,0:0|0:0,0:0:0:0:
245,306,53622,1,2,0:0:0:0:
245,306,53699,2,0,P|186:288|127:272,1,121.875,2|0,0:0|1:0,0:0:0:0:
351,375,54007,5,2,0:0:0:0:
398,159,54161,1,10,0:0:0:0:
340,384,54315,1,2,0:0:0:0:
388,148,54469,2,0,P|398:88|411:29,1,121.875,2|0,1:2|0:0,0:0:0:0:
422,18,54699,2,0,P|451:9|480:0,1,60.9375,2|8,0:0|0:0,0:0:0:0:
300,221,54930,101,2,0:0:0:0:
254,234,55006,1,2,0:0:0:0:
223,200,55083,1,2,1:2:0:0:
289,86,55238,1,2,0:0:0:0:
292,73,55289,1,2,0:0:0:0:
295,60,55340,1,2,0:0:0:0:
298,47,55391,1,10,0:0:0:0:
230,342,55546,1,0,1:0:0:0:
160,62,55699,6,0,B|78:51|108:10|32:-1,1,146.250005578995,6|0,1:2|0:0,0:0:0:0:
18,2,55930,2,0,P|0:26|0:56,1,60.9375,2|8,0:0|0:0,0:0:0:0:
95,139,56084,1,2,0:0:0:0:
95,139,56161,2,0,P|154:130|167:66,1,121.875,2|0,0:0|1:0,0:0:0:0:
29,312,56469,101,2,0:0:0:0:
293,367,56622,1,10,0:0:0:0:
32,328,56776,1,2,0:0:0:0:
310,384,56930,2,0,P|378:366|372:291,1,146.250005578995,6|0,1:2|0:0,0:0:0:0:
371,288,57161,2,0,P|341:281|311:275,1,60.9375,2|8,0:0|0:0,0:0:0:0:
468,116,57392,5,2,0:0:0:0:
481,154,57469,1,2,0:0:0:0:
495,193,57546,1,2,1:2:0:0:
310,79,57699,1,2,0:0:0:0:
305,66,57750,1,2,0:0:0:0:
301,53,57801,1,2,0:0:0:0:
297,40,57852,1,10,0:0:0:0:
379,300,58007,1,0,1:0:0:0:
292,27,58161,6,2,B|194:0|194:0|245:151,1,255.93750244081,6|0,1:0|0:0,1:0:0:0:
243,146,58469,2,0,L|254:180,1,36.5625013947487,0|0,1:0|0:0,0:0:0:0:
83,336,58622,86,2,B|-14:308|-14:308|102:207,1,255.93750244081,6|0,1:0|0:0,1:0:0:0:
102,207,58930,2,0,L|129:182,1,36.5625013947487,0|0,1:0|0:0,0:0:0:0:
274,297,59084,21,2,1:0:0:0:
368,263,59187,85,2,1:2:0:0:
257,287,59289,21,2,1:2:0:0:
377,246,59392,86,0,B|484:205|484:205|428:385,1,292.5,6|0,1:0|0:0,1:0:0:0:
389,107,60007,53,2,0:0:0:0:
366,96,60084,1,2,0:0:0:0:
349,108,60161,1,2,0:0:0:0:
358,135,60238,1,2,0:0:0:0:
393,148,60315,1,10,0:0:0:0:
429,132,60392,1,2,0:0:0:0:
447,92,60469,1,2,0:0:0:0:
441,46,60546,1,2,0:0:0:0:
399,11,60622,102,0,P|326:19|253:29,1,146.250005578995,6|0,1:2|0:0,0:0:0:0:
243,44,60853,2,0,P|213:38|183:32,1,60.9375,2|8,0:0|0:0,0:0:0:0:
116,0,61007,1,2,0:0:0:0:
116,0,61084,1,2,0:0:0:0:
5,298,61238,5,2,1:2:0:0:
8,284,61289,1,2,0:0:0:0:
11,271,61340,1,2,0:0:0:0:
14,258,61391,1,2,0:0:0:0:
305,188,61546,1,10,0:0:0:0:
18,244,61699,1,2,0:0:0:0:
310,173,61853,2,0,P|274:120|214:139,1,121.875,2|0,1:2|0:0,0:0:0:0:
208,128,62084,2,0,P|201:158|192:190,1,60.9375,2|8,0:0|0:0,0:0:0:0:
237,302,62238,1,2,0:0:0:0:
240,287,62315,102,0,L|250:247,3,40.625,2|2|2|2,0:0|0:0|0:0|1:2,0:0:0:0:
145,72,62622,1,2,0:0:0:0:
148,59,62673,1,2,0:0:0:0:
152,46,62724,1,2,0:0:0:0:
156,34,62775,1,10,0:0:0:0:
108,209,62930,1,2,0:0:0:0:
342,153,63084,6,0,P|412:133|483:115,1,146.250005578995,6|0,1:2|0:0,0:0:0:0:
496,113,63315,2,0,P|504:84|512:55,1,60.9375,2|8,0:0|0:0,0:0:0:0:
367,0,63469,1,2,0:0:0:0:
367,0,63546,1,2,0:0:0:0:
456,371,63699,101,2,1:2:0:0:
453,358,63750,1,2,0:0:0:0:
451,345,63801,1,2,0:0:0:0:
448,332,63852,1,2,0:0:0:0:
164,274,64007,1,10,0:0:0:0:
445,317,64161,1,2,0:0:0:0:
161,260,64315,2,0,P|89:245|17:231,1,146.250005578995,6|0,1:2|0:0,0:0:0:0:
34,227,64546,2,0,P|63:220|93:213,1,60.9375,2|8,0:0|0:0,0:0:0:0:
135,340,64699,1,2,0:0:0:0:
135,340,64776,2,0,P|105:333|75:326,1,60.9375,2|0,0:0|0:0,0:0:0:0:
62,131,64930,22,2,B|55:97|55:97|57:93|57:93|51:59,1,73.125,4|0,1:0|0:0,0:1:0:0:
175,254,65238,2,2,B|182:220|182:220|180:216|180:216|186:182,1,73.125,4|0,1:0|0:0,0:1:0:0:
31,48,65546,5,6,1:2:0:0:
189,0,65699,1,0,0:0:0:0:
189,0,65776,1,0,0:0:0:0:
288,130,65930,1,0,0:0:0:0:
288,130,66007,2,0,P|277:183|267:237,1,109.687504184246,2|0,1:2|0:0,0:0:0:0:
246,251,66315,5,2,0:0:0:0:
394,307,66468,1,2,0:0:0:0:
491,177,66622,1,2,0:0:0:0:
481,380,66776,101,6,1:2:0:0:
350,231,66930,1,0,0:0:0:0:
350,231,67007,1,0,0:0:0:0:
180,319,67161,1,0,0:0:0:0:
180,319,67238,2,0,L|155:313,3,24.3750009298325,6|2|2|2,1:2|0:0|0:0|0:0,0:0:0:0:
350,231,67545,2,0,L|356:206,3,24.3750009298325,2|2|2|2,0:0|0:0|0:0|0:0,0:0:0:0:
481,380,67853,1,2,0:0:0:0:
512,68,68007,38,0,P|494:133|426:134,1,146.250005578995,6|0,1:2|0:0,0:0:0:0:
378,0,68238,2,0,P|395:72|410:142,1,146.250005578995,6|0,1:2|0:0,0:0:0:0:
248,310,68469,102,0,P|180:309|163:244,1,146.250005578995,6|0,1:2|0:0,0:0:0:0:
297,176,68700,2,0,P|280:248|264:318,1,146.250005578995,6|0,1:2|0:0,0:0:0:0:
323,370,68930,6,0,B|362:378|362:378|334:359,1,73.1250027894975,6|0,1:2|0:0,0:0:0:0:
115,301,69084,2,0,B|76:309|76:309|103:290,1,73.1250027894975,6|0,1:2|0:0,0:0:0:0:
312,79,69238,102,0,B|349:1|252:-96|125:-12|158:93|221:118|221:118|270:136|278:205|212:244|143:218|148:141|187:124,1,585,4|8,1:0|0:0,0:0:0:0:
189,124,70469,70,0,P|316:101|443:78,1,257.399999214478,6|0,1:0|0:0,0:0:0:0:
442,78,71238,70,0,B|465:119|465:119|433:157,1,97.5,2|0,1:2|0:0,0:0:0:0:
189,124,71392,2,0,B|165:82|165:82|197:44,1,97.5,2|0,1:2|0:0,0:0:0:0:
322,53,71546,2,0,P|316:101|309:149,1,97.5,2|0,1:2|0:0,0:0:0:0:
253,267,71699,38,0,P|126:244|-1:221,1,257.399999214478,6|0,1:0|0:0,0:0:0:0:
0,221,72469,70,0,B|-23:262|-23:262|9:300,1,97.5,2|0,1:2|0:0,0:0:0:0:
253,267,72622,2,0,B|277:225|277:225|245:187,1,97.5,2|0,1:2|0:0,0:0:0:0:
120,196,72776,2,0,P|126:244|133:292,1,97.5,2|0,1:2|0:0,0:0:0:0:
218,380,72930,38,0,P|337:332|465:334,1,257.399999214478,6|0,1:0|0:0,0:0:0:0:
465,334,73699,70,0,P|501:305|489:260,1,97.5,2|0,1:2|0:0,0:0:0:0:
326,221,73853,2,0,P|289:249|301:294,1,97.5,2|0,1:2|0:0,0:0:0:0:
373,373,74007,2,0,P|385:325|395:278,1,97.5,2|0,1:2|0:0,0:0:0:0:
481,12,74161,38,0,B|421:144|258:99|294:-3|361:6|375:52,1,292.50001115799,6|2,1:0|0:0,0:0:0:0:
375,52,74930,38,0,P|379:75|382:100,1,48.75,2|0,1:2|0:0,0:0:0:0:
257,209,75084,2,0,P|275:192|294:178,1,48.75,2|0,1:2|0:0,0:0:0:0:
451,236,75238,2,0,P|427:228|405:218,1,48.75,2|0,1:2|0:0,0:0:0:0:
267,70,75391,70,0,P|139:75|15:108,1,257.399999214478,6|0,1:0|0:0,0:0:0:0:
15,108,76161,70,0,P|4:152|43:175,1,97.5,2|0,1:2|0:0,0:0:0:0:
257,142,76315,2,0,P|289:109|267:70,1,97.5,2|0,1:2|0:0,0:0:0:0:
131,64,76469,2,0,P|128:30|139:62,1,97.5,2|0,1:2|0:0,0:0:0:0:
239,243,76622,38,0,P|367:248|491:281,1,257.399999214478,6|0,1:0|0:0,0:0:0:0:
491,281,77392,70,0,P|502:325|462:348,1,97.5,2|0,1:2|0:0,0:0:0:0:
250,315,77545,2,0,P|218:282|240:242,1,97.5,2|0,1:2|0:0,0:0:0:0:
376,237,77699,2,0,P|378:203|367:235,1,97.5,2|0,1:2|0:0,0:0:0:0:
132,357,77853,38,0,P|249:355|252:239,1,257.399999214478,6|0,1:0|0:0,0:0:0:0:
252,239,78622,70,0,P|203:232|155:226,1,97.5,2|0,1:2|0:0,0:0:0:0:
0,132,78776,2,0,P|48:138|96:144,1,97.5,2|0,1:2|0:0,0:0:0:0:
146,232,78930,2,0,B|125:281|125:281|138:235,1,97.5,2|0,1:2|0:0,0:0:0:0:
187,29,79084,38,0,B|270:-8|327:61|306:77|359:145|440:119,1,292.50001115799,6|0,1:0|0:0,0:0:0:0:
441,119,79853,38,0,P|447:95|452:71,1,48.75,0|0,1:0|0:0,0:0:0:0:
309,98,80007,2,0,P|315:74|320:50,1,48.75,0|0,1:0|0:0,0:0:0:0:
176,77,80161,2,0,P|182:53|187:29,1,48.75,0|0,1:0|0:0,0:0:0:0:
377,273,80315,70,0,P|371:225|361:177,1,97.5,6|0,1:2|0:0,0:0:0:0:
446,335,80622,1,8,0:0:0:0:
352,186,80776,2,0,P|291:178|256:251,1,146.250005578995,0|0,0:0|1:0,0:0:0:0:
359,363,81238,1,10,0:0:0:0:
465,245,81392,1,2,0:0:0:0:
148,361,81546,6,0,P|76:348|3:336,1,146.250005578995,2|8,1:2|0:0,0:0:0:0:
146,274,82007,2,0,P|151:310|156:346,1,73.1250027894975
46,215,82315,1,2,1:2:0:0:
170,115,82469,1,10,0:0:0:0:
59,0,82622,1,2,0:0:0:0:
35,197,82776,102,0,P|72:200|108:203,1,73.1250027894975,6|0,1:2|0:0,0:0:0:0:
240,217,83084,1,8,0:0:0:0:
6,110,83238,2,0,P|78:115|151:121,1,146.250005578995,0|0,0:0|1:2,0:0:0:0:
318,137,83699,1,10,0:0:0:0:
163,133,83853,1,2,0:0:0:0:
428,6,84007,6,0,P|496:10|512:77,1,146.250005578995,2|8,1:2|0:0,0:0:0:0:
408,156,84469,1,0,0:0:0:0:
347,65,84622,101,2,0:0:0:0:
468,246,84776,1,2,1:2:0:0:
317,216,84930,1,10,0:0:0:0:
498,95,85084,1,2,0:0:0:0:
236,272,85238,6,0,P|226:319|216:367,1,97.5,6|0,1:2|0:0,0:0:0:0:
300,226,85546,1,8,0:0:0:0:
200,355,85699,2,0,P|128:370|56:385,1,146.250005578995,0|0,0:0|1:0,0:0:0:0:
160,249,86161,1,10,0:0:0:0:
309,335,86315,1,2,0:0:0:0:
99,195,86469,102,0,B|96:156|122:130|127:138|155:106|142:62,1,146.250005578995,2|8,1:2|0:0,0:0:0:0:
7,187,86930,2,0,P|16:222|25:262,1,73.1250027894975
49,79,87238,1,2,1:2:0:0:
213,132,87392,1,10,0:0:0:0:
16,174,87546,1,2,0:0:0:0:
151,54,87699,6,0,P|199:44|247:35,1,97.5,6|0,1:2|0:0,0:0:0:0:
42,71,88007,1,8,0:0:0:0:
213,132,88161,2,0,P|285:119|358:107,1,146.250005578995,0|0,0:0|1:0,0:0:0:0:
512,83,88622,1,10,0:0:0:0:
360,18,88776,1,2,0:0:0:0:
507,274,88930,5,4,1:0:0:0:
507,274,89032,2,0,L|513:242,1,32.5
425,279,89238,1,0,0:0:0:0:
425,279,89340,2,0,L|431:247,1,32.5
480,369,89546,5,2,0:0:0:0:
467,365,89648,1,2,0:0:0:0:
463,353,89751,1,2,0:0:0:0:
472,344,89853,1,10,0:0:0:0:
485,347,89956,1,2,0:0:0:0:
489,359,90058,1,2,0:0:0:0:
476,357,90161,6,0,P|400:344|332:331,1,146.250005578995,6|0,1:2|0:0,0:0:0:0:
320,342,90392,2,0,P|313:312|305:282,1,60.9375,2|8,0:0|0:0,0:0:0:0:
440,190,90546,1,2,0:0:0:0:
440,190,90622,2,0,P|422:248|406:307,1,121.875,2|0,0:0|1:0,0:0:0:0:
248,384,90930,101,2,0:0:0:0:
13,330,91084,1,10,0:0:0:0:
243,373,91238,1,2,0:0:0:0:
8,319,91392,2,0,P|3:258|0:197,1,121.875,2|0,1:2|0:0,0:0:0:0:
6,182,91622,2,0,P|2:151|0:121,1,60.9375,2|8,0:0|0:0,0:0:0:0:
129,333,91853,5,2,0:0:0:0:
137,297,91929,1,2,0:0:0:0:
144,261,92006,1,2,1:2:0:0:
93,62,92161,1,2,0:0:0:0:
90,48,92212,1,2,0:0:0:0:
87,35,92263,1,2,0:0:0:0:
85,22,92314,1,10,0:0:0:0:
117,160,92469,1,2,0:0:0:0:
329,20,92622,102,0,P|387:12|422:58,1,121.875,2|0,1:2|0:0,0:0:0:0:
432,69,92853,2,0,P|431:99|420:127,1,60.9375,2|8,0:0|0:0,0:0:0:0:
336,255,93007,1,2,0:0:0:0:
336,255,93084,2,0,P|392:233|452:219,1,121.875,2|0,0:0|1:0,0:0:0:0:
233,128,93392,5,2,0:0:0:0:
166,354,93546,1,10,0:0:0:0:
220,132,93699,1,2,0:0:0:0:
153,358,93853,2,0,P|93:371|33:382,1,121.875,2|0,1:2|0:0,0:0:0:0:
10,372,94084,2,0,P|15:342|22:312,1,60.9375,2|8,0:0|0:0,0:0:0:0:
202,269,94315,101,2,0:0:0:0:
236,275,94392,1,2,0:0:0:0:
270,281,94469,2,0,L|342:297,1,73.1250027894975,2|0,1:2|0:0,0:0:0:0:
494,290,94622,1,2,0:0:0:0:
500,285,94674,1,2,0:0:0:0:
506,280,94725,1,2,0:0:0:0:
512,275,94776,2,0,L|440:259,1,73.1250027894975,10|0,0:0|0:0,0:0:0:0:
302,161,94930,2,0,L|374:177,1,73.1250027894975,0|0,1:0|0:0,0:0:0:0:
480,92,95084,6,0,P|477:25|411:10,1,146.250005578995,6|0,1:2|0:0,0:0:0:0:
394,1,95315,2,0,P|366:11|337:20,1,60.9375,2|8,0:0|0:0,0:0:0:0:
222,92,95469,1,2,0:0:0:0:
222,92,95546,2,0,B|147:81|177:57|109:46,1,121.875,2|0,0:0|1:0,0:0:0:0:
302,161,95853,101,2,0:0:0:0:
164,181,96007,6,0,P|185:210|189:246,1,73.1250027894975,10|0,0:0|0:0,0:0:0:0:
424,227,96161,2,0,P|394:247|378:279,1,73.1250027894975,2|0,0:0|0:0,0:0:0:0:
302,161,96315,2,0,P|289:232|276:305,1,146.250005578995,6|0,1:2|0:0,0:0:0:0:
274,319,96546,2,0,L|263:378,1,60.9375,2|8,0:0|0:0,0:0:0:0:
56,313,96776,101,2,0:0:0:0:
65,279,96853,1,2,0:0:0:0:
74,245,96930,2,0,L|83:209,1,36.5625013947487,2|0,1:2|0:0,0:0:0:0:
117,80,97084,2,0,L|126:44,1,36.5625013947487,2|0,1:2|0:0,0:0:0:0:
200,170,97238,6,0,L|164:161,1,36.5625013947487,10|0,0:0|0:0,0:0:0:0:
35,127,97392,2,0,L|-1:118,1,36.5625013947487,0|0,1:0|0:0,0:0:0:0:
184,272,97546,6,2,P|223:150|261:28,1,255.93750244081,6|0,1:0|0:0,1:0:0:0:
261,28,97853,2,0,L|296:20,1,36.5625013947487,0|0,1:0|0:0,0:0:0:0:
268,351,98007,86,2,P|307:229|345:107,1,255.93750244081,6|0,1:0|0:0,1:0:0:0:
345,106,98315,2,0,L|380:98,1,36.5625013947487,0|0,1:0|0:0,0:0:0:0:
491,295,98469,21,2,1:0:0:0:
397,282,98572,85,2,1:2:0:0:
510,282,98674,21,2,1:2:0:0:
386,266,98777,86,0,B|293:256|293:256|298:250|298:250|206:266|206:266|212:260|212:260|123:249,1,292.5,6|0,1:0|0:0,1:0:0:0:
8,122,99392,53,2,0:0:0:0:
7,101,99468,1,2,0:0:0:0:
13,72,99545,1,2,0:0:0:0:
33,37,99622,1,2,0:0:0:0:
71,11,99699,1,10,0:0:0:0:
69,68,99775,1,2,0:0:0:0:
104,114,99852,1,2,0:0:0:0:
159,128,99929,1,2,0:0:0:0:
210,104,100007,102,0,P|275:72|348:74,1,146.250005578995,6|0,1:2|0:0,0:0:0:0:
362,67,100238,2,0,P|372:95|382:124,1,60.9375,2|8,0:0|0:0,0:0:0:0:
510,216,100392,1,2,0:0:0:0:
510,216,100469,1,2,0:0:0:0:
493,17,100622,5,2,1:2:0:0:
490,30,100673,1,2,0:0:0:0:
487,43,100724,1,2,0:0:0:0:
484,57,100775,1,2,0:0:0:0:
409,298,100930,1,10,0:0:0:0:
470,64,101084,1,2,0:0:0:0:
394,305,101238,2,0,P|338:300|328:244,1,121.875,2|0,1:2|0:0,0:0:0:0:
335,232,101469,2,0,P|367:225|395:221,1,60.9375,2|8,0:0|0:0,0:0:0:0:
512,271,101622,1,2,0:0:0:0:
512,271,101699,102,0,L|472:261,3,40.625,2|2|2|2,0:0|0:0|0:0|1:2,0:0:0:0:
303,145,102007,1,2,0:0:0:0:
290,142,102058,1,2,0:0:0:0:
277,138,102109,1,2,0:0:0:0:
265,135,102161,6,0,P|290:102|331:101,1,85.3125008136034,4|0,0:1|0:0,0:0:0:0:
463,350,102315,2,0,P|437:382|396:383,1,85.3125008136034,4|0,0:1|0:0,0:0:0:0:
69,352,102469,102,0,P|140:335|211:318,1,146.250005578995,6|0,1:2|0:0,0:0:0:0:
220,307,102699,2,0,P|226:277|232:247,1,60.9375,2|8,0:0|0:0,0:0:0:0:
265,135,102853,1,2,0:0:0:0:
265,135,102930,1,2,0:0:0:0:
389,292,103084,5,2,1:2:0:0:
376,289,103135,1,2,0:0:0:0:
363,286,103186,1,2,0:0:0:0:
350,283,103237,1,2,0:0:0:0:
108,208,103392,1,10,0:0:0:0:
343,269,103546,1,2,0:0:0:0:
106,193,103700,2,0,P|97:133|85:48,1,146.250005578995,6|0,1:2|0:0,0:0:0:0:
70,38,103930,2,0,P|42:50|14:63,1,60.9375,2|8,0:0|0:0,0:0:0:0:
179,139,104084,1,2,0:0:0:0:
195,143,104161,2,0,L|234:152,2,40.625,2|0|0,0:0|0:0|0:0,0:0:0:0:
179,139,104315,102,2,P|263:125|347:112,1,170.625001627207,4|0,1:0|0:0,0:1:0:0:
352,115,104520,1,2,0:0:0:0:
357,118,104571,1,2,0:0:0:0:
362,121,104622,2,2,P|374:205|387:289,1,170.625001627207,2|2,1:0|0:0,0:1:0:0:
43,384,104930,53,6,1:2:0:0:
181,244,105084,1,0,0:0:0:0:
181,244,105161,1,0,0:0:0:0:
340,354,105315,1,0,0:0:0:0:
340,354,105392,2,0,P|285:346|231:340,1,109.687504184246,2|0,1:2|0:0,0:0:0:0:
214,356,105699,101,2,0:0:0:0:
47,269,105853,1,2,0:0:0:0:
173,117,106007,1,2,0:0:0:0:
28,277,106161,5,6,1:2:0:0:
229,252,106315,1,0,0:0:0:0:
229,252,106392,1,0,0:0:0:0:
422,230,106546,1,0,0:0:0:0:
422,230,106622,2,0,L|445:236,3,24.3750009298325,6|2|2|2,1:2|0:0|0:0|0:0,0:0:0:0:
190,147,106930,2,0,L|166:140,3,24.3750009298325,2|2|2|2,0:0|0:0|0:0|0:0,0:0:0:0:
372,139,107238,1,2,0:0:0:0:
108,191,107392,6,0,B|97:146|123:118|131:126|159:95|144:56,1,146.250005578995,6|0,1:2|0:0,0:0:0:0:
138,43,107622,2,0,P|73:23|45:83,1,146.250005578995,6|0,1:2|0:0,0:0:0:0:
59,255,107853,6,0,B|104:260|129:231|120:224|147:192|188:202,1,146.250005578995,6|0,1:2|0:0,0:0:0:0:
201,206,108084,2,0,P|228:267|171:302,1,146.250005578995,6|0,1:2|0:0,0:0:0:0:
26,179,108315,102,0,B|11:163|-10:165|-10:165|2:181|26:179,1,73.1250027894975,6|0,1:2|0:0,0:0:0:0:
170,310,108469,2,0,B|186:325|184:345|184:345|168:334|170:310,1,73.1250027894975,6|0,1:2|0:0,0:0:0:0:
268,75,108622,6,0,B|343:41|405:98|384:126|416:160|491:162|540:77|493:11|386:22|378:98|378:98|370:165|318:216|252:170|288:121|324:147,1,585,4|8,1:0|0:0,0:0:0:0:
417,203,109852,69,4,1:0:0:0:
422,220,109954,2,0,P|426:245|430:269,1,48.750001859665,2|0,0:0|0:0,0:0:0:0:
346,364,110159,1,2,0:0:0:0:
337,335,110261,2,0,P|332:311|327:287,1,48.750001859665,2|0,0:0|0:0,0:0:0:0:
238,238,110467,5,10,0:0:0:0:
161,179,110569,1,2,0:0:0:0:
242,132,110672,1,2,0:0:0:0:
147,188,110775,102,0,P|101:178|78:137,1,97.50000371933,2|0,1:2|0:0,0:0:0:0:
161,196,111082,2,0,P|152:243|143:291,1,97.50000371933,0|0,1:0|0:0,0:0:0:0:
79,344,111390,5,8,0:0:0:0:
58,335,111493,1,0,0:0:0:0:
41,320,111595,1,0,0:0:0:0:
157,288,111698,101,2,1:2:0:0:
173,284,111800,2,0,P|197:280|221:276,1,48.750001859665,2|0,0:0|0:0,0:0:0:0:
308,362,112005,1,2,0:0:0:0:
276,368,112108,2,0,P|251:372|227:375,1,48.750001859665,2|0,0:0|0:0,0:0:0:0:
344,272,112313,5,10,0:0:0:0:
412,345,112416,1,2,0:0:0:0:
500,298,112518,1,2,0:0:0:0:
415,328,112621,102,0,P|423:279|432:231,1,97.50000371933,0|0,1:0|0:0,0:0:0:0:
423,344,112928,2,0,P|469:346|493:307,1,97.50000371933,0|0,1:0|0:0,0:0:0:0:
416,222,113236,6,0,B|411:174|446:148|458:160|493:134|488:87,1,162.5,10|0,0:0|0:0,0:0:0:0:
314,10,113544,101,4,1:0:0:0:
297,13,113646,2,0,P|273:17|249:24,1,48.750001859665,2|0,0:0|0:0,0:0:0:0:
396,66,113852,1,2,0:0:0:0:
407,96,113954,2,0,P|414:119|420:142,1,48.750001859665,2|0,0:0|0:0,0:0:0:0:
361,280,114159,5,10,0:0:0:0:
274,218,114261,1,2,0:0:0:0:
206,303,114364,1,2,0:0:0:0:
279,203,114467,102,0,P|292:156|306:110,1,97.50000371933,0|0,1:0|0:0,0:0:0:0:
260,209,114775,2,0,P|212:219|164:229,1,97.50000371933,0|0,1:0|0:0,0:0:0:0:
83,87,115082,6,0,B|119:78|145:105|138:113|161:137|200:128,1,130,10|0,0:0|0:0,0:0:0:0:
214,137,115390,102,0,P|118:156|22:176,2,195,0|0|8,1:0|0:0|0:0,0:0:0:0:
279,92,116108,1,2,0:0:0:0:
282,82,116210,1,2,0:0:0:0:
285,72,116312,5,2,1:2:0:0:
192,125,116467,1,2,0:0:0:0:
338,204,116621,1,2,1:2:0:0:
150,281,116775,1,2,0:0:0:0:
287,58,116928,101,8,0:0:0:0:
219,367,117082,1,8,0:0:0:0:
92,216,117236,5,4,1:0:0:0:
87,197,117339,2,0,P|82:173|77:149,1,48.750001859665,2|0,0:0|0:0,0:0:0:0:
187,205,117544,1,2,0:0:0:0:
178,167,117647,2,0,P|173:143|168:119,1,48.750001859665,2|0,0:0|0:0,0:0:0:0:
88,45,117852,101,10,0:0:0:0:
0,90,117954,1,2,0:0:0:0:
85,136,118057,1,2,0:0:0:0:
176,95,118159,6,0,P|224:89|272:83,1,97.50000371933,0|0,1:0|0:0,0:0:0:0:
330,153,118467,2,0,P|285:140|277:95,1,97.50000371933,0|0,1:0|0:0,0:0:0:0:
344,35,118775,102,0,B|381:27|404:52|398:62|421:87|459:78,1,130,8|0,0:0|0:0,0:0:0:0:
508,0,119082,5,4,1:0:0:0:
494,14,119185,2,0,P|488:37|484:61,1,48.750001859665,2|0,0:0|0:0,0:0:0:0:
390,115,119390,1,2,0:0:0:0:
406,136,119493,2,0,P|411:159|415:183,1,48.750001859665,2|0,0:0|0:0,0:0:0:0:
447,329,119698,101,10,0:0:0:0:
491,247,119800,1,2,0:0:0:0:
409,203,119903,1,2,0:0:0:0:
365,285,120005,6,0,B|342:245|299:241|299:241|281:278|236:286,1,162.5,0|0,1:0|0:0,0:0:0:0:
97,184,120313,2,0,B|150:133|226:141|262:200|218:233|197:200,1,203.125,0|0,1:0|0:0,0:0:0:0:
197,200,120621,86,0,P|177:121|158:42,1,162.5,2|0,0:0|0:0,0:0:0:0:
77,0,120929,21,0,1:0:0:0:
295,67,121082,1,0,1:0:0:0:
228,285,121236,1,8,0:0:0:0:
82,11,121390,21,0,1:0:0:0:
300,78,121543,1,0,1:0:0:0:
233,297,121697,1,8,0:0:0:0:
300,78,121852,85,0,1:0:0:0:
14,230,122005,1,8,0:0:0:0:
328,384,122159,21,0,1:0:0:0:
110,317,122312,1,0,1:0:0:0:
177,99,122466,1,8,0:0:0:0:
323,373,122620,85,0,1:0:0:0:
105,306,122775,1,0,1:0:0:0:
172,87,122929,1,8,0:0:0:0:
105,306,123082,21,0,1:0:0:0:
391,154,123235,1,8,0:0:0:0:
99,1,123390,85,0,1:0:0:0:
133,193,123544,1,8,0:0:0:0:
282,67,123698,1,0,1:0:0:0:
282,67,123775,1,0,1:0:0:0:
282,67,123852,1,8,0:0:0:0:
206,279,124005,21,0,1:0:0:0:
172,87,124159,1,8,0:0:0:0:
23,213,124313,1,0,1:0:0:0:
23,213,124390,1,0,1:0:0:0:
23,213,124467,1,8,0:0:0:0:
282,67,124621,85,4,1:0:0:0:
316,259,124775,1,8,0:0:0:0:
465,133,124929,1,0,1:0:0:0:
465,133,125006,1,0,1:0:0:0:
465,133,125083,1,8,0:0:0:0:
389,345,125236,21,0,1:0:0:0:
355,153,125390,1,8,0:0:0:0:
206,279,125544,1,0,1:0:0:0:
206,279,125621,1,0,1:0:0:0:
206,279,125698,1,8,0:0:0:0:
469,139,125852,102,0,P|473:66|446:0,1,146.250005578995,12|0,1:0|0:0,0:0:0:0:
335,212,126082,1,0,1:0:0:0:
344,225,126159,2,0,P|412:204|452:145,1,146.250005578995,12|0,1:0|0:0,0:0:0:0:
262,107,126389,1,0,1:0:0:0:
246,114,126467,2,0,P|273:184|335:212,1,146.250005578995,12|0,1:0|0:0,0:0:0:0:
358,50,126697,1,0,1:0:0:0:
354,32,126775,2,0,P|285:41|262:107,1,146.250005578995,12|0,1:0|0:0,0:0:0:0:
336,131,127005,1,0,1:0:0:0:
347,124,127082,5,8,1:0:0:0:
105,53,127236,1,2,0:0:0:0:
105,53,128005,6,0,B|168:2|231:79|207:184|112:219|83:151,1,292.5,8|0,0:0|0:0,0:0:0:0:
96,140,128313,37,4,1:0:0:0:
247,261,128467,1,2,0:0:0:0:
100,382,128621,2,0,P|52:371|3:362,1,97.5,2|0,3:2|0:0,0:0:0:0:
256,254,128929,5,2,3:0:0:0:
256,254,129082,1,0,0:0:0:0:
256,254,129236,1,0,3:0:0:0:
256,254,129390,1,0,3:0:0:0:
161,225,129544,101,2,3:2:0:0:
308,359,129698,1,2,0:0:0:0:
439,208,129852,2,0,P|448:160|455:111,1,97.5,2|0,3:0|0:0,0:0:0:0:
293,347,130159,6,0,L|302:380,11,32.5,0|0|0|0|0|0|0|0|0|0|0|0,3:0|3:0|3:0|3:0|3:0|3:0|3:0|3:0|3:0|3:0|3:0|3:0,0:0:0:0:
211,316,130775,101,4,1:0:0:0:
363,212,130929,1,2,0:0:0:0:
507,333,131082,2,0,P|460:348|414:364,1,97.5,2|0,0:0|0:0,0:0:0:0:
353,201,131390,5,2,3:0:0:0:
353,201,131544,1,0,0:0:0:0:
353,201,131698,1,0,3:0:0:0:
353,201,131852,1,0,3:0:0:0:
504,132,132005,101,2,3:2:0:0:
363,1,132159,1,2,0:0:0:0:
223,125,132313,2,0,P|217:174|211:222,1,97.5,2|0,3:2|0:0,0:0:0:0:
366,14,132621,6,0,L|371:37,3,24.375
246,108,133236,101,4,3:1:0:0:
66,45,133390,1,2,0:0:0:0:
0,220,133544,2,0,P|8:268|16:316,1,97.5,2|0,0:0|0:0,0:0:0:0:
72,59,133852,5,2,3:0:0:0:
72,59,134005,1,0,0:0:0:0:
72,59,134159,1,0,3:0:0:0:
72,59,134313,1,0,3:0:0:0:
47,142,134467,101,2,3:2:0:0:
233,98,134621,1,2,0:0:0:0:
276,286,134775,2,0,P|229:302|183:316,1,97.5,2|0,3:2|0:0,0:0:0:0:
238,85,135082,6,0,L|247:52,11,32.5,0|0|0|0|0|0|0|0|0|0|0|0,3:0|3:0|3:0|3:0|3:0|3:0|3:0|3:0|3:0|3:0|3:0|3:0,0:0:0:0:
174,132,135698,102,0,P|269:111|364:90,1,195,4|0,3:1|0:0,0:0:0:0:
238,85,136159,1,2,0:0:0:0:
374,104,136313,6,0,B|410:127|414:165|414:165|426:129|461:116,1,146.25,2|0,3:2|0:0,0:0:0:0:
475,127,136621,2,0,B|498:91|536:87|536:87|500:75|487:40,1,146.25,2|0,3:2|0:0,0:0:0:0:
483,20,136929,101,2,0:0:0:0:
364,90,137082,1,0,0:0:0:0:
490,139,137236,1,0,3:0:0:0:
481,4,137390,1,0,3:0:0:0:
351,95,137544,5,0,3:0:0:0:
354,109,137621,1,0,3:0:0:0:
357,123,137698,1,0,3:0:0:0:
360,137,137775,1,0,3:0:0:0:
363,151,137852,1,0,3:0:0:0:
366,165,137929,1,0,3:0:0:0:
369,178,138005,2,0,L|379:225,1,48.75,0|0,3:0|0:0,0:0:0:0:
321,348,138160,5,0,1:0:0:0:
276,366,138236,1,0,1:0:0:0:
230,352,138313,1,0,1:0:0:0:
203,313,138390,1,0,1:0:0:0:
206,265,138468,1,0,1:0:0:0:
494,143,138621,5,0,1:0:0:0:
497,191,138698,1,0,1:0:0:0:
470,230,138775,1,0,1:0:0:0:
424,244,138852,1,0,1:0:0:0:
379,225,138928,1,0,1:0:0:0:
333,2,139083,101,8,0:0:0:0:
329,15,139160,1,0,0:0:0:0:
325,28,139237,1,0,0:0:0:0:
321,41,139313,1,0,0:0:0:0:
317,54,139391,5,0,1:0:0:0:
269,63,139467,1,0,1:0:0:0:
222,72,139544,1,0,1:0:0:0:
174,82,139621,1,0,1:0:0:0:
126,90,139698,1,0,1:0:0:0:
233,321,139852,101,0,1:0:0:0:
249,274,139928,1,0,1:0:0:0:
264,229,140005,1,0,1:0:0:0:
280,183,140082,1,0,1:0:0:0:
297,137,140159,1,0,1:0:0:0:
19,362,140314,5,8,0:0:0:0:
29,370,140390,1,0,0:0:0:0:
39,377,140467,1,0,0:0:0:0:
50,381,140544,1,0,0:0:0:0:
60,382,140621,101,0,1:0:0:0:
44,337,140697,1,0,1:0:0:0:
32,289,140774,1,0,1:0:0:0:
25,241,140851,1,0,1:0:0:0:
22,193,140928,1,0,1:0:0:0:
282,133,141082,5,0,1:0:0:0:
235,127,141158,1,0,1:0:0:0:
186,119,141235,1,0,1:0:0:0:
139,105,141312,1,0,1:0:0:0:
94,87,141389,1,0,1:0:0:0:
233,321,141545,101,8,0:0:0:0:
236,332,141621,1,0,0:0:0:0:
240,344,141698,1,0,0:0:0:0:
244,355,141775,1,0,0:0:0:0:
247,367,141852,5,0,1:0:0:0:
295,375,141928,1,0,1:0:0:0:
342,383,142005,1,0,1:0:0:0:
351,335,142082,1,0,1:0:0:0:
359,287,142159,1,0,1:0:0:0:
117,221,142314,101,0,1:0:0:0:
165,213,142390,1,0,1:0:0:0:
212,205,142467,1,0,1:0:0:0:
221,253,142544,1,0,1:0:0:0:
229,301,142621,1,0,1:0:0:0:
439,195,142775,85,8,0:0:0:0:
439,195,142852,1,0,0:0:0:0:
439,195,142929,1,0,0:0:0:0:
439,195,143006,1,0,0:0:0:0:
439,195,143083,2,0,P|448:172|462:152,1,48.75,2|0,3:2|0:0,0:0:0:0:
287,168,143237,2,0,P|285:143|279:120,1,48.75,2|0,3:2|0:0,0:0:0:0:
371,105,143391,1,2,3:2:0:0:
371,100,143467,1,0,3:0:0:0:
372,95,143544,1,0,3:0:0:0:
373,90,143621,1,0,3:0:0:0:
374,85,143698,1,0,3:0:0:0:
374,80,143775,1,0,3:0:0:0:
375,76,143852,1,0,3:0:0:0:
376,71,143929,1,0,3:0:0:0:
377,66,144006,1,0,3:0:0:0:
378,61,144083,1,0,3:0:0:0:
379,57,144160,2,0,L|382:34,1,12.1875,0|0,3:0|3:0,0:0:0:0:
484,269,144314,6,0,P|495:240|512:215,1,60.9375,2|0,3:2|0:0,0:0:0:0:
220,223,144468,2,0,P|218:192|211:163,1,60.9375,2|0,3:2|0:0,0:0:0:0:
381,45,144621,1,2,3:2:0:0:
381,40,144698,1,0,3:0:0:0:
382,36,144775,1,0,3:0:0:0:
383,31,144852,1,0,3:0:0:0:
384,26,144929,1,0,3:0:0:0:
385,21,145006,1,0,3:0:0:0:
386,17,145083,2,0,L|389:-6,1,12.1875,0|0,3:0|3:0,0:0:0:0:
505,45,145237,22,0,P|441:58|378:73,1,130,2|0,3:2|0:0,0:0:0:0:
246,115,145545,21,2,1:2:0:0:
318,147,145647,2,0,P|270:137|223:125,1,97.50000371933,0|0,1:0|0:0,0:0:0:0:
126,169,145852,85,2,1:2:0:0:
55,200,145954,2,0,P|102:187|149:178,1,97.50000371933,0|0,1:0|0:0,0:0:0:0:
162,71,146160,21,2,1:2:0:0:
124,0,146262,2,0,P|136:47|145:94,1,97.50000371933,0|0,1:0|0:0,0:0:0:0:
209,243,146468,85,2,1:2:0:0:
247,313,146570,2,0,P|234:265|225:218,1,97.50000371933,0|0,1:0|0:0,0:0:0:0:
353,98,146775,21,2,1:2:0:0:
428,81,146878,1,2,1:2:0:0:
483,136,146980,1,2,1:2:0:0:
481,147,147083,85,2,1:2:0:0:
426,92,147185,1,2,1:2:0:0:
351,109,147288,1,2,1:2:0:0:
327,198,147391,21,2,1:2:0:0:
382,253,147493,1,2,1:2:0:0:
457,236,147596,1,2,1:2:0:0:
459,225,147699,85,2,1:2:0:0:
384,242,147800,1,2,1:2:0:0:
329,187,147903,1,2,1:2:0:0:
264,134,148006,6,0,P|259:122|255:111,3,24.375,2|0|0|0,0:0|0:0|0:0|0:0,0:0:0:0:
184,158,148314,86,0,P|165:155|148:150,3,36.5625013947487,2|0|0|0,0:0|0:0|0:0|0:0,0:0:0:0:
164,238,148621,86,0,P|148:256|132:275,3,48.75,2|0|0|0,0:0|0:0|0:0|0:0,0:0:0:0:
223,297,148929,6,0,P|233:325|244:353,3,60.9375,2|0|0|0,0:0|0:0|0:0|0:0,0:0:0:0:
302,276,149237,22,0,P|337:281|373:288,3,73.1250027894975,2|0|0|0,0:0|0:0|0:0|0:0,0:0:0:0:
352,177,149545,22,0,B|343:137|343:137|359:164,1,73.1250027894975,8|0,0:1|0:1,0:1:0:0:
486,384,149698,21,2,0:0:0:0:
453,383,149775,1,2,0:0:0:0:
429,363,149852,1,2,0:0:0:0:
366,155,150006,1,2,0:0:0:0:
501,226,150159,1,2,0:0:0:0:
293,290,150313,1,2,0:0:0:0:
153,14,150468,101,6,1:2:0:0:
176,0,150545,2,0,P|233:-1|256:50,1,121.875,2|0,0:0|0:0,0:0:0:0:
265,59,150775,6,0,P|254:93|244:128,1,73.1250027894975,10|0,0:1|0:0,0:0:0:0:
200,207,150929,2,2,B|135:227|99:179|115:168|76:119|8:143,1,219.375008368492,2|0,0:1|0:0,1:0:0:0:
0,155,151237,102,0,P|8:182|16:213,1,60.9375,2|0,0:1|0:0,0:0:0:0:
259,128,151390,2,0,P|266:98|275:69,1,60.9375,10|0,0:2|0:0,0:0:0:0:
49,0,151544,2,0,P|57:27|65:58,1,60.9375,2|0,0:0|0:0,0:0:0:0:
262,260,151698,6,0,P|259:281|254:304,1,43.8749986610413,2|0,1:0|0:0,0:0:0:0:
112,306,151852,1,2,0:0:0:0:
98,317,151929,2,0,P|94:339|90:361,1,43.8749986610413,2|8,0:1|0:0,0:0:0:0:
261,382,152082,1,2,0:0:0:0:
282,373,152160,2,0,P|294:282|306:191,1,182.8125,2|0,0:1|0:0,0:0:0:0:
306,192,152468,102,0,P|334:201|363:211,1,60.9375,2|0,0:0|0:0,0:0:0:0:
452,347,152621,2,0,P|423:337|394:327,1,60.9375,10|0,0:0|0:0,0:0:0:0:
195,223,152775,5,2,0:0:0:0:
186,272,152852,1,2,0:0:0:0:
229,304,152929,2,0,P|258:297|288:290,1,60.9375,2|0,1:2|0:0,0:0:0:0:
453,241,153083,2,0,P|482:233|512:226,1,60.9375,2|0,0:0|0:0,0:0:0:0:
355,28,153236,102,0,P|372:82|429:81,1,121.875,10|0,0:1|0:0,0:0:0:0:
439,89,153467,2,0,P|447:59|455:30,1,60.9375,2|0,0:1|1:0,0:0:0:0:
159,383,153698,6,0,P|172:350|176:314,1,73.1250027894975,2|0,0:0|0:0,0:0:0:0:
417,353,153852,2,0,P|392:327|377:294,1,73.1250027894975,10|0,0:0|0:0,0:0:0:0:
200,42,154005,101,2,0:0:0:0:
210,46,154057,1,2,0:0:0:0:
220,50,154108,1,2,0:0:0:0:
230,54,154160,2,0,P|237:89|244:125,1,73.1250027894975,2|0,1:0|0:0,0:0:0:0:
275,284,154314,2,0,P|282:320|289:356,1,73.1250027894975,2|0,0:2|0:0,0:0:0:0:
108,235,154467,6,0,P|144:227|180:219,1,73.1250027894975,10|0,0:1|0:0,0:0:0:0:
337,187,154621,2,0,P|409:172|481:158,1,146.250005578995,2|0,0:1|1:0,0:0:0:0:
53,74,154929,101,2,0:0:0:0:
37,47,155006,1,2,0:0:0:0:
43,19,155083,1,10,0:1:0:0:
66,0,155160,1,2,0:0:0:0:
96,1,155237,1,2,1:2:0:0:
117,20,155313,1,2,0:0:0:0:
53,74,155391,5,6,1:2:0:0:
50,92,155468,2,0,P|38:150|25:212,1,121.875,2|0,0:0|0:0,0:0:0:0:
12,220,155698,102,0,P|31:251|37:286,1,73.1250027894975,10|0,0:0|0:0,0:0:0:0:
1,388,155852,2,2,P|106:354|214:336,1,219.375008368492,2|0,0:1|0:0,1:0:0:0:
213,336,156160,6,0,P|229:309|233:279,1,60.9375,2|0,0:1|0:0,0:0:0:0:
119,164,156314,2,0,P|104:189|99:218,1,60.9375,10|0,0:0|0:0,0:0:0:0:
314,281,156468,2,0,P|310:251|294:224,1,60.9375,2|0,0:1|0:0,0:0:0:0:
99,81,156621,102,0,L|91:37,1,43.8749986610413,2|0,1:2|0:0,0:0:0:0:
211,0,156775,1,2,0:0:0:0:
226,10,156852,2,0,L|233:53,1,43.8749986610413,2|8,0:1|0:0,0:0:0:0:
25,115,157006,1,2,0:0:0:0:
11,99,157083,2,0,P|98:118|190:138,1,182.8125,2|0,0:1|0:0,0:0:0:0:
190,138,157391,6,0,L|200:198,1,60.9375,2|0,0:0|0:0,0:0:0:0:
359,353,157545,1,10,0:1:0:0:
409,373,157621,1,2,0:0:0:0:
463,357,157698,1,2,1:2:0:0:
495,309,157775,1,2,1:2:0:0:
489,252,157852,102,0,P|453:246|417:240,1,73.1250027894975,2|0,1:2|0:0,0:0:0:0:
299,152,158006,2,0,P|335:156|371:162,1,73.1250027894975,2|0,0:0|0:0,0:0:0:0:
512,114,158160,1,10,0:0:0:0:
512,114,158237,1,2,0:0:0:0:
512,114,158313,2,0,P|476:110|440:104,1,73.1250027894975,2|0,0:0|0:0,0:0:0:0:
359,353,158468,6,0,B|343:387|343:387|349:339,1,85.3125008136034,2|0,1:0|0:0,0:0:0:0:
274,67,158621,2,0,B|280:19|280:19|264:53,1,85.3125008136034,2|0,1:0|0:0,0:0:0:0:
144,317,158775,2,0,B|137:364|137:364|153:330,1,85.3125008136034,10|0,1:0|0:0,0:0:0:0:
61,104,158929,53,2,1:2:0:0:
67,114,158980,1,0,0:0:0:0:
73,124,159031,1,0,0:0:0:0:
79,134,159083,2,0,P|122:139|164:145,1,85.3125008136034,2|0,1:0|0:0,0:0:0:0:
437,231,159237,2,0,P|395:225|353:219,1,85.3125008136034,2|0,1:0|0:0,0:0:0:0:
29,222,159391,22,0,P|72:227|114:233,1,85.3125008136034,10|0,1:0|0:0,0:0:0:0:
497,146,159544,2,0,P|413:134|328:123,1,170.625001627207,2|0,1:0|0:0,0:0:0:0:
28,369,159852,21,2,0:0:0:0:
65,383,159929,1,2,0:0:0:0:
102,366,160006,1,10,0:0:0:0:
122,329,160083,1,2,0:0:0:0:
148,309,160160,1,2,0:0:0:0:
179,314,160237,1,2,0:0:0:0:
241,362,160314,101,6,1:2:0:0:
258,359,160391,2,0,P|319:349|379:340,1,121.875,2|0,0:0|0:0,0:0:0:0:
392,338,160621,2,0,P|361:332|331:328,1,60.9375,10|0,0:0|0:0,0:0:0:0:
260,257,160775,5,2,0:0:0:0:
219,232,160851,1,2,0:0:0:0:
203,187,160928,1,2,1:0:0:0:
219,143,161005,1,2,0:0:0:0:
262,119,161082,1,2,0:0:0:0:
308,130,161159,1,2,0:0:0:0:
352,138,161237,1,10,0:1:0:0:
397,115,161314,1,2,0:0:0:0:
413,72,161391,1,2,0:0:0:0:
397,26,161468,1,2,0:0:0:0:
355,5,161545,102,0,B|259:30|259:30|328:97,1,195,6|0,1:2|0:0,0:0:0:0:
462,202,161775,2,0,B|530:269|530:269|435:294,1,195,6|0,1:2|0:0,0:0:0:0:
282,201,162006,5,6,1:2:0:0:
299,205,162083,2,0,B|342:215|342:215|345:221|345:221|391:231,1,97.5,2|0,0:0|0:0,0:0:0:0:
391,231,162314,6,0,L|386:207,1,24.375,0|0,1:0|0:0,0:0:0:0:
462,202,162468,2,0,L|457:178,1,24.375,8|0,0:0|0:0,0:0:0:0:
281,29,162621,85,2,1:2:0:0:
279,34,162672,1,2,0:0:0:0:
278,39,162723,1,2,0:0:0:0:
277,45,162775,2,0,P|242:52|206:58,1,73.1250027894975,6|0,1:2|0:0,0:0:0:0:
45,125,162929,2,0,P|81:118|117:110,1,73.1250027894975,2|0,0:0|0:0,0:0:0:0:
299,164,163083,6,0,P|264:157|228:149,1,73.1250027894975,10|0,0:0|0:0,0:0:0:0:
26,0,163237,2,0,P|62:6|98:14,1,73.1250027894975,2|0,0:0|0:0,0:0:0:0:
445,188,163390,85,2,1:0:0:0:
508,114,163492,1,2,1:0:0:0:
475,22,163595,1,2,1:0:0:0:
378,5,163698,1,2,1:0:0:0:
315,80,163800,1,2,1:0:0:0:
349,171,163903,1,2,1:0:0:0:
130,383,164083,6,0,P|137:340|144:298,1,85.3125008136034,2|0,1:0|0:0,0:0:0:0:
200,100,164237,1,2,1:2:0:0:
215,115,164314,1,2,0:0:0:0:
230,131,164391,1,2,0:0:0:0:
246,147,164468,2,0,P|163:129|79:112,1,170.625001627207,2|0,1:2|0:0,0:0:0:0:
485,63,164775,86,2,P|248:117|10:169,1,487.5,2|0,0:1|0:0,1:0:0:0:
9,169,165237,22,0,P|4:200|-1:230,1,60.9375,2|0,1:0|0:0,0:0:0:0:
70,313,165391,2,0,P|73:283|77:253,1,60.9375,2|0,0:1|0:0,0:0:0:0:
166,179,165545,2,0,P|164:209|160:239,1,60.9375,8|0,0:0|0:0,0:0:0:0:
336,370,165698,5,2,0:0:0:0:
292,383,165775,1,2,0:0:0:0:
258,351,165852,2,0,P|261:315|265:279,1,73.1250027894975,2|0,1:0|0:0,0:0:0:0:
177,172,166006,2,0,P|173:208|169:244,1,73.1250027894975,2|0,0:1|0:0,0:0:0:0:
63,323,166160,2,0,P|66:287|70:251,1,73.1250027894975,10|0,0:0|0:0,0:0:0:0:
155,40,166314,101,2,0:0:0:0:
195,13,166391,1,2,0:0:0:0:
240,32,166468,2,0,P|249:74|259:116,1,85.3125008136034,2|0,1:0|0:0,0:0:0:0:
377,245,166621,2,0,P|367:203|357:161,1,85.3125008136034,2|0,0:1|0:0,0:0:0:0:
441,23,166775,2,0,P|450:64|460:106,1,85.3125008136034,10|0,0:0|0:0,0:0:0:0:
487,324,166929,5,2,0:0:0:0:
455,367,167006,1,2,0:0:0:0:
402,355,167083,101,2,1:0:0:0:
385,351,167159,1,2,0:0:0:0:
368,348,167236,1,2,0:0:0:0:
351,345,167313,1,2,0:0:0:0:
305,313,167391,5,10,0:1:0:0:
288,317,167467,1,2,0:0:0:0:
271,320,167544,1,2,0:0:0:0:
254,323,167621,1,2,0:0:0:0:
212,352,167698,102,0,B|186:355|168:372|168:372|160:349|139:333,1,97.5,2|0,1:0|0:0,0:0:0:0:
170,140,167852,1,2,1:2:0:0:
170,140,167929,1,2,0:0:0:0:
170,140,168006,2,0,B|196:137|214:120|214:120|222:143|242:158,1,97.5,10|0,1:0|0:0,0:0:0:0:
68,268,168160,5,0,1:0:0:0:
68,268,168237,2,0,P|63:237|59:207,1,60.9375,2|0,0:1|1:0,0:0:0:0:
197,279,168391,2,0,P|192:248|188:218,1,60.9375,2|0,0:1|1:0,0:0:0:0:
326,290,168545,1,2,0:0:0:0:
326,290,168621,2,0,P|321:259|317:229,1,60.9375,2|0,1:0|0:0,0:0:0:0:
163,128,168775,102,0,B|217:128|199:150|256:151,1,97.5,2|0,1:0|0:0,0:0:0:0:
512,201,168929,6,0,P|492:181|480:155,5,56.8750005424023,2|2|2|2|2|2,0:0|0:0|0:0|0:0|0:0|0:0,0:0:0:0:
349,131,169237,2,0,P|366:114|377:93,5,48.750001859665,2|2|2|2|2|2,0:0|0:0|0:0|0:0|0:0|0:0,0:0:0:0:
485,138,169545,2,0,P|476:120|471:101,5,40.625,2|2|2|2|2|2,0:0|0:0|0:0|1:2|0:0|0:0,0:0:0:0:
377,74,169852,2,0,P|381:59|384:43,5,32.5,10|2|2|2|2|2,0:0|0:0|0:0|0:0|0:0|0:0,0:0:0:0:
460,17,170160,5,6,1:2:0:0:
289,50,170313,1,2,0:0:0:0:
470,100,170467,1,2,0:0:0:0:
301,53,170621,1,2,0:0:0:0:
401,158,170775,5,0,3:0:0:0:
420,233,170929,1,0,1:0:0:0:
439,308,171082,2,0,P|449:343|459:378,1,73.1250027894975,8|0,3:2|0:0,0:0:0:0:
491,190,171390,101,0,1:0:0:0:
500,177,171544,5,2,0:0:0:0:
416,318,171698,1,10,0:0:0:0:
275,234,171852,1,2,0:0:0:0:
401,158,172005,101,0,0:0:0:0:
390,175,172159,1,0,1:0:0:0:
372,165,172313,1,8,0:0:0:0:
383,147,172466,1,0,0:0:0:0:
153,348,172621,5,4,1:0:0:0:
75,88,172775,1,2,0:0:0:0:
75,88,172852,1,2,0:0:0:0:
75,88,172929,1,10,0:0:0:0:
114,218,173083,1,2,0:0:0:0:
75,88,173237,101,0,0:0:0:0:
185,152,173390,1,0,1:0:0:0:
36,296,173544,1,8,0:0:0:0:
153,348,173698,1,0,0:0:0:0:
114,218,173852,5,2,1:2:0:0:
203,135,174005,2,0,L|230:110,2,36.5625013947487,2|2|10,0:0|0:0|0:0,0:0:0:0:
319,171,174313,2,0,L|353:181,2,36.5625013947487,2|2|2,0:0|0:0|0:0,0:0:0:0:
345,289,174621,2,0,L|350:312,3,24.3750009298325,2|2|2|10,1:2|0:0|0:0|0:0,0:0:0:0:
317,162,174929,1,0,1:0:0:0:
258,373,175082,101,6,1:2:0:0:
438,304,175236,1,2,0:0:0:0:
246,255,175390,1,2,0:0:0:0:
450,309,175544,1,2,0:0:0:0:
390,216,175698,5,0,0:0:0:0:
405,139,175852,1,0,1:0:0:0:
476,104,176005,1,8,0:0:0:0:
491,27,176159,1,0,0:0:0:0:
492,201,176313,101,0,1:0:0:0:
510,214,176467,5,2,0:0:0:0:
378,69,176621,1,2,0:0:0:0:
319,256,176775,1,2,0:0:0:0:
415,183,176929,101,0,0:0:0:0:
399,165,177083,1,0,1:0:0:0:
391,189,177237,1,8,0:0:0:0:
402,179,177390,1,0,0:0:0:0:
251,68,177544,5,4,1:0:0:0:
263,82,177698,101,2,0:0:0:0:
99,0,177852,1,2,0:0:0:0:
0,157,178005,1,2,0:0:0:0:
159,93,178159,5,0,0:0:0:0:
143,172,178313,1,0,1:0:0:0:
127,250,178467,2,0,P|118:286|109:322,1,73.1250027894975,8|0,0:0|0:0,0:0:0:0:
29,376,178775,101,2,1:2:0:0:
206,305,178929,2,0,L|211:282,3,24.3750009298325,2|2|2|10,1:2|0:0|0:0|0:0,0:0:0:0:
47,176,179236,2,0,L|52:153,3,24.3750009298325,2|2|2|10,1:2|0:0|0:0|0:0,0:0:0:0:
252,85,179544,2,0,L|257:62,3,24.3750009298325,2|2|2|10,1:2|0:0|0:0|0:0,0:0:0:0:
150,119,179852,1,0,1:0:0:0:
396,203,180005,6,0,P|494:186|489:86,1,219.375008368492,6|0,1:2|0:0,0:0:0:0:
477,80,180313,5,10,0:0:0:0:
248,108,180466,1,2,0:0:0:0:
354,293,180621,102,0,P|360:329|368:365,1,73.1250027894975,8|0,0:0|1:0,0:0:0:0:
484,243,180929,2,0,P|491:278|497:314,1,73.1250027894975,8|0,0:0|0:0,0:0:0:0:
263,241,181236,6,0,P|206:230|175:278,1,121.875,0|2,1:0|0:0,0:0:0:0:
175,277,181467,1,2,0:0:0:0:
175,277,181544,1,10,0:0:0:0:
318,142,181698,1,2,0:0:0:0:
386,331,181852,1,8,0:0:0:0:
283,255,182005,1,0,1:0:0:0:
93,357,182159,102,0,P|44:365|-2:374,1,97.5,8|0,0:0|0:0,0:0:0:0:
221,146,182467,5,0,1:0:0:0:
134,238,182621,101,2,0:0:0:0:
201,32,182775,1,10,0:0:0:0:
348,168,182929,1,2,0:0:0:0:
87,43,183082,5,8,0:0:0:0:
50,181,183236,1,0,0:0:0:0:
137,130,183390,1,8,0:0:0:0:
0,93,183544,1,0,0:0:0:0:
283,41,183698,102,0,P|331:33|379:26,1,97.5,2|2,1:2|0:0,0:0:0:0:
420,23,183929,1,2,0:0:0:0:
455,40,184005,1,10,0:0:0:0:
361,155,184159,5,2,0:0:0:0:
374,124,184236,1,2,0:0:0:0:
401,107,184312,1,10,0:0:0:0:
448,225,184467,101,2,0:0:0:0:
440,210,184517,5,2,0:0:0:0:
436,194,184569,101,2,0:0:0:0:
436,179,184621,5,10,0:0:0:0:
512,185,184774,1,0,1:0:0:0:
350,329,184929,101,4,1:0:0:0:
287,62,185082,1,8,0:0:0:0:
345,341,185236,1,8,0:0:0:0:
281,71,185389,1,8,0:0:0:0:
463,311,185544,5,8,0:0:0:0:
260,252,185698,1,8,0:0:0:0:
378,223,185852,1,8,0:0:0:0:
226,370,186005,1,8,0:0:0:0:
59,129,186159,102,0,L|50:80,1,48.75,4|0,1:0|0:0,0:0:0:0:
29,64,186313,5,8,0:0:0:0:
263,217,186467,1,8,0:0:0:0:
14,343,186621,1,8,0:0:0:0:
14,343,186698,1,0,1:0:0:0:
14,343,186775,101,8,0:0:0:0:
153,277,186929,1,8,0:0:0:0:
50,239,187082,1,8,0:0:0:0:
116,379,187236,1,8,0:0:0:0:
227,168,187390,5,4,1:0:0:0:
233,151,187467,1,0,3:0:0:0:
240,136,187544,1,0,3:0:0:0:
247,121,187621,1,0,3:0:0:0:
255,107,187698,101,4,1:0:0:0:
264,134,187775,1,0,3:0:0:0:
274,162,187852,1,0,3:0:0:0:
283,191,187929,1,0,3:0:0:0:
293,219,188005,5,4,1:0:0:0:
309,184,188082,1,0,3:0:0:0:
325,151,188159,1,0,3:0:0:0:
341,117,188236,1,0,3:0:0:0:
357,83,188313,101,4,1:0:0:0:
376,139,188390,1,0,3:0:0:0:
395,194,188467,1,0,3:0:0:0:
414,249,188544,1,0,3:0:0:0:
434,305,188621,54,2,B|357:321|295:253|334:183|334:183|397:235|501:203|538:81|457:10|392:31|367:82|387:119,1,568.750005424023,4|0,1:0|0:0,1:0:0:0:
477,166,189236,85,2,0:0:0:0:
491,154,189338,21,2,0:0:0:0:
507,159,189441,85,2,0:0:0:0:
512,177,189544,21,10,0:0:0:0:
497,191,189646,85,2,0:0:0:0:
480,185,189749,21,2,0:0:0:0:
497,47,189852,86,2,P|394:83|285:96,1,219.375008368492,6|0,1:0|0:0,1:0:0:0:
273,104,190159,2,0,P|255:39|312:1,1,146.250005578995,8|0,0:0|0:0,0:0:0:0:
492,174,190467,2,0,P|475:240|406:243,1,146.250005578995,0|0,1:0|0:0,0:0:0:0:
179,139,190775,86,0,B|122:94|17:118|21:188|79:208|93:164,1,219.375008368492,10|0,0:0|0:0,0:0:0:0:
80,149,191082,2,0,P|89:76|97:3,1,146.250005578995,2|0,1:0|0:0,0:0:0:0:
277,213,191390,1,8,0:0:0:0:
45,345,191544,1,0,0:0:0:0:
166,222,191698,21,2,1:2:0:0:
184,234,191775,1,2,0:0:0:0:
171,252,191852,1,2,0:0:0:0:
153,240,191929,1,2,0:0:0:0:
168,237,192005,2,0,P|186:303|203:384,1,146.250005578995,8|0,0:0|0:0,0:0:0:0:
393,161,192313,86,2,P|324:155|304:88,1,146.250005578995,6|0,1:0|0:0,1:0:0:0:
296,72,192544,2,0,P|302:35|306:0,1,73.1250027894975,2|8,0:0|0:0,0:0:0:0:
463,122,192698,1,2,0:0:0:0:
476,140,192775,2,0,P|469:176|465:212,1,73.1250027894975,2|0,0:0|0:0,0:0:0:0:
388,333,192929,22,2,P|319:327|299:260,1,146.250005578995,2|0,1:0|0:0,1:0:0:0:
292,244,193160,2,0,P|298:207|302:172,1,73.1250027894975,2|8,0:0|0:0,0:0:0:0:
459,294,193314,1,2,0:0:0:0:
472,312,193391,2,0,P|465:348|461:384,1,73.1250027894975,2|0,0:0|0:0,0:0:0:0:
369,129,193544,86,2,P|261:149|153:169,1,219.375008368492,2|0,1:0|0:0,1:0:0:0:
139,185,193852,1,8,0:0:0:0:
482,137,194005,21,2,0:0:0:0:
512,67,194082,1,2,0:0:0:0:
447,23,194159,2,0,P|339:43|231:63,1,219.375008368492,2|0,1:0|0:0,0:0:0:0:
216,65,194467,1,8,0:0:0:0:
493,151,194621,1,0,1:0:0:0:
126,327,194775,86,2,P|28:326|42:230,1,219.375008368492,6|0,1:0|0:0,1:0:0:0:
35,215,195082,2,0,P|107:227|179:241,1,146.250005578995,8|0,0:0|0:0,0:0:0:0:
452,384,195390,2,0,P|379:373|307:359,1,146.250005578995,0|0,1:0|0:0,0:0:0:0:
121,2,195698,22,2,P|104:102|199:138,1,219.375008368492,10|0,0:1|0:0,1:0:0:0:
210,143,196005,2,0,P|240:85|180:58,1,146.250005578995,2|0,1:0|0:0,0:0:0:0:
15,130,196313,1,8,0:0:0:0:
232,328,196467,85,2,0:0:0:0:
267,332,196544,1,2,0:0:0:0:
302,335,196621,2,2,B|378:344|378:344|395:202,1,219.375008368492,2|0,1:0|0:0,1:0:0:0:
382,212,196929,2,0,L|406:280,1,73.1250027894975,8|0,0:0|0:0,0:0:0:0:
498,384,197082,1,0,1:0:0:0:
260,49,197236,21,6,1:0:0:0:
270,91,197312,1,2,0:0:0:0:
282,133,197389,1,2,0:0:0:0:
294,176,197466,1,2,0:0:0:0:
287,201,197544,85,10,0:1:0:0:
320,211,197620,1,2,0:0:0:0:
354,219,197697,1,2,0:0:0:0:
388,229,197774,1,2,0:0:0:0:
404,247,197852,21,2,1:0:0:0:
423,228,197928,1,2,0:0:0:0:
442,207,198005,1,2,0:0:0:0:
462,188,198082,1,2,0:0:0:0:
486,188,198159,85,10,0:1:0:0:
478,167,198235,1,2,0:0:0:0:
472,145,198313,1,2,0:0:0:0:
466,123,198390,1,2,0:0:0:0:
449,106,198467,21,2,1:2:0:0:
450,125,198544,1,2,0:0:0:0:
442,153,198621,1,2,0:0:0:0:
419,182,198698,1,2,0:0:0:0:
382,197,198775,1,10,0:0:0:0:
331,185,198852,1,2,0:0:0:0:
297,141,198929,1,2,0:0:0:0:
306,79,199005,1,2,0:0:0:0:
364,27,199082,85,2,1:0:0:0:
390,101,199159,1,2,0:0:0:0:
343,166,199236,2,0,P|314:186|278:190,1,73.1250027894975,2|0,0:0|0:0,0:0:0:0:
249,296,199390,21,10,0:0:0:0:
171,281,199467,1,2,0:0:0:0:
138,209,199544,2,0,P|134:172|149:140,1,73.1250027894975,2|0,1:2|1:0,0:0:0:0:
204,12,199698,86,2,B|196:41|196:41|43:90|43:90|32:117,1,219.375008368492,6|0,1:0|0:0,1:0:0:0:
21,138,200005,2,0,P|12:173|6:209,1,73.1250027894975,10|0,0:1|0:0,0:0:0:0:
30,144,200159,2,0,P|21:179|15:215,1,73.1250027894975,2|0,0:1|0:0,0:0:0:0:
134,384,200313,2,0,P|142:348|148:312,1,73.1250027894975,2|0,1:0|0:0,0:0:0:0:
125,378,200467,2,0,P|133:342|139:306,1,73.1250027894975,2|0,0:1|0:0,0:0:0:0:
77,262,200621,1,8,0:0:0:0:
261,106,200775,21,2,0:0:0:0:
348,367,200929,2,2,P|280:365|267:299,1,146.250005578995,2|0,1:0|0:0,1:0:0:0:
328,247,201159,1,2,0:0:0:0:
346,252,201236,1,10,0:0:0:0:
138,206,201390,86,2,P|237:215|251:117,1,219.375008368492,2|0,0:1|0:0,1:0:0:0:
261,106,201698,2,0,P|188:95|116:85,1,146.250005578995,2|8,0:1|0:0,0:0:0:0:
98,96,201929,2,0,P|61:90|25:85,1,73.1250027894975,2|0,0:0|0:0,0:0:0:0:
433,55,202159,22,0,P|413:125|398:196,1,146.250005578995,6|0,1:2|0:0,0:0:0:0:
412,209,202390,2,0,P|448:202|484:196,1,73.1250027894975,2|8,0:0|0:0,0:0:0:0:
419,37,202544,1,2,0:0:0:0:
404,23,202621,2,0,P|367:29|331:35,1,73.1250027894975,2|0,0:0|0:0,0:0:0:0:
193,135,202775,86,0,P|212:205|227:276,1,146.250005578995,2|0,1:2|0:0,0:0:0:0:
214,289,203006,2,0,P|178:282|142:276,1,73.1250027894975,2|8,0:0|0:0,0:0:0:0:
207,117,203160,1,2,0:0:0:0:
222,103,203237,2,0,P|259:109|295:115,1,73.1250027894975,2|0,0:0|0:0,0:0:0:0:
469,347,203390,22,2,B|502:367|483:401|436:408|406:344|455:296|466:314|497:283|485:232,1,219.375008368492,2|0,1:0|0:0,1:0:0:0:
425,163,203698,85,10,0:0:0:0:
411,185,203775,1,2,0:0:0:0:
389,171,203852,1,2,0:0:0:0:
375,193,203929,1,2,0:0:0:0:
353,179,204005,1,2,1:2:0:0:
339,201,204082,1,2,0:0:0:0:
326,193,204159,2,0,P|290:199|254:208,1,73.1250027894975,2|0,0:0|0:0,0:0:0:0:
163,224,204313,21,8,0:0:0:0:
384,88,204467,1,0,1:0:0:0:
106,16,204621,86,2,B|64:-1|30:13|30:13|103:23|152:79,1,219.375008368492,6|0,1:0|0:0,1:0:0:0:
161,92,204929,2,0,P|228:89|237:22,1,146.250005578995,8|0,0:0|0:0,0:0:0:0:
0,220,205236,2,0,P|67:222|76:289,1,146.250005578995,0|0,1:0|0:0,0:0:0:0:
417,220,205544,2,2,P|308:203|200:186,1,219.375008368492,10|0,0:1|0:0,1:0:0:0:
184,197,205852,22,2,B|145:240|165:315|211:332|211:332|229:306|261:301,1,219.375008368492,2|0,1:0|0:0,1:0:0:0:
275,377,206159,1,8,0:0:0:0:
366,66,206312,85,2,0:0:0:0:
438,54,206389,1,2,0:0:0:0:
509,43,206468,2,2,B|548:86|528:161|481:178|481:178|461:152|431:147,1,219.375008368492,2|0,1:0|0:0,1:0:0:0:
417,220,206775,1,8,0:0:0:0:
256,7,206929,1,0,1:0:0:0:
177,329,207082,21,6,1:2:0:0:
118,345,207159,1,2,0:0:0:0:
72,330,207236,1,2,0:0:0:0:
43,296,207313,1,2,0:0:0:0:
39,264,207390,2,0,P|45:228|49:192,1,73.1250027894975,10|0,0:0|0:0,0:0:0:0:
155,92,207544,85,2,0:0:0:0:
230,80,207621,1,2,0:0:0:0:
305,68,207697,1,2,1:2:0:0:
342,113,207775,1,2,0:0:0:0:
341,170,207852,1,2,0:0:0:0:
302,212,207929,1,2,0:0:0:0:
248,220,208005,1,10,0:0:0:0:
211,258,208082,1,2,0:0:0:0:
210,309,208159,1,2,0:0:0:0:
249,348,208236,1,2,0:0:0:0:
300,345,208312,21,6,1:2:0:0:
325,351,208390,1,0,0:0:0:0:
352,358,208467,1,0,0:0:0:0:
379,364,208544,1,0,0:0:0:0:
412,338,208621,85,6,1:2:0:0:
428,329,208699,1,0,0:0:0:0:
446,321,208776,1,0,0:0:0:0:
464,314,208853,1,0,0:0:0:0:
483,280,208929,21,2,1:2:0:0:
478,253,209005,1,2,0:0:0:0:
456,229,209082,1,2,0:0:0:0:
418,220,209159,1,2,0:0:0:0:
381,237,209237,85,2,1:2:0:0:
334,248,209313,1,2,0:0:0:0:
284,221,209390,1,2,0:0:0:0:
270,150,209467,1,2,0:0:0:0:
337,84,209544,6,0,P|343:41|350:0,1,85.3125008136034,6|0,1:2|0:0,0:0:0:0:
414,101,209698,1,2,0:0:0:0:
414,101,209775,2,0,P|420:58|427:16,1,85.3125008136034,2|8,0:0|0:0,0:0:0:0:
490,118,209929,1,2,0:0:0:0:
490,118,210005,2,0,P|496:75|503:33,1,85.3125008136034,2|0,0:0|0:0,0:0:0:0:
271,164,210159,22,0,P|277:206|284:248,1,85.3125008136034,2|0,1:2|0:0,0:0:0:0:
195,181,210313,1,2,0:0:0:0:
195,181,210390,2,0,P|201:223|208:265,1,85.3125008136034,2|8,0:0|0:0,0:0:0:0:
119,199,210544,1,2,0:0:0:0:
119,199,210621,2,0,P|125:241|132:283,1,85.3125008136034,2|0,0:0|0:0,0:0:0:0:
23,42,210775,85,2,1:0:0:0:
67,82,210852,1,2,0:0:0:0:
105,63,210929,1,2,0:0:0:0:
126,83,211005,1,2,0:0:0:0:
147,74,211082,2,0,P|176:82|205:90,1,60.9375,10|0,0:0|0:0,0:0:0:0:
281,172,211236,21,2,0:0:0:0:
325,212,211313,1,2,0:0:0:0:
363,193,211390,1,2,1:2:0:0:
384,213,211466,1,2,0:0:0:0:
405,204,211544,2,0,P|434:212|463:220,1,60.9375,2|0,0:0|0:0,0:0:0:0:
512,61,211698,85,10,0:0:0:0:
490,55,211775,1,2,0:0:0:0:
468,55,211852,2,0,P|438:61|410:73,1,60.9375,2|0,0:0|0:0,0:0:0:0:
224,362,212005,21,6,1:0:0:0:
184,318,212082,1,2,0:0:0:0:
203,280,212159,1,2,0:0:0:0:
183,259,212235,1,2,0:0:0:0:
192,238,212313,2,0,P|184:209|176:180,1,60.9375,10|0,0:0|0:0,0:0:0:0:
296,203,212467,85,2,0:0:0:0:
336,159,212544,1,2,0:0:0:0:
317,121,212621,1,2,1:2:0:0:
337,100,212697,1,2,0:0:0:0:
328,79,212775,2,0,P|336:50|344:21,1,60.9375
126,60,212929,21,10,0:0:0:0:
155,57,213005,1,2,0:0:0:0:
182,62,213082,2,0,P|210:72|236:88,1,60.9375,2|0,0:0|0:0,0:0:0:0:
497,252,213236,85,2,1:0:0:0:
453,212,213313,1,2,0:0:0:0:
415,231,213390,1,2,0:0:0:0:
394,211,213466,1,2,0:0:0:0:
373,220,213544,2,0,P|344:212|315:204,1,60.9375,10|0,0:0|0:0,0:0:0:0:
222,281,213698,21,2,0:0:0:0:
178,241,213775,1,2,0:0:0:0:
140,260,213852,1,2,1:2:0:0:
119,240,213928,1,2,0:0:0:0:
98,249,214005,2,0,P|69:241|40:233,1,60.9375,2|0,0:0|0:0,0:0:0:0:
71,69,214159,86,0,P|82:110|93:151,1,85.3125008136034,8|0,0:0|0:0,0:0:0:0:
211,384,214313,2,0,P|222:342|233:301,1,85.3125008136034,0|0,1:0|0:0,0:0:0:0:
446,52,214467,21,2,1:2:0:0:
416,82,214543,1,2,0:0:0:0:
379,104,214620,1,2,0:0:0:0:
337,113,214697,1,2,0:0:0:0:
295,110,214775,2,0,L|279:43,1,60.9375,10|0,0:0|0:0,0:0:0:0:
434,323,214929,85,2,0:0:0:0:
476,311,215005,1,0,0:0:0:0:
506,263,215082,1,2,1:2:0:0:
488,204,215159,1,2,0:0:0:0:
430,181,215236,1,2,0:0:0:0:
378,211,215313,1,2,0:0:0:0:
355,254,215390,1,10,0:0:0:0:
324,279,215467,1,0,0:0:0:0:
293,288,215544,1,0,0:0:0:0:
264,285,215621,1,0,0:0:0:0:
246,268,215698,22,0,P|240:248|233:229,5,40.625,2|2|2|2|2|2,0:0|0:0|0:0|0:0|0:0|0:0,0:0:0:0:
240,207,216005,2,0,B|263:189|263:189|254:219,1,60.9375,8|0,0:0|0:0,0:0:0:0:
214,354,216159,85,2,0:0:0:0:
201,351,216211,21,2,0:0:0:0:
189,348,216262,85,2,0:0:0:0:
177,345,216313,22,0,L|160:302,5,40.625,2|2|2|2|2|2,1:2|0:0|0:0|0:0|0:0|0:0,0:0:0:0:
100,356,216621,2,0,L|83:313,5,40.625,10|2|2|2|2|2,0:0|0:0|0:0|0:0|0:0|0:0,0:0:0:0:
56,224,216929,101,6,1:2:0:0:
56,224,217005,1,2,0:0:0:0:
56,224,217082,2,0,P|84:234|112:246,1,60.9375,2|0,0:0|0:0,0:0:0:0:
280,311,217236,1,10,0:0:0:0:
129,234,217390,2,0,P|119:172|110:114,1,121.875,2|0,0:0|1:0,0:0:0:0:
294,300,217698,1,0,0:0:0:0:
230,3,217852,86,0,P|207:23|197:51,1,60.9375,10|0,0:1|0:0,0:0:0:0:
135,254,218005,1,2,0:0:0:0:
32,105,218159,22,2,P|151:82|272:64,1,243.75,2|10,1:0|0:0,1:0:0:0:
272,64,218544,1,2,0:0:0:0:
272,64,218621,1,2,0:0:0:0:
425,292,218775,85,2,1:2:0:0:
283,74,218928,1,2,0:0:0:0:
245,253,219082,1,10,0:0:0:0:
462,112,219236,1,2,0:0:0:0:
237,270,219390,102,0,P|148:290|59:309,1,182.8125,6|0,1:2|0:0,0:0:0:0:
67,315,219698,2,0,P|123:308|129:251,1,121.875,8|0,0:0|0:0,0:0:0:0:
261,163,220005,2,0,P|254:106|197:100,1,121.875,8|0,0:0|0:0,0:0:0:0:
10,0,220313,2,0,P|27:89|42:179,1,182.8125,10|0,0:1|0:0,0:0:0:0:
32,191,220621,5,10,0:1:0:0:
189,104,220775,1,0,0:0:0:0:
22,9,220929,1,8,0:0:0:0:
146,237,221082,2,0,P|203:256|261:275,1,121.875,2|8,0:1|0:0,0:0:0:0:
36,18,221390,1,0,0:0:0:0:
269,171,221544,102,0,B|323:182|355:144|346:131|376:92|426:100,1,182.8125,10|0,0:1|0:0,0:0:0:0:
441,96,221852,2,0,P|484:132|460:183,1,121.875,12|0,1:0|0:0,0:0:0:0:
282,95,222159,1,8,0:0:0:0:
497,280,222313,2,0,P|438:262|380:245,1,121.875,2|8,0:1|0:0,0:0:0:0:
275,83,222621,1,0,0:0:0:0:
146,313,222775,6,0,B|197:320|216:366|216:366|219:316|258:290,1,182.8125,10|0,0:1|0:0,0:0:0:0:
279,284,223082,2,2,P|165:277|131:385,1,243.75,10|8,0:1|0:0,1:0:0:0:
304,367,223544,1,2,0:1:0:0:
77,247,223698,2,0,P|59:157|41:67,1,182.8125,10|0,0:1|0:0,0:0:0:0:
53,52,224005,21,2,0:0:0:0:
88,28,224081,1,2,0:0:0:0:
130,31,224158,1,2,0:0:0:0:
161,59,224235,1,2,0:0:0:0:
167,100,224312,1,12,1:0:0:0:
14,339,224467,1,8,0:0:0:0:
41,67,224621,1,8,0:0:0:0:
131,384,224775,2,0,P|186:367|200:310,1,121.875,10|8,0:1|0:0,0:0:0:0:
104,163,225082,1,8,0:0:0:0:
291,37,225236,86,0,P|285:66|278:96,1,60.9375,8|0,1:0|0:0,0:0:0:0:
282,39,225390,2,0,P|276:68|269:98,1,60.9375,8|0,1:0|0:0,0:0:0:0:
424,260,225544,21,14,1:0:0:0:
104,163,225698,1,8,0:0:0:0:
446,125,225852,1,8,0:0:0:0:
214,327,226005,2,0,P|227:267|241:208,1,121.875,10|0,0:1|0:0,0:0:0:0:
374,384,226313,1,8,0:0:0:0:
227,189,226467,2,0,P|254:139|311:145,1,121.875,10|0,0:1|0:0,0:0:0:0:
512,384,226775,85,6,1:0:0:0:
458,376,226851,1,0,3:0:0:0:
405,368,226928,1,0,3:0:0:0:
352,362,227005,1,0,3:0:0:0:
313,384,227082,21,4,1:0:0:0:
293,345,227158,1,0,3:0:0:0:
296,301,227235,1,0,3:0:0:0:
320,266,227312,1,0,3:0:0:0:
361,248,227389,1,4,1:0:0:0:
404,252,227466,1,0,3:0:0:0:
438,278,227544,85,2,3:1:0:0:
432,237,227620,1,0,3:0:0:0:
426,197,227697,1,4,1:0:0:0:
421,158,227774,1,0,3:0:0:0:
415,118,227851,1,0,3:0:0:0:
411,78,227928,1,0,3:0:0:0:
406,39,228005,21,4,1:0:0:0:
418,24,228082,1,0,3:0:0:0:
443,17,228159,1,0,3:0:0:0:
469,25,228236,1,0,3:0:0:0:
489,53,228313,1,0,3:0:0:0:
482,89,228390,1,0,3:0:0:0:
447,114,228467,1,0,3:0:0:0:
401,119,228544,1,0,3:0:0:0:
356,100,228621,1,0,3:0:0:0:
325,61,228698,1,0,3:0:0:0:
282,32,228775,1,0,3:0:0:0:
224,36,228852,1,0,3:0:0:0:
181,83,228929,1,0,3:0:0:0:
183,147,229005,1,0,3:0:0:0:
234,189,229082,1,0,3:0:0:0:
305,174,229159,1,0,3:0:0:0:
342,106,229236,86,0,P|338:82|335:58,2,48.750001859665,4|2|0,1:0|0:0|0:0,0:0:0:0:
416,87,229543,2,0,P|412:62|409:38,2,48.750001859665,2|2|0,0:0|0:0|0:0,0:0:0:0:
485,133,229851,5,10,0:0:0:0:
487,159,229953,1,2,0:0:0:0:
476,184,230056,1,2,0:0:0:0:
408,254,230159,102,0,P|456:261|504:268,1,97.50000371933,2|0,1:2|0:0,0:0:0:0:
395,268,230466,2,0,P|348:280|340:338,1,97.50000371933,0|0,1:0|0:0,0:0:0:0:
424,363,230774,5,8,0:0:0:0:
452,367,230876,1,0,0:0:0:0:
481,371,230979,1,0,0:0:0:0:
334,322,231082,101,2,1:2:0:0:
314,326,231184,2,0,L|266:335,1,48.750001859665,2|0,0:0|0:0,0:0:0:0:
174,384,231389,1,2,0:0:0:0:
170,364,231491,2,0,L|160:316,1,48.750001859665,2|0,0:0|0:0,0:0:0:0:
64,190,231697,5,10,0:0:0:0:
71,280,231800,1,2,0:0:0:0:
146,226,231902,1,2,0:0:0:0:
51,196,232005,102,0,P|7:178|1:132,1,97.50000371933,0|0,1:0|0:0,0:0:0:0:
107,104,232312,2,0,P|58:110|10:119,1,97.50000371933,0|0,1:0|0:0,0:0:0:0:
156,39,232620,6,0,B|203:29|235:63|222:74|252:105|298:99,1,162.5,10|0,0:0|0:0,0:0:0:0:
360,9,232928,101,4,1:0:0:0:
341,12,233030,2,0,P|317:17|293:23,1,48.750001859665,2|0,0:0|0:0,0:0:0:0:
214,102,233236,1,2,0:0:0:0:
218,119,233338,2,0,P|223:143|229:167,1,48.750001859665,2|0,0:0|0:0,0:0:0:0:
166,258,233543,5,10,0:0:0:0:
135,160,233646,1,2,0:0:0:0:
234,183,233748,1,2,0:0:0:0:
155,272,233851,102,0,P|109:276|84:237,1,97.50000371933,0|0,1:0|0:0,0:0:0:0:
22,384,234159,2,0,P|14:335|5:287,1,97.50000371933,0|0,1:0|0:0,0:0:0:0:
108,371,234466,6,0,P|187:354|267:338,1,162.5,10|0,0:0|0:0,0:0:0:0:
280,326,234774,102,0,B|384:335|384:335|409:364|409:364|509:375,2,243.75,0|0|8,1:0|0:0|0:0,0:0:0:0:
232,267,235492,1,2,0:0:0:0:
228,253,235594,1,2,0:0:0:0:
224,239,235697,5,2,1:2:0:0:
451,293,235851,1,2,0:0:0:0:
297,309,236005,1,2,1:2:0:0:
366,219,236159,1,2,0:0:0:0:
153,290,236312,101,8,0:0:0:0:
512,237,236466,1,8,0:0:0:0:
282,121,236620,5,4,1:0:0:0:
261,118,236723,2,0,P|236:114|212:110,1,48.750001859665,2|0,0:0|0:0,0:0:0:0:
302,44,236928,1,2,0:0:0:0:
270,39,237031,2,0,P|245:35|221:31,1,48.750001859665,2|0,0:0|0:0,0:0:0:0:
376,105,237236,101,10,0:0:0:0:
460,90,237338,1,2,0:0:0:0:
445,6,237440,1,2,0:0:0:0:
370,121,237543,6,0,P|357:167|345:215,1,97.50000371933,0|0,1:0|0:0,0:0:0:0:
454,110,237851,2,0,P|441:156|429:204,1,97.50000371933,0|0,1:0|0:0,0:0:0:0:
412,333,238159,102,0,P|472:331|487:272,1,130,8|0,0:0|0:0,0:0:0:0:
342,230,238466,5,4,1:0:0:0:
337,244,238569,2,0,P|329:267|322:290,1,48.750001859665,2|0,0:0|0:0,0:0:0:0:
253,384,238774,1,2,0:0:0:0:
248,370,238877,2,0,P|240:346|233:323,1,48.750001859665,2|0,0:0|0:0,0:0:0:0:
136,256,239082,101,10,0:0:0:0:
49,277,239184,1,2,0:0:0:0:
70,364,239287,1,2,0:0:0:0:
55,264,239389,6,0,B|47:216|83:186|93:199|125:171|122:125,1,162.5,0|0,1:0|0:0,0:0:0:0:
136,256,239697,2,0,P|104:159|73:62,1,203.125,0|0,1:0|0:0,0:0:0:0:
73,62,240005,86,0,P|0:73|13:145,1,162.5,2|0,0:0|0:0,0:0:0:0:
123,125,240312,21,0,1:0:0:0:
86,347,240466,1,0,1:0:0:0:
308,384,240620,1,8,0:0:0:0:
135,120,240774,21,0,1:0:0:0:
98,342,240928,1,0,1:0:0:0:
320,379,241082,1,8,0:0:0:0:
98,342,241236,85,0,1:0:0:0:
435,259,241389,1,8,0:0:0:0:
87,57,241543,21,0,1:0:0:0:
50,279,241697,1,0,1:0:0:0:
272,316,241851,1,8,0:0:0:0:
99,52,242005,85,0,1:0:0:0:
62,274,242159,1,0,1:0:0:0:
284,311,242313,1,8,0:0:0:0:
62,274,242467,21,0,1:0:0:0:
399,191,242620,1,8,0:0:0:0:
37,0,242774,85,0,1:0:0:0:
118,184,242928,1,8,0:0:0:0:
245,33,243082,1,0,1:0:0:0:
245,33,243159,1,0,1:0:0:0:
245,33,243236,1,8,0:0:0:0:
333,224,243389,21,0,1:0:0:0:
252,40,243543,1,8,0:0:0:0:
125,191,243697,1,0,1:0:0:0:
125,191,243774,1,0,1:0:0:0:
125,191,243851,1,8,0:0:0:0:
408,121,244005,85,4,1:0:0:0:
437,298,244159,1,8,0:0:0:0:
260,328,244313,1,0,1:0:0:0:
260,328,244389,1,0,1:0:0:0:
260,328,244466,1,8,0:0:0:0:
408,121,244620,21,0,1:0:0:0:
231,151,244774,1,8,0:0:0:0:
260,328,244928,1,0,1:0:0:0:
260,328,245005,1,0,1:0:0:0:
260,328,245082,1,8,0:0:0:0:
397,129,245236,102,0,P|461:162|512:214,1,146.250005578995,12|0,1:0|0:0,0:0:0:0:
268,130,245466,1,0,1:0:0:0:
255,111,245543,2,0,P|325:94|398:102,1,146.250005578995,12|0,1:0|0:0,0:0:0:0:
159,197,245773,1,0,1:0:0:0:
137,190,245851,2,0,P|180:131|241:91,1,146.250005578995,12|0,1:0|0:0,0:0:0:0:
119,317,246081,1,0,1:0:0:0:
98,325,246159,2,0,P|94:252|114:182,1,146.250005578995,12|0,1:0|0:0,0:0:0:0:
284,26,246389,1,0,1:0:0:0:
298,35,246466,22,0,L|271:178,1,146.250005578995,12|0,1:0|0:0,0:0:0:0:
119,317,246697,1,0,1:0:0:0:
105,308,246774,2,0,L|131:164,1,146.250005578995,12|0,1:0|0:0,0:0:0:0:
342,231,247005,1,0,1:0:0:0:
338,247,247082,2,0,L|193:271,1,146.250005578995,12|0,1:0|0:0,0:0:0:0:
61,112,247312,1,0,1:0:0:0:
65,96,247389,2,0,L|209:71,1,146.250005578995,12|0,1:0|0:0,0:0:0:0:
263,19,247620,1,0,1:0:0:0:
278,25,247697,101,8,1:0:0:0:
196,384,247851,1,2,0:0:0:0:
196,384,248620,6,0,B|171:237|129:0,1,390,8|4,0:0|1:0,0:0:0:0:
129,0,258159,86,2,B|89:-22|34:53|98:108|191:89|205:13|205:13|268:7|293:66|293:66|267:35|229:37,1,426.5625,0|0,0:0|0:0,1:0:0:0:
229,114,258774,101,0,1:0:0:0:
181,103,258850,1,0,1:0:0:0:
133,93,258927,1,0,1:0:0:0:
86,83,259004,1,0,1:0:0:0:
38,73,259081,1,0,1:0:0:0:
177,359,259236,5,0,1:0:0:0:
203,316,259312,1,0,1:0:0:0:
229,275,259389,1,0,1:0:0:0:
254,234,259466,1,0,1:0:0:0:
280,193,259543,1,0,1:0:0:0:
18,265,259697,101,8,0:0:0:0:
14,253,259773,1,0,0:0:0:0:
11,241,259850,1,0,0:0:0:0:
8,229,259927,1,0,0:0:0:0:
4,217,260005,5,0,1:0:0:0:
48,196,260081,1,0,1:0:0:0:
94,209,260158,1,0,1:0:0:0:
120,249,260235,1,0,1:0:0:0:
114,296,260312,1,0,1:0:0:0:
302,284,260466,101,0,1:0:0:0:
308,331,260543,1,0,1:0:0:0:
282,371,260620,1,0,1:0:0:0:
236,384,260697,1,0,1:0:0:0:
192,363,260773,1,0,1:0:0:0:
29,112,260928,6,0,L|22:88,2,24.375,8|0|0,0:0|0:0|0:0,0:0:0:0:
88,30,261082,2,0,L|81:6,2,24.375
158,90,261236,101,0,1:0:0:0:
171,138,261313,1,0,1:0:0:0:
185,182,261389,1,0,1:0:0:0:
198,230,261466,1,0,1:0:0:0:
212,275,261543,1,0,1:0:0:0:
401,73,261697,5,0,1:0:0:0:
354,57,261774,1,0,1:0:0:0:
309,42,261851,1,0,1:0:0:0:
263,26,261928,1,0,1:0:0:0:
218,11,262005,1,0,1:0:0:0:
396,187,262159,101,8,0:0:0:0:
384,192,262235,1,0,0:0:0:0:
373,197,262312,1,0,0:0:0:0:
362,201,262389,1,0,0:0:0:0:
351,207,262467,5,0,1:0:0:0:
345,254,262544,1,0,1:0:0:0:
371,294,262621,1,0,1:0:0:0:
417,307,262698,1,0,1:0:0:0:
461,286,262774,1,0,1:0:0:0:
395,53,262928,101,0,1:0:0:0:
439,32,263004,1,0,1:0:0:0:
485,45,263081,1,0,1:0:0:0:
511,85,263158,1,0,1:0:0:0:
505,132,263235,1,0,1:0:0:0:
297,365,263389,6,0,L|292:341,6,24.375,8|0|0|0|0|0|0,0:0|0:0|0:0|0:0|0:0|0:0|0:0,0:0:0:0:
209,322,263697,70,0,P|200:299|186:279,1,48.75,2|0,3:2|0:0,0:0:0:0:
361,295,263851,2,0,P|363:270|369:247,1,48.75,2|0,3:2|0:0,0:0:0:0:
277,232,264005,1,2,3:2:0:0:
275,224,264081,1,0,3:0:0:0:
274,217,264158,1,0,3:0:0:0:
272,210,264235,1,0,3:0:0:0:
271,203,264312,1,0,3:0:0:0:
269,196,264389,1,0,3:0:0:0:
268,188,264466,1,0,3:0:0:0:
266,180,264543,1,0,3:0:0:0:
265,173,264620,1,0,3:0:0:0:
263,166,264697,1,0,3:0:0:0:
262,159,264774,2,0,L|259:147,1,12.1875,0|0,3:0|3:0,0:0:0:0:
141,376,264928,6,0,P|132:353|118:333,1,48.75,2|0,3:2|0:0,0:0:0:0:
441,324,265082,2,0,P|442:299|449:275,1,48.75,2|0,3:2|0:0,0:0:0:0:
259,147,265236,1,2,3:2:0:0:
257,139,265312,1,0,3:0:0:0:
256,132,265389,1,0,3:0:0:0:
254,125,265466,1,0,3:0:0:0:
253,118,265543,1,0,3:0:0:0:
251,111,265620,1,0,3:0:0:0:
250,103,265697,2,0,L|247:91,1,12.1875,0|0,3:0|3:0,0:0:0:0:
299,0,265851,22,0,P|235:11|170:22,1,130,2|0,3:2|0:0,0:0:0:0:
22,16,266159,21,2,1:2:0:0:
9,0,266261,2,0,P|17:47|27:95,1,97.50000371933,0|0,1:0|0:0,0:0:0:0:
156,152,266466,85,2,1:2:0:0:
143,136,266568,2,0,P|151:183|161:231,1,97.50000371933,0|0,1:0|0:0,0:0:0:0:
65,368,266774,21,2,1:2:0:0:
52,384,266876,2,0,P|60:337|70:289,1,97.50000371933,0|0,1:0|0:0,0:0:0:0:
260,270,267082,85,2,1:2:0:0:
247,286,267184,2,0,P|255:239|265:191,1,97.50000371933,0|0,1:0|0:0,0:0:0:0:
491,0,267389,21,2,1:2:0:0:
403,43,267492,2,0,P|355:31|308:21,1,97.50000371933,0|0,1:0|0:0,0:0:0:0:
512,98,267697,85,2,1:2:0:0:
424,141,267800,2,0,P|376:129|329:119,1,97.50000371933,0|0,1:0|0:0,0:0:0:0:
82,169,268005,21,2,1:2:0:0:
170,212,268108,2,0,P|217:200|264:190,1,97.50000371933,0|0,1:0|0:0,0:0:0:0:
61,267,268313,85,2,1:2:0:0:
149,310,268416,2,0,P|196:298|243:288,1,97.50000371933,0|0,1:0|0:0,0:0:0:0:
374,377,268620,21,2,1:2:0:0:
478,252,268723,2,0,P|469:300|461:348,1,97.50000371933,0|0,1:0|0:0,0:0:0:0:
243,288,268928,85,2,1:2:0:0:
347,163,269031,2,0,P|338:211|330:259,1,97.50000371933,0|0,1:0|0:0,0:0:0:0:
139,86,269236,21,2,1:2:0:0:
264,190,269339,2,0,P|215:181|167:173,1,97.50000371933,0|0,1:0|0:0,0:0:0:0:
311,60,269543,85,2,1:2:0:0:
436,164,269646,2,0,P|387:155|339:147,1,97.50000371933,0|0,1:0|0:0,0:0:0:0:
139,86,269851,21,2,1:2:0:0:
155,172,269954,1,2,1:2:0:0:
171,258,270056,1,2,1:2:0:0:
72,142,270159,85,2,1:2:0:0:
88,228,270262,1,2,1:2:0:0:
104,314,270364,1,2,1:2:0:0:
167,166,270466,21,2,1:2:0:0:
249,195,270569,1,2,1:2:0:0:
331,224,270671,1,2,1:2:0:0:
181,252,270774,85,2,1:2:0:0:
264,281,270877,1,2,1:2:0:0:
346,310,270979,1,2,1:2:0:0:
247,184,271082,6,0,L|242:159,3,24.375,2|0|0|0,0:0|0:0|0:0|0:0,0:0:0:0:
328,212,271389,86,0,L|321:175,3,36.5625013947487,2|0|0|0,0:0|0:0|0:0|0:0,0:0:0:0:
259,248,271697,86,0,L|250:199,3,48.75,2|0|0|0,0:0|0:0|0:0|0:0,0:0:0:0:
341,288,272005,6,0,L|330:228,3,60.9375,2|0|0|0,0:0|0:0|0:0|0:0,0:0:0:0:
273,332,272313,22,0,L|260:259,3,73.1250027894975,2|0|0|0,0:0|0:0|0:0|0:0,0:0:0:0:
334,211,272620,22,0,B|356:185|356:185|345:222,1,73.1250027894975,8|0,0:0|0:0,0:0:0:0:
111,362,272774,21,2,0:0:0:0:
87,379,272851,1,2,0:0:0:0:
57,377,272928,1,2,0:0:0:0:
181,232,273082,1,2,0:0:0:0:
36,157,273236,1,2,0:0:0:0:
184,14,273390,1,2,0:0:0:0:
29,174,273543,101,6,1:2:0:0:
46,169,273620,2,0,P|69:162|93:155,1,48.75,2|0,0:0|0:0,0:0:0:0:
171,112,273774,1,0,0:0:0:0:
193,105,273851,2,0,P|227:93|262:82,1,73.1250027894975,2|0,0:1|0:0,0:0:0:0:
77,10,274005,2,2,P|85:45|93:81,1,73.1250027894975,2|0,0:1|0:0,1:0:0:0:
162,188,274159,5,0,3:0:0:0:
170,202,274236,1,0,3:0:0:0:
167,221,274313,1,2,3:1:0:0:
181,232,274389,1,0,3:0:0:0:
173,261,274466,1,2,3:2:0:0:
197,270,274543,1,0,3:0:0:0:
179,299,274620,1,2,3:0:0:0:
207,321,274697,1,0,3:0:0:0:
188,351,274774,86,0,B|116:340|116:340|102:316|102:316|32:304,1,170.625001627207,6|2,1:0|0:0,0:0:0:0:
197,270,275005,2,0,B|267:250|267:250|278:224|278:224|345:204,1,170.625001627207,6|2,1:0|0:0,0:0:0:0:
162,186,275236,2,0,P|152:145|142:103,1,85.3125008136034,6|0,1:0|0:0,0:0:0:0:
356,384,275466,21,0,0:0:0:0:
356,384,275543,1,2,1:2:0:0:
419,188,275697,2,0,B|429:139|429:139|409:168,1,85.3125008136034,10|0,0:0|0:0,0:0:0:0:
429,306,275851,101,2,0:0:0:0:
459,305,275928,1,2,0:0:0:0:
481,286,276005,2,0,P|489:250|497:214,1,73.1250027894975,6|0,1:2|0:0,0:0:0:0:
367,39,276159,2,0,P|358:74|350:110,1,73.1250027894975,2|0,0:0|0:0,0:0:0:0:
246,294,276313,6,0,P|267:229|335:230,1,146.250005578995,10|0,0:1|0:0,0:0:0:0:
344,238,276543,2,0,P|308:244|272:252,1,73.1250027894975,2|0,0:1|1:0,0:0:0:0:
80,384,276697,1,0,0:0:0:0:
62,378,276774,2,0,P|37:345|48:305,1,85.3125008136034,2|0,0:1|0:0,0:0:0:0:
225,162,276928,2,0,P|236:122|211:89,1,85.3125008136034,10|0,0:1|0:0,0:0:0:0:
28,128,277082,101,2,0:0:0:0:
33,136,277133,1,2,0:0:0:0:
38,144,277184,1,2,0:0:0:0:
43,152,277236,2,0,P|84:163|125:174,1,85.3125008136034,2|0,1:0|0:0,0:0:0:0:
354,275,277389,2,0,P|312:263|271:252,1,85.3125008136034,2|0,0:2|0:0,0:0:0:0:
149,348,277543,6,0,P|160:306|171:265,1,85.3125008136034,10|0,0:1|0:0,0:0:0:0:
277,0,277697,2,0,P|250:81|225:162,1,170.625001627207,2|0,0:1|1:0,0:0:0:0:
387,351,278005,101,2,0:0:0:0:
428,352,278081,1,2,0:0:0:0:
462,327,278158,1,10,0:1:0:0:
472,286,278235,1,2,0:0:0:0:
455,248,278313,2,0,P|418:227|404:188,1,85.3125008136034,2|2,1:2|0:0,0:0:0:0:
499,6,278466,5,6,1:2:0:0:
488,21,278543,2,0,P|452:28|416:35,1,73.1250027894975,2|0,0:0|0:0,0:0:0:0:
232,154,278697,1,0,0:0:0:0:
243,139,278774,2,0,P|279:132|315:125,1,73.1250027894975,10|0,0:0|0:0,0:0:0:0:
512,91,278928,2,2,P|387:59|263:29,1,255.93750244081,2|0,0:1|0:0,1:0:0:0:
263,29,279236,102,0,P|288:-3|329:-1,1,85.3125008136034,2|0,0:1|0:0,0:0:0:0:
472,158,279389,2,0,P|447:190|406:189,1,85.3125008136034,10|0,0:0|0:0,0:0:0:0:
188,65,279543,2,0,P|156:63|184:77,1,85.3125008136034,2|0,0:1|0:0,0:0:0:0:
364,335,279697,6,0,P|359:304|353:274,1,60.9375,2|0,1:2|0:0,0:0:0:0:
186,239,279851,1,2,0:0:0:0:
174,251,279928,2,0,P|179:281|183:311,1,60.9375,2|8,0:1|0:0,0:0:0:0:
267,377,280082,1,2,0:0:0:0:
284,382,280159,2,0,P|266:274|248:166,1,219.375008368492,2|0,0:1|0:0,0:0:0:0:
256,156,280466,102,0,P|263:191|268:227,1,73.1250027894975,2|0,0:0|0:0,0:0:0:0:
121,371,280620,1,10,0:1:0:0:
74,391,280696,1,2,0:0:0:0:
26,378,280773,1,2,1:2:0:0:
0,338,280850,1,2,1:2:0:0:
0,287,280928,6,0,P|35:280|71:273,1,73.1250027894975,2|0,1:2|0:0,0:0:0:0:
276,329,281082,2,0,P|240:322|204:315,1,73.1250027894975,2|0,0:0|0:0,0:0:0:0:
148,138,281236,1,10,0:0:0:0:
148,138,281313,1,2,0:0:0:0:
148,138,281389,2,0,P|155:173|164:209,1,73.1250027894975,2|0,0:0|0:0,0:0:0:0:
276,329,281543,102,0,B|286:373|286:373|269:336,1,85.3125008136034,2|0,1:0|0:0,0:0:0:0:
81,192,281697,2,0,B|38:182|38:182|80:183,1,85.3125008136034,2|0,1:0|0:0,0:0:0:0:
296,91,281851,2,0,B|327:60|327:60|305:94,1,85.3125008136034,10|0,1:0|0:0,0:0:0:0:
68,345,282005,101,2,1:2:0:0:
73,333,282056,1,0,0:0:0:0:
78,321,282107,1,0,0:0:0:0:
83,309,282159,2,0,P|124:301|166:293,1,85.3125008136034,2|0,1:0|0:0,0:0:0:0:
460,170,282313,2,0,P|418:177|376:185,1,85.3125008136034,2|0,1:0|0:0,0:0:0:0:
64,153,282466,2,0,P|105:145|147:137,1,85.3125008136034,10|0,1:0|0:0,0:0:0:0:
428,42,282620,2,0,B|331:54|361:-2|264:10,1,170.625001627207,2|0,1:0|0:0,0:0:0:0:
402,355,282928,21,2,0:0:0:0:
426,377,283004,1,2,0:0:0:0:
459,378,283081,1,10,0:0:0:0:
485,357,283158,1,2,0:0:0:0:
491,325,283235,1,2,0:0:0:0:
474,296,283312,1,2,0:0:0:0:
391,343,283389,101,6,1:2:0:0:
373,339,283466,2,0,P|300:327|228:315,1,146.250005578995,2|0,0:0|0:0,0:0:0:0:
228,315,283697,2,0,P|263:307|299:298,1,73.1250027894975,10|0,0:0|0:0,0:0:0:0:
419,220,283851,5,2,0:0:0:0:
451,188,283927,1,2,0:0:0:0:
458,144,284004,1,2,1:0:0:0:
436,105,284081,1,2,0:0:0:0:
392,89,284158,1,2,0:0:0:0:
352,107,284235,1,2,0:0:0:0:
311,123,284313,1,10,0:1:0:0:
266,108,284390,1,2,0:0:0:0:
244,71,284467,1,2,0:0:0:0:
251,25,284544,1,2,0:0:0:0:
287,2,284620,102,0,P|302:97|319:193,1,195,6|0,1:2|0:0,0:0:0:0:
511,162,284851,2,0,P|415:177|318:194,1,195,6|0,1:2|0:0,0:0:0:0:
453,34,285082,1,6,1:2:0:0:
454,49,285159,2,0,B|458:79|458:79|391:89,1,97.5,2|0,0:0|0:0,0:0:0:0:
392,89,285389,22,0,L|367:93,1,24.375,0|0,1:0|0:0,0:0:0:0:
318,194,285543,2,0,L|294:198,1,24.375,8|0,0:0|0:0,0:0:0:0:
105,58,285697,85,2,1:2:0:0:
106,52,285748,1,2,0:0:0:0:
107,47,285799,1,2,0:0:0:0:
108,42,285851,2,0,P|116:77|124:113,1,73.1250027894975,6|0,1:2|0:0,0:0:0:0:
216,231,286005,2,0,P|207:195|199:159,1,73.1250027894975,2|0,0:0|0:0,0:0:0:0:
217,0,286159,6,0,P|208:35|200:71,1,73.1250027894975,10|0,0:0|0:0,0:0:0:0:
107,272,286313,2,0,P|115:236|123:200,1,73.1250027894975,2|0,0:0|0:0,0:0:0:0:
340,42,286466,85,2,1:0:0:0:
436,58,286569,1,2,1:0:0:0:
469,148,286671,1,2,1:0:0:0:
406,225,286774,1,2,1:0:0:0:
310,208,286877,1,2,1:0:0:0:
277,116,286979,1,2,1:0:0:0:
507,324,287159,6,0,P|486:366|440:375,1,97.5,2|0,1:0|0:0,0:0:0:0:
372,131,287313,2,0,P|419:139|468:147,1,97.5,2|2,1:2|0:0,0:0:0:0:
276,247,287466,1,2,0:0:0:0:
269,218,287543,2,0,P|247:122|227:27,1,195,2|0,1:2|0:0,0:0:0:0:
197,291,287851,86,2,B|227:357|150:412|42:352|66:197|165:188|186:223|299:141|237:36,1,487.5,2|0,0:1|0:0,1:0:0:0:
227,27,288313,22,0,P|197:32|167:38,1,60.9375,2|0,1:0|0:0,0:0:0:0:
87,126,288466,2,0,P|116:120|146:115,1,60.9375,2|0,0:1|0:0,0:0:0:0:
254,173,288620,2,0,P|224:178|194:183,1,60.9375,8|0,0:0|0:0,0:0:0:0:
78,354,288774,5,2,0:0:0:0:
49,334,288851,1,2,0:0:0:0:
56,302,288928,2,0,P|91:295|127:287,1,73.1250027894975,2|0,1:0|0:0,0:0:0:0:
262,181,289082,2,0,P|226:187|190:195,1,73.1250027894975,2|0,0:1|0:0,0:0:0:0:
75,118,289236,2,0,P|110:111|146:103,1,73.1250027894975,10|0,0:0|0:0,0:0:0:0:
320,15,289389,101,2,0:0:0:0:
362,1,289466,1,2,0:0:0:0:
392,32,289543,2,0,P|385:74|378:116,1,85.3125008136034,2|0,1:0|0:0,0:0:0:0:
412,291,289697,2,0,P|418:248|425:206,1,85.3125008136034,2|0,0:1|0:0,0:0:0:0:
512,44,289851,2,0,P|505:86|498:128,1,85.3125008136034,10|0,0:0|0:0,0:0:0:0:
345,368,290005,5,2,0:0:0:0:
291,384,290082,1,2,0:0:0:0:
253,347,290159,101,2,1:0:0:0:
257,321,290235,1,2,0:0:0:0:
261,296,290312,1,2,0:0:0:0:
265,271,290389,1,2,0:0:0:0:
224,239,290466,5,10,0:1:0:0:
220,213,290542,1,2,0:0:0:0:
216,188,290619,1,2,0:0:0:0:
212,163,290696,1,2,0:0:0:0:
233,121,290774,102,0,P|278:118|298:160,1,97.5,2|0,1:0|0:0,0:0:0:0:
172,317,290928,1,2,1:2:0:0:
172,317,291005,1,2,0:0:0:0:
172,317,291082,2,0,P|126:319|106:277,1,97.5,10|0,1:0|0:0,0:0:0:0:
0,0,291236,5,0,1:0:0:0:
13,12,291313,2,0,P|17:42|21:72,1,60.9375,2|0,0:1|1:0,0:0:0:0:
116,34,291466,2,0,P|120:64|124:94,1,60.9375,2|0,0:1|1:0,0:0:0:0:
214,52,291620,1,2,0:0:0:0:
225,61,291697,2,0,P|229:91|233:121,1,60.9375,2|0,1:0|0:0,0:0:0:0:
115,254,291851,102,0,B|167:233|150:220|200:208,1,97.5,2|0,1:0|0:0,0:0:0:0:
397,81,292005,6,0,P|403:61|407:41,8,40.625,2|2|2|2|2|2|0|0|0,0:0|0:0|0:0|0:0|0:0|0:0|0:0|0:0|0:0,0:0:0:0:
392,97,292466,21,2,0:0:0:0:
480,161,292620,1,2,0:0:0:0:
298,71,292774,1,2,1:2:0:0:
504,7,292928,1,10,0:0:0:0:
290,188,293082,1,2,0:0:0:0:
490,362,293236,22,2,B|501:339|530:322|530:322|447:291|381:353,1,219.375008368492,6|0,1:0|0:0,1:0:0:0:
370,369,293543,1,10,0:0:0:0:
335,376,293619,1,2,0:0:0:0:
301,366,293696,1,2,0:0:0:0:
276,340,293773,1,2,0:0:0:0:
266,305,293850,1,2,1:2:0:0:
276,270,293927,1,2,0:0:0:0:
301,243,294005,2,0,P|296:280|284:314,1,73.1250027894975,2|0,0:0|0:0,0:0:0:0:
202,384,294159,86,2,P|109:329|1:322,1,219.375008368492,10|0,0:1|0:0,1:0:0:0:
0,322,294466,22,0,P|55:328|66:274,1,121.875,2|0,1:0|0:0,0:0:0:0:
9,164,294774,1,8,0:0:0:0:
166,313,294928,2,0,P|157:241|146:169,1,146.250005578995,2|0,0:1|1:0,0:0:0:0:
117,35,295236,1,0,0:0:0:0:
158,330,295389,86,0,B|235:345|275:275|254:261|295:195|363:214,1,255.93750244081,10|0,0:1|0:0,0:0:0:0:
376,223,295697,22,2,P|383:282|314:280,1,146.250005578995,6|0,1:0|0:0,1:0:0:0:
498,98,296005,1,10,0:0:0:0:
512,119,296082,1,2,0:0:0:0:
490,134,296159,1,2,0:0:0:0:
504,155,296236,1,2,0:0:0:0:
482,170,296312,1,2,1:2:0:0:
495,191,296389,1,2,0:0:0:0:
483,200,296466,2,0,P|473:235|466:271,1,73.1250027894975,2|0,0:0|0:0,0:0:0:0:
438,353,296620,86,2,P|416:246|396:138,1,219.375008368492,10|0,0:1|0:0,1:0:0:0:
408,126,296928,22,0,P|348:112|289:99,1,121.875,2|0,1:0|0:0,0:0:0:0:
468,26,297236,1,8,0:0:0:0:
321,192,297389,2,0,P|250:176|179:159,1,146.250005578995,2|0,0:1|1:0,0:0:0:0:
312,11,297697,85,2,0:0:0:0:
312,11,297774,1,2,0:0:0:0:
312,11,297851,2,0,P|332:47|315:88,1,85.3125008136034,10|0,0:1|0:0,0:0:0:0:
168,166,298005,2,0,P|141:133|151:90,1,85.3125008136034,0|0,1:0|0:0,0:0:0:0:
214,5,298159,22,0,P|245:130|269:255,1,255.93750244081,6|0,1:0|0:0,0:0:0:0:
260,268,298466,2,0,B|357:281|311:318|412:337,1,170.625001627207,8|0,0:0|0:0,0:0:0:0:
512,175,298774,2,0,P|428:190|344:206,1,170.625001627207,0|0,1:0|0:0,0:0:0:0:
49,364,299082,2,0,P|132:348|216:332,1,170.625001627207,8|0,0:0|1:0,0:0:0:0:
260,268,299313,1,0,1:0:0:0:
268,254,299389,86,0,B|211:221|199:154|199:154|173:218|109:240,1,255.93750244081,2|0,1:0|0:0,0:0:0:0:
117,255,299697,1,8,0:0:0:0:
19,69,299851,21,2,0:1:0:0:
19,69,299928,1,2,0:0:0:0:
19,69,300005,2,2,P|96:58|84:167,1,219.375008368492,2|0,1:0|0:0,1:0:0:0:
85,166,300313,2,2,P|31:150|31:93,1,121.875,10|0,0:1|0:0,1:0:0:0:
181,19,300620,85,2,1:0:0:0:
218,14,300697,1,2,0:0:0:0:
245,31,300774,1,2,0:0:0:0:
264,51,300851,1,2,0:0:0:0:
278,70,300928,1,8,0:0:0:0:
295,81,301005,1,0,0:0:0:0:
311,84,301082,1,0,0:0:0:0:
338,78,301159,1,0,0:0:0:0:
354,51,301236,1,2,1:0:0:0:
342,14,301313,1,2,0:0:0:0:
306,4,301389,1,2,0:0:0:0:
266,24,301466,1,2,0:0:0:0:
252,66,301543,1,10,0:0:0:0:
275,113,301620,1,2,0:0:0:0:
326,134,301697,1,2,0:0:0:0:
385,115,301774,1,2,0:0:0:0:
430,55,301851,22,0,P|495:53|499:119,1,146.250005578995,2|0,1:0|0:0,0:0:0:0:
440,175,302082,1,2,0:1:0:0:
440,175,302159,1,10,0:0:0:0:
481,369,302313,86,0,P|498:338|498:301,1,73.1250027894975,2|0,0:1|0:0,0:0:0:0:
282,260,302467,1,2,1:0:0:0:
292,284,302544,1,2,0:0:0:0:
316,274,302621,1,2,0:0:0:0:
327,298,302697,1,2,0:0:0:0:
349,289,302775,1,10,0:0:0:0:
360,313,302852,1,2,0:0:0:0:
384,303,302929,1,2,0:0:0:0:
394,327,303005,1,2,0:0:0:0:
417,318,303082,22,0,P|308:303|199:288,1,219.375008368492,6|0,1:0|0:0,0:0:0:0:
189,275,303389,2,0,P|123:292|119:360,1,146.250005578995,8|0,0:0|0:0,0:0:0:0:
317,194,303697,2,0,P|312:125|246:109,1,146.250005578995,0|0,1:0|0:0,0:0:0:0:
127,370,304005,86,2,P|149:262|168:154,1,219.375008368492,10|0,0:1|0:0,1:0:0:0:
158,137,304313,21,2,1:0:0:0:
132,151,304389,1,2,0:0:0:0:
103,154,304466,1,2,0:0:0:0:
75,146,304543,1,2,0:0:0:0:
52,128,304620,1,10,0:0:0:0:
38,103,304697,1,2,0:0:0:0:
34,74,304774,1,2,0:0:0:0:
41,46,304851,1,2,0:0:0:0:
58,21,304928,2,0,P|93:31|128:40,1,73.1250027894975,2|0,1:0|0:0,0:0:0:0:
254,159,305082,2,0,P|218:148|183:139,1,73.1250027894975,2|0,0:1|0:0,0:0:0:0:
14,210,305236,85,8,0:0:0:0:
140,33,305389,1,0,1:0:0:0:
26,292,305543,5,6,1:0:0:0:
17,317,305619,1,0,0:0:0:0:
33,344,305696,1,0,0:0:0:0:
61,354,305773,1,0,0:0:0:0:
90,345,305851,85,10,0:1:0:0:
75,310,305927,1,0,0:0:0:0:
90,274,306004,1,0,0:0:0:0:
123,255,306081,1,0,0:0:0:0:
162,259,306159,5,2,1:0:0:0:
150,306,306235,1,0,0:0:0:0:
177,348,306312,1,0,0:0:0:0:
225,366,306389,1,0,0:0:0:0:
271,351,306466,21,10,0:1:0:0:
256,294,306542,1,0,0:0:0:0:
289,244,306619,1,0,0:0:0:0:
346,222,306696,1,0,0:0:0:0:
401,240,306773,21,2,1:0:0:0:
331,272,306851,1,2,0:0:0:0:
272,253,306928,1,2,0:0:0:0:
242,207,307005,1,2,0:0:0:0:
249,153,307082,1,10,0:0:0:0:
283,116,307159,1,2,0:0:0:0:
333,104,307236,1,2,0:0:0:0:
364,73,307313,1,2,0:0:0:0:
365,32,307389,1,2,1:2:0:0:
340,2,307466,1,0,0:0:0:0:
304,0,307543,1,0,0:0:0:0:
273,17,307620,1,0,0:0:0:0:
263,47,307697,1,10,0:0:0:0:
269,76,307774,1,0,0:0:0:0:
289,94,307851,1,0,1:0:0:0:
313,97,307928,1,0,1:0:0:0:
336,92,308005,86,2,B|385:26|476:43|476:43|449:58|438:90,1,219.375008368492,6|0,1:0|0:0,1:0:0:0:
512,109,308313,1,8,0:0:0:0:
331,272,308466,2,0,P|326:235|320:199,1,73.1250027894975,2|0,0:1|0:0,0:0:0:0:
186,52,308620,85,2,1:0:0:0:
149,53,308696,1,2,0:0:0:0:
114,62,308773,1,2,0:0:0:0:
81,78,308850,1,2,0:0:0:0:
50,100,308928,21,10,0:1:0:0:
104,91,309004,1,2,0:0:0:0:
152,114,309081,1,2,0:0:0:0:
179,161,309158,1,2,0:0:0:0:
174,215,309235,85,2,1:0:0:0:
163,230,309313,1,0,0:0:0:0:
123,251,309389,21,2,0:1:0:0:
105,248,309467,1,0,0:0:0:0:
63,257,309543,85,10,0:1:0:0:
45,263,309621,1,0,0:0:0:0:
21,301,309697,21,2,0:1:0:0:
18,319,309775,1,0,0:0:0:0:
48,355,309851,86,0,L|84:360,1,36.5625013947487,2|0,1:0|0:0,0:0:0:0:
221,227,310005,2,0,L|184:221,1,36.5625013947487,2|0,1:0|0:0,0:0:0:0:
71,204,310159,2,0,L|66:241,1,36.5625013947487,10|0,0:1|0:0,0:0:0:0:
197,377,310313,2,0,L|202:340,1,36.5625013947487,2|0,1:0|0:0,0:0:0:0:
301,122,310466,21,6,1:0:0:0:
345,105,310542,1,2,0:0:0:0:
388,123,310619,1,2,1:2:0:0:
409,165,310697,1,2,0:0:0:0:
442,198,310773,1,10,0:0:0:0:
487,192,310850,1,2,0:0:0:0:
508,152,310928,2,0,P|502:115|496:79,1,73.1250027894975,2|0,1:2|0:0,0:0:0:0:
185,182,311082,85,2,1:2:0:0:
197,188,311159,1,2,0:0:0:0:
218,198,311236,1,2,1:2:0:0:
246,212,311313,1,2,0:0:0:0:
281,230,311389,1,10,0:0:0:0:
320,251,311466,1,2,0:0:0:0:
364,277,311543,1,2,1:2:0:0:
416,309,311620,1,2,0:0:0:0:
480,352,311697,21,2,1:0:0:0:
485,343,311773,1,0,3:0:0:0:
490,333,311850,1,0,3:0:0:0:
495,323,311927,1,2,3:1:0:0:
498,313,312004,1,0,3:0:0:0:
501,302,312081,1,0,3:0:0:0:
504,292,312158,1,2,3:1:0:0:
506,281,312235,1,2,3:0:0:0:
507,270,312313,70,0,L|502:233,1,36.5625013947487,2|0,3:0|0:0,0:0:0:0:
413,47,312467,2,0,L|417:83,1,36.5625013947487,2|0,3:0|0:0,0:0:0:0:
497,263,312620,6,0,L|492:226,1,36.5625013947487,2|0,3:0|0:0,0:0:0:0:
402,39,312774,2,0,L|406:75,1,36.5625013947487,2|0,3:0|0:0,0:0:0:0:
273,314,312928,5,6,1:2:0:0:
201,284,313005,1,0,1:0:0:0:
129,254,313082,1,0,1:0:0:0:
129,254,313389,21,2,1:2:0:0:
190,206,313466,1,2,1:2:0:0:
253,160,313543,1,2,1:2:0:0:
191,24,313697,6,0,L|187:0,2,24.375,0|0|0,3:0|3:0|3:0,0:0:0:0:
253,160,313851,69,2,1:2:0:0:
264,236,313928,1,2,1:2:0:0:
273,314,314005,1,2,1:2:0:0:
195,296,314261,5,2,1:2:0:0:
181,195,314364,1,2,1:2:0:0:
277,234,314466,1,2,1:2:0:0:
82,166,314774,22,0,B|48:202|48:202|68:246,1,97.5,2|0,1:2|0:0,0:0:0:0:
133,369,314928,1,2,3:2:0:0:
122,364,315005,1,2,3:2:0:0:
111,359,315082,2,0,L|82:166,1,195,2|0,1:2|0:0,0:0:0:0:
368,245,315389,69,2,1:2:0:0:
440,215,315466,1,2,1:2:0:0:
512,185,315543,1,2,1:2:0:0:
512,185,315850,21,2,1:2:0:0:
451,137,315927,1,2,1:2:0:0:
388,91,316004,1,2,1:2:0:0:
507,24,316159,6,0,L|510:0,2,24.375,0|0|0,3:0|3:0|3:0,0:0:0:0:
388,91,316312,69,2,1:2:0:0:
377,167,316389,1,2,1:2:0:0:
368,245,316466,1,2,1:2:0:0:
445,228,316722,5,2,1:2:0:0:
459,127,316825,1,2,1:2:0:0:
363,166,316927,1,2,1:2:0:0:
510,383,317236,22,0,P|490:340|444:334,1,97.5,2|0,1:2|0:0,0:0:0:0:
319,348,317389,1,2,3:2:0:0:
319,348,317466,1,2,3:2:0:0:
319,348,317543,2,0,P|415:363|510:383,1,195,2|0,1:2|0:0,0:0:0:0:
210,227,317851,69,2,1:2:0:0:
192,150,317928,1,2,1:2:0:0:
175,74,318005,1,2,1:2:0:0:
175,74,318312,21,2,1:2:0:0:
118,126,318389,1,2,1:2:0:0:
61,180,318466,1,2,1:2:0:0:
114,336,318620,6,0,L|119:359,2,24.375,0|0|0,3:0|3:0|3:0,0:0:0:0:
61,180,318774,69,2,1:2:0:0:
43,103,318851,1,2,1:2:0:0:
26,27,318928,1,2,1:2:0:0:
207,155,319184,5,2,1:2:0:0:
118,126,319287,1,2,1:2:0:0:
28,98,319389,1,2,1:2:0:0:
27,345,319697,22,0,L|123:329,1,97.5,2|0,1:2|0:0,0:0:0:0:
212,269,319851,1,2,3:2:0:0:
212,269,319928,1,2,3:2:0:0:
212,269,320005,2,0,B|294:319|294:319|214:383,1,195,2|0,1:2|0:0,0:0:0:0:
343,36,320313,69,2,1:2:0:0:
415,68,320390,1,2,1:2:0:0:
487,98,320467,1,2,1:2:0:0:
487,98,320774,21,2,1:2:0:0:
426,145,320851,1,2,1:2:0:0:
363,191,320928,1,2,1:2:0:0:
205,114,321082,6,0,L|165:100,2,24.375,0|0|0,3:0|3:0|3:0,0:0:0:0:
363,191,321236,69,2,1:2:0:0:
435,223,321313,1,2,1:2:0:0:
507,253,321390,1,2,1:2:0:0:
412,52,321646,5,2,1:2:0:0:
426,145,321748,1,2,1:2:0:0:
436,239,321851,1,2,1:2:0:0:
311,88,322005,5,4,1:0:0:0:
256,192,322082,12,0,327697,0:0:0:0:
